#TITLE:Dark Clock;
#SUBTITLE:~ Death Dial;
#ARTIST:Aquaelie;
#TITLETRANSLIT:;
#SUBTITLETRANSLIT:;
#ARTISTTRANSLIT:;
#CREDIT:;
#BANNER:;
#BACKGROUND:;
#LYRICSPATH:;
#CDTITLE:;
#MUSIC:Dark Clock ~ Death Dial.ogg;
#OFFSET:-0.020;
#SAMPLESTART:24.500;
#SAMPLELENGTH:12.000;
#SELECTABLE:YES;
#BPMS:0.000=78.500,16.000=157.000,48.000=313.999,176.000=157.000,192.000=313.999,256.000=78.500,260.000=157.000,268.000=314.000;
#STOPS:;
#BGCHANGES:;

//---------------dance-single - ----------------
#NOTES:
     dance-single:
     :
     Challenge:
     12:
     0.945,1.000,0.200,0.250,0.308:
0000
0000
0000
0000
,
0000
0000
0000
0000
,
0000
0000
0000
0000
,
0000
0000
0000
0000
,
1000
0100
0010
0000
0001
0100
0000
0010
1000
0000
0010
0100
0000
0001
0010
0100
,
1000
0100
1000
0000
0001
0100
0000
0010
1000
0000
0010
0100
0000
0001
0010
0100
,
2000
0000
0001
0000
0000
0001
0000
0000
0001
0000
0000
0001
0000
0000
0001
0000
,
3001
0100
0010
1000
0010
0100
0001
0010
0100
1000
0100
0010
0001
0100
0010
1000
,
0001
0100
0001
0000
1000
0100
0000
0100
0010
0000
0010
0001
0000
0001
0100
0010
,
1000
0010
0100
0000
0100
0001
0000
0001
1000
0000
1000
0100
0000
0100
0010
0001
,
2000
0000
0000
0010
0000
0000
0010
0000
0000
0010
0000
0000
0010
0000
0010
0000
,
3010
0100
0010
0100
0010
0100
0010
0100
0001
0010
0100
1000
0100
0010
0001
1000
,
0001
0100
0010
1000
,
0010
0000
1000
0100
0010
0001
1000
0000
,
0001
0010
0001
0100
,
0010
0000
1000
0100
0010
0000
0001
0000
,
0100
0010
1000
0010
,
0100
0000
0001
0010
0100
1000
0010
0100
,
0001
0100
0010
0100
,
0001
0000
0010
0100
1000
0010
0100
0000
,
0001
0100
0010
1000
,
0010
0000
0100
0001
1000
0001
0100
0000
,
0010
1000
0100
0010
,
0001
0000
1000
0100
0010
0000
0001
0000
,
0100
0010
1000
0010
,
0100
0000
0001
0010
0001
0100
0010
1000
,
0001
0100
0010
1000
,
0100
0000
0001
0100
2000
0000
0000
0000
,
3001
0100
0010
1000
,
0010
0000
0100
0001
0010
0100
1000
0000
,
0001
0010
0100
0010
,
0001
0000
0100
0010
1000
0000
0010
0000
,
0100
0001
0010
0001
,
0100
0000
0010
1000
0010
0100
0001
0010
,
0100
1000
0010
0100
,
0001
0000
1000
0100
1000
0010
0100
0000
,
0001
0010
0001
0100
,
0010
0000
1000
0100
1000
0010
0100
0000
,
0001
0010
0001
0010
,
0100
0000
1000
0100
0010
0000
0001
0000
,
0100
0010
1000
0010
,
0100
0000
0001
0100
0010
1000
0010
0100
,
0001
0010
0100
1000
,
0010
0000
0100
0001
0100
0010
1000
0001
,
1000
0000
0001
0000
0000
0000
1000
0100
1000
0000
0000
0000
0000
0000
0001
0000
,
0100
0010
0100
0000
0000
0000
0011
0000
0110
0000
1100
0000
1001
0000
0101
0000
,
1000
0001
1000
0000
0000
0000
0001
0100
0001
0000
0000
0000
0000
0000
0001
0000
,
1000
0100
0010
0000
0000
0000
0011
0000
0110
0000
1100
0000
1001
0000
0101
0000
,
1002
0000
0000
0200
0003
0000
0320
0000
,
2030
0000
0000
3200
0000
0000
0320
0000
,
0031
0000
0100
0010
0000
1000
0010
0100
,
0001
0000
1001
0000
1100
0000
1000
0100
,
1000
0100
0010
0001
0100
0010
1000
0010
,
0100
0001
0100
0001
0100
0001
1000
0010
1000
0010
1000
0010
,
1000
0100
0010
0001
0010
0100
1000
0100
,
0010
0011
0110
1100
,
1000
0100
0010
0001
1000
0100
0010
0001
,
1000
0010
0100
0001
1000
0010
0100
0001
,
1000
0100
0010
0001
0010
0100
1000
0100
,
0010
0001
0010
0001
0100
0010
1000
0010
,
1000
0100
0001
0100
1000
0100
0001
0100
,
1000
0010
0001
0010
1000
0010
0001
0010
,
1000
0100
1000
0100
1000
0100
1000
0100
,
0010
0001
0010
0001
0010
0001
0010
0001
,
1000
0000
0000
0000
1100
0000
0011
0000
0000
0000
0001
1000
0001
1000
0001
1000
0001
0000
0000
0000
0101
0000
1010
0000
0000
0000
0001
1000
0001
1000
0001
0000
,
2002
0000
0000
0000
,
0000
0000
0000
0000
0000
0000
0000
0000
3003
0000
0000
0000
1000
0100
0010
0001
,
1M00
00M1
1M00
00M1
1000
0100
0010
0001
,
0100
0010
1000
0010
0100
0001
0010
0001
,
0100
0010
1000
0100
0010
0001
1000
0100
,
0010
0001
0100
0010
1000
0001
0010
0001
,
10M0
010M
10M0
010M
1000
0010
0100
0001
,
1000
0010
0100
0001
1000
0100
0010
0001
,
0100
0010
1000
0100
0010
0100
1000
0010
,
0100
0001
0010
0001
0100
0010
1000
0010
,
1M00
00M1
1M00
00M1
1000
0100
1000
0100
,
0010
0001
0010
0001
1000
0010
1000
0010
,
0100
0001
0100
0001
0100
0010
1000
0100
,
0010
0001
0010
0100
1000
0010
0100
0010
,
1M00
00M1
1M00
00M1
1000
0100
0010
0100
,
1000
0010
0100
0001
0010
0001
0010
0100
,
1000
0100
1000
0100
0010
0001
0100
0010
,
1000
0001
0010
0100
1000
0010
0100
0001
,
1001
1000
0010
0100
,
0001
0010
0100
1000
,
0100
0010
0001
0100
,
0020
0000
0000
2030
0000
0000
3002
0000
,
0013
0100
1000
0010
,
0100
0001
0100
0010
,
2000
0001
0001
0001
,
3002
0100
0100
0100
,
0203
0000
0000
0320
0000
0000
2030
0000
,
3002
0000
0023
0000
0130
1000
0100
0010
,
0001
0100
0010
1000
0100
1000
0010
0100
,
0001
0100
0001
0100
0001
0100
0010
1000
0010
1000
0010
1000
,
0001
1000
0001
1000
0001
1000
0001
0100
0001
0100
0001
0100
,
0001
0100
0010
1000
0010
0100
0001
0010
,
0200
1000
1000
1000
,
2300
0000
0000
3020
0000
0000
0230
0000
,
0301
0010
0001
0100
,
0010
0000
1000
0100
0010
0001
0100
0000
,
0001
0100
0010
1000
,
0010
0000
0100
0001
1000
0000
0001
0000
,
0010
0100
1000
0010
,
0100
0000
0001
0100
0001
0100
0010
1000
,
0001
1000
0100
1000
,
0010
0000
0100
0001
0100
0010
1000
0000
,
0001
0010
0001
0010
,
0100
0000
1000
0100
1000
0100
1000
0000
,
0010
0100
0001
0010
,
0100
0000
1000
0100
0010
0000
0001
0000
,
0100
0010
1000
0010
,
0100
0000
0001
0010
0100
1000
0010
0100
,
0001
0100
0010
1000
,
0010
0000
0100
0001
0100
0010
1000
0001
,
2001
0000
0001
0000
,
3002
0000
0100
0000
,
0203
0000
0010
0000
,
0320
0000
0000
2030
0100
0000
3100
0000
,
0120
0000
0000
0000
0001
0000
0031
0100
,
0020
0000
0000
1000
0000
0000
1000
0000
,
1030
0000
0000
1001
0000
0000
0101
0000
,
0000
0110
0000
0000
1000
0100
1000
0100
,
1000
0100
0010
0001
,
0100
0000
1000
0100
0001
0010
0001
0000
,
0010
0100
0010
0001
,
0010
0000
1000
0010
0001
0000
1000
0000
,
1001
1000
0010
0100
,
0001
0000
0100
1000
0100
0001
0100
0001
,
1000
0100
0010
0001
,
2000
0000
0001
0000
3001
0100
0001
0100
,
0001
0000
1000
0000
0001
0100
0000
0010
,
1000
0000
0001
0000
1000
0100
0010
0001
,
1000
0000
0010
0000
0100
0001
0000
1000
,
0010
0000
0100
0000
0001
0010
0001
0100
,
0010
0000
1000
0000
0001
0010
0000
0010
,
0001
0000
0100
0000
0010
1000
0010
0100
,
0001
0000
0010
0000
0100
1000
0000
0100
,
1000
0000
0010
0000
0100
0001
1000
0000
,
0001
0000
0010
0000
0100
1000
0000
0100
,
1000
0000
0010
0000
0100
0001
0100
0010
,
1000
0000
0010
0000
0100
0001
0000
0100
,
0001
0000
0100
0000
0010
1000
0010
0100
,
0001
0000
0010
0000
0100
1000
0000
0001
,
0100
0000
0010
0000
1000
0010
0100
0001
,
1000
0000
0010
0000
0100
0001
0000
0100
,
0010
0000
1000
0000
0001
2000
0002
0000
,
0000
0000
3003
0000
;

//---------------dance-single - ----------------
#NOTES:
     dance-single:
     :
     Hard:
     9:
     0.689,0.897,0.100,0.243,0.061:
0000
0000
0000
0000
,
0000
0000
0000
0000
,
0000
0000
0000
0000
,
0000
0000
0000
0000
,
1001
0000
0000
0000
0100
0000
0000
0100
0000
0000
0100
0000
0000
0100
0000
0000
,
1001
0000
0000
0000
0001
0000
0000
0001
0000
0000
0001
0000
0000
0001
0000
0000
,
2002
0000
0000
3003
,
1000
0000
0000
0100
0000
0000
0010
0000
0000
0001
0000
0000
1000
0000
0001
0000
,
1001
0000
0000
0000
0001
0000
0000
0001
0000
0000
0001
0000
0000
0001
0000
0000
,
1001
0000
0000
0000
1000
0000
0000
1000
0000
0000
1000
0000
0000
1000
0000
0000
,
2002
0000
0000
3003
,
0001
0100
0010
1000
0002
0000
0000
0000
,
1003
0100
0010
0001
,
0100
0000
0010
1000
0010
0000
0100
0000
,
0001
0010
0100
0010
,
0001
0000
1000
0100
1000
0000
0010
0000
,
0100
0001
0100
0010
,
1000
0000
0001
0100
0001
0000
1000
0100
,
1000
0010
0100
0001
,
0100
0000
0010
0100
0010
0000
1000
0000
,
0001
0010
0001
0100
,
0010
0000
1000
0100
1000
0000
0100
0000
,
0010
0001
0100
0010
,
1000
0000
0001
0100
0001
0000
0100
0000
,
0010
1000
0010
0100
,
0001
0000
0010
0100
0010
0000
0001
1000
,
0001
0100
0010
1000
,
0001
0000
1000
0100
2000
0000
0000
0000
,
3001
0100
0010
1000
,
0001
0000
1000
0100
1000
0000
0010
0000
,
0100
0001
0100
0010
,
1000
0000
0001
0100
0001
0000
0010
0000
,
0001
0100
0010
1000
,
0001
0000
1000
0100
1000
0000
0001
0100
,
0001
0100
0010
1000
,
0010
0000
0100
0001
0100
0000
0010
0000
,
1000
0100
1000
0010
,
0100
0000
0001
0010
0001
0000
0010
0000
,
0100
1000
0100
1000
,
0010
0000
0100
0001
0100
0000
0010
0000
,
1000
0001
1000
0001
,
0100
0000
0010
1000
0010
0000
0100
0001
,
0100
0010
1000
0001
,
0010
0000
0100
1000
0100
0000
0010
0000
,
0001
0001
0000
0100
0100
0000
0000
0000
,
0010
0010
0000
1000
0100
1000
0010
0100
,
0001
1000
0001
0000
0000
0000
0100
0000
0100
0000
0000
0000
0000
0000
0000
0000
,
0010
0000
0000
1000
0010
1000
0010
0100
,
0001
0000
0000
0010
0000
0000
0100
0000
,
1000
0000
0000
0010
0000
0000
0100
0000
,
0001
0000
1000
0100
0000
0010
0001
0000
,
1000
0010
0100
0001
,
1000
0100
0010
0001
,
1000
0100
1000
0100
1000
0100
1000
0100
,
1000
0010
0100
0001
,
0100
0100
0010
0010
,
1000
0100
0010
0001
,
0010
0100
0010
0100
0010
0000
0001
0000
,
0100
0001
0100
0010
,
1000
0100
1000
0010
,
1000
0100
0001
0100
,
1000
0010
0001
0010
,
2000
0000
0000
0000
,
3002
0000
0000
0000
,
1003
0000
1000
0001
0000
1000
0001
1000
0001
0000
0001
1000
0000
0001
1000
0001
,
2002
0000
0000
0000
,
0000
0000
0000
0000
3003
0000
1000
0001
,
1000
0100
1000
0100
1000
0000
0010
0000
,
0100
0001
0100
0010
,
1000
0010
0100
0001
,
0010
0100
1000
0010
,
1000
0100
1000
0100
0010
0000
0001
0000
,
0100
0010
1000
0010
,
0100
0001
0010
0100
,
0010
0000
0001
0000
0010
0100
0010
0100
,
1000
0001
1000
0001
1000
0000
0010
0000
,
0100
0001
0100
0010
,
1000
0010
0100
0001
,
1000
0100
1000
0010
,
1000
0001
1000
0001
1000
0000
0010
0000
,
0100
0001
0100
0010
,
1000
0100
0010
0001
,
0100
0010
1000
0001
,
2001
0001
0000
0001
,
0000
0001
0000
0001
,
0000
0001
0000
0001
,
3002
0000
0000
0203
0000
0000
0320
0000
,
2030
0001
0000
0001
,
0000
0001
0000
0001
,
3002
0100
0000
0100
,
0203
0010
0000
0010
,
0320
0000
0000
2030
0000
0000
3001
0000
,
1000
0100
0010
0001
,
0100
0010
1000
0010
,
1000
0100
1000
0100
0010
0001
0010
0001
,
1000
0010
1000
0010
0100
0001
0100
0001
,
1000
0100
0010
0001
,
2000
0001
0000
0001
,
3002
0000
0000
0023
0000
0000
0130
0000
,
1000
0100
0010
0001
,
0100
0000
0010
1000
0010
0000
0100
0000
,
0001
0010
0001
0100
,
0010
0000
1000
0100
0010
0000
0001
0000
,
0100
0010
1000
0010
,
0100
0000
0001
0100
0001
0000
1000
0100
,
1000
0010
0100
0001
,
0100
0000
0010
1000
0001
0000
0100
0000
,
0010
1000
0010
0100
,
0001
0000
0010
0100
1000
0000
0100
0000
,
0010
0001
0100
0010
,
1000
0000
0010
0100
0001
0000
1000
0000
,
0001
0010
0001
0100
,
0010
0000
1000
0100
1000
0000
0001
0100
,
0001
1000
0100
1000
,
0010
0000
0100
0001
0100
0000
0010
0000
,
2001
0000
0001
0000
,
3002
0000
0100
0000
,
0203
0000
0010
0000
,
0320
0000
0000
2030
0000
0000
3100
0000
,
0021
0000
0000
0000
0001
0000
0031
1000
,
0002
0000
0000
1000
0000
0000
1000
0000
,
1003
0000
0000
1100
0000
0000
0110
0000
,
0000
0011
0000
0000
2001
0000
0000
0000
,
3001
0100
0010
1000
,
0010
0100
0001
0010
,
0100
1000
0100
0010
,
0001
0100
1000
0100
,
0001
0010
1000
0010
,
0001
0100
0010
1000
,
0100
0010
0001
0010
,
0200
1000
2300
0001
,
3001
0000
0100
0000
0001
0100
0000
0100
,
0010
0000
0010
0000
1000
0001
1000
0001
,
1000
0000
0001
0000
0100
0010
0000
0010
,
1000
0000
1000
0000
0001
1000
0001
1000
,
0001
0000
0010
0000
0100
1000
0000
1000
,
0100
0000
0100
0000
0010
0001
0010
0001
,
1000
0000
1000
0000
0010
1000
0000
1000
,
0001
0000
0001
0000
1000
0010
1000
0010
,
1000
0000
0010
0000
0100
0001
0000
0001
,
1000
0000
1000
0000
0100
0010
0100
0010
,
0100
0000
1000
0000
0010
0100
0000
0100
,
0001
0000
0001
0000
1000
0100
1000
0100
,
1000
0000
0010
0000
0100
0001
0000
0001
,
1000
0000
0010
0000
0100
0001
0100
0001
,
0100
0000
0010
0000
1000
0100
0000
0100
,
0010
0000
0001
0000
1000
0002
2000
0000
,
0000
0000
3003
0000
;

//---------------dance-single - ----------------
#NOTES:
     dance-single:
     :
     Medium:
     7:
     0.440,0.633,0.057,0.243,0.014:
0000
0000
0000
0000
,
0000
0000
0000
0000
,
0000
0000
0000
0000
,
0000
0000
0000
0000
,
1001
0000
0000
0000
,
1001
0000
0000
0000
,
2002
0000
0000
3003
,
1000
0000
0000
0001
0000
0000
1000
0000
0000
0001
0000
0000
1000
0000
0001
0000
,
1001
0000
0000
0000
,
1001
0000
0000
0000
,
2002
0000
0000
3003
,
2000
0000
3002
0000
,
1003
0100
0010
0001
,
1000
0000
0010
0000
,
0100
0001
0100
0010
,
1000
0000
0001
0000
,
0010
0100
0010
0001
,
0100
0000
0010
0000
,
1000
0010
0100
0001
,
0010
0000
0100
0000
,
1000
0100
0010
0001
,
0100
0000
0010
0000
,
1000
0010
0100
0001
,
0010
0000
0100
0000
,
1000
0100
1000
0100
,
0010
0000
0001
0000
,
0100
0010
1000
0010
,
0100
0000
0002
0000
,
1003
0100
0010
0001
,
0100
0000
0010
0000
,
1000
0010
0100
0001
,
0010
0000
0100
0000
,
1000
0100
1000
0100
,
0010
0000
0001
0000
,
0100
0001
0100
0010
,
1000
0000
0001
0000
,
0100
0001
0100
0010
,
1000
0000
0010
0000
,
1000
0100
0001
0100
,
1000
0000
0010
0000
,
0100
0001
0100
0001
,
1000
0000
0001
0000
,
1000
0010
0001
0010
,
1000
0000
0001
1000
,
0001
0000
0100
0000
,
0010
0000
0000
0000
1000
0100
1000
0100
,
1000
0000
0100
0000
,
0001
0000
0000
0000
0010
0001
0010
0001
,
0010
0000
0000
0010
0000
0000
0010
0000
,
0100
0000
0000
0100
0000
0000
0100
0000
,
1000
0000
1000
0001
0000
0000
0100
0000
,
0010
1000
0010
0100
,
0001
0100
0001
0100
,
0010
1000
0010
1000
,
0001
0010
0100
1000
,
0001
1000
0001
1000
,
0001
0100
0010
1000
,
0010
0100
0001
0010
,
0100
1000
0100
0010
,
0001
0100
0001
0100
,
0010
1000
0010
0100
,
0001
0010
0100
1000
,
0002
0000
0000
0000
,
2003
0000
0000
0000
,
3001
0000
0000
0001
0000
0000
0000
0000
1000
0000
0000
1000
0000
0000
0000
0000
,
2002
0000
0000
0000
,
0000
0000
0000
3003
,
1000
0000
0001
0100
,
0010
1000
0010
0100
,
0001
0010
0100
1000
,
0010
0100
0001
1000
,
0000
0000
1000
0100
,
0010
0001
0100
0010
,
1000
0010
0100
0001
,
0010
0100
1000
0001
,
0000
0000
0001
0100
,
0010
1000
0010
0100
,
0001
0010
0100
1000
,
0010
0100
0001
1000
,
0000
0000
1000
0010
,
0010
0100
0001
0100
,
0010
1000
0001
1000
,
0001
0010
0100
1000
,
0002
0000
0000
0000
,
0000
0000
0000
0000
,
0000
0000
0000
0000
,
1003
0000
0000
0010
0000
0000
0100
0000
,
0002
0000
0000
0000
,
0000
0000
0000
0000
,
0023
0000
0000
0000
,
0230
0000
0000
0000
,
1300
0000
0000
0010
0000
0000
1000
0000
,
0010
0100
0001
0100
,
0010
1000
0010
0100
,
0001
0010
0100
0010
,
0001
0100
0010
1000
,
0010
0100
0001
0010
,
0200
0000
0000
0000
,
1300
0000
0000
1000
0000
0000
1000
0000
,
0001
0100
0010
1000
,
0010
0000
0100
0000
,
0001
0010
0001
0100
,
0010
0000
0100
0000
,
0001
0100
0010
1000
,
0100
0000
1000
0000
,
0010
0100
0001
0010
,
0100
0000
0010
0000
,
0001
0100
0010
1000
,
0001
0000
0100
0000
,
0010
1000
0010
0100
,
0001
0000
1000
0000
,
0100
0010
0001
0100
,
0010
0000
0100
0000
,
0001
0010
0100
1000
,
0100
0000
0001
0000
,
0200
0000
0000
0000
,
2300
0000
0000
0000
,
3020
0000
0000
0000
,
0130
0000
0000
0001
0000
0000
1000
0000
,
0002
0000
0000
0100
,
0203
0000
0000
0000
,
0320
0000
2030
0000
,
3002
0000
0023
0000
,
0230
0000
0000
0000
,
2300
0000
0000
0000
,
3020
0000
0000
0000
,
0130
0000
0000
0001
0000
0000
1000
0000
,
2000
0000
0000
0000
,
0000
0000
0000
0000
,
3002
0000
0000
0000
,
0203
0000
0320
0000
,
1030
1000
0010
0000
,
0100
0000
0001
0000
,
1000
0100
1000
0000
,
0010
0000
0100
0000
,
0001
0010
0001
0000
,
0010
0000
0100
0000
,
1000
0010
0100
0000
,
0001
0000
0100
0000
,
0010
1000
0010
0000
,
0100
0000
0001
0000
,
0010
0100
1000
0000
,
0010
0000
0100
0000
,
0001
0010
0001
0000
,
0100
0000
0010
0000
,
1000
0100
0010
0000
,
0001
0000
1000
2002
,
0000
0000
3003
0000
;

//---------------dance-single - ----------------
#NOTES:
     dance-single:
     :
     Easy:
     5:
     0.339,0.475,0.057,0.207,0.000:
0000
0000
0000
0000
,
0000
0000
0000
0000
,
0000
0000
0000
0000
,
0000
0000
0000
0000
,
1001
0000
0000
0000
,
1001
0000
0000
0000
,
2002
0000
0000
0003
,
0200
0000
0000
3300
,
1001
0000
0000
0000
,
1001
0000
0000
0000
,
2002
0000
0000
3000
,
0200
0003
0020
0300
,
1030
0000
0100
0000
,
0010
0000
0001
0100
,
0010
0000
1000
0000
,
0010
0000
0100
0001
,
0100
0000
0010
0000
,
1000
0000
0001
0010
,
0100
0000
1000
0000
,
0100
0000
0010
0001
,
0100
0000
0010
0000
,
1000
0000
0010
0100
,
0001
0000
0010
0000
,
0100
0000
1000
0100
,
1000
0000
0010
0000
,
0100
0000
0001
0100
,
0010
0000
1000
0000
,
0010
0000
2000
0000
,
3001
0000
0010
0000
,
0001
0000
0100
0010
,
1000
0000
0010
0000
,
0100
0000
0001
0100
,
0001
0000
0100
0000
,
0010
0000
1000
0100
,
0010
0000
0001
0000
,
0010
0000
0001
0100
,
0010
0000
1000
0000
,
0001
0000
0010
0001
,
0100
0000
0010
0000
,
1000
0000
0001
1000
,
0001
0000
0010
0000
,
0100
0000
0010
0001
,
0100
0000
0010
0000
,
1000
0000
0001
1000
,
0001
0000
1000
0000
,
0010
0000
0100
0001
,
1000
0000
0001
0000
,
0010
0000
0100
1000
,
0001
0000
0001
0000
,
0100
0000
0100
0000
,
0010
0000
0010
0000
,
1000
0100
1000
0100
,
0010
0000
0001
0000
,
0100
0000
0010
0000
,
1000
1000
1000
1000
,
0001
0100
0001
0100
,
0001
0000
1000
0000
,
0100
0000
0010
0000
,
0001
0000
0100
0000
,
0010
1000
0010
1000
,
0010
0000
0100
0000
,
0001
0000
0010
0000
,
0200
0000
0000
0000
,
2300
0000
0000
0000
,
3001
0000
0000
0000
,
2002
0000
0000
0000
,
0000
0000
0000
3003
,
1000
0001
1000
0000
,
0010
0000
0100
0000
,
0001
0000
0100
0000
,
0010
0000
1000
0000
,
0001
1000
0001
0000
,
1000
0000
0010
0000
,
0100
0000
0001
0000
,
0010
0000
0100
0000
,
1000
0100
1000
0000
,
0010
0000
0100
0000
,
0001
0000
0100
0000
,
0010
0000
1000
0000
,
0001
0100
0001
0000
,
0100
0000
0010
0000
,
1000
0000
0001
0000
,
0010
0000
0100
0000
,
0002
0000
0000
0000
,
1000
0000
0000
0000
,
1000
0000
0000
0000
,
1003
0000
0010
0000
,
0200
0000
0000
0000
,
0000
0000
0000
0000
,
0302
0000
0000
0000
,
2003
0000
0000
0000
,
3100
0000
0010
0000
,
0001
0000
0100
0010
,
1000
0000
0001
0000
,
0010
0100
0010
0100
,
1000
0001
1000
0001
,
1000
0000
0010
0000
,
0200
0000
0000
0000
,
0301
0000
0010
0000
,
0100
0000
1000
0000
,
0010
0000
0100
0001
,
0100
0000
0010
0000
,
1000
0000
0010
0100
,
0001
0000
0010
0000
,
0100
0000
1000
0100
,
1000
0000
0010
0000
,
0100
0000
0001
0010
,
0001
0000
0010
0000
,
0100
0000
1000
0100
,
0010
0000
0001
0000
,
0100
0000
0010
1000
,
0001
0000
0010
0000
,
0001
0000
0100
0010
,
1000
0000
0001
0000
,
0010
0000
0100
1000
,
0020
0000
0000
0000
,
0230
0000
0000
0000
,
0302
0000
0000
0000
,
1003
0000
0100
0000
,
2000
0000
0000
0000
,
3020
0000
0000
0000
,
0130
0000
0001
0000
,
0010
0000
0100
0000
,
2000
0000
0000
0000
,
3020
0000
0000
0000
,
0230
0000
0000
0000
,
0301
0000
0100
0000
,
0002
0000
0000
0000
,
0000
0000
0000
0000
,
2003
0000
0000
0000
,
3100
0000
0010
0000
,
0001
0000
0001
0000
,
0100
0000
0100
0000
,
0010
0000
0010
0000
,
1000
0000
1000
0000
,
0001
0000
0001
0000
,
0010
0000
0010
0000
,
0100
0000
0100
0000
,
1000
0000
1000
0000
,
0010
0000
0100
0000
,
0001
0000
0100
0000
,
0010
0000
1000
0000
,
0010
0000
0100
0000
,
0001
0000
1000
0000
,
0100
0000
0010
0000
,
0001
0000
0100
0000
,
0010
0000
0001
2002
,
0000
0000
3003
0000
;

//---------------dance-single - ----------------
#NOTES:
     dance-single:
     :
     Beginner:
     2:
     0.151,0.315,0.064,0.000,0.000: // measure 1
0000
0000
0000
0000
,  // measure 2
0000
0000
0000
0000
,  // measure 3
0000
0000
0000
0000
,  // measure 4
0000
0000
0000
0000
,  // measure 5
1001
0000
0000
0000
,  // measure 6
1001
0000
0000
0000
,  // measure 7
1001
0000
0000
0000
,  // measure 8
0000
0000
0000
0000
,  // measure 9
1001
0000
0000
0000
,  // measure 10
1001
0000
0000
0000
,  // measure 11
1001
0000
0000
0000
,  // measure 12
0000
0000
0000
0000
,  // measure 13
1000
0000
0000
0000
,  // measure 14
0000
0000
0000
0000
,  // measure 15
0100
0000
0000
0000
,  // measure 16
0000
0000
0000
0000
,  // measure 17
0010
0000
0000
0000
,  // measure 18
0000
0000
0000
0000
,  // measure 19
0001
0000
0000
0000
,  // measure 20
0000
0000
0000
0000
,  // measure 21
0100
0000
0000
0000
,  // measure 22
0000
0000
0000
0000
,  // measure 23
0010
0000
0000
0000
,  // measure 24
0000
0000
0000
0000
,  // measure 25
1000
0000
0000
0000
,  // measure 26
0000
0000
0000
0000
,  // measure 27
0001
0000
0000
0000
,  // measure 28
0000
0000
0000
0000
,  // measure 29
1000
0000
0000
0000
,  // measure 30
1000
0000
0000
0000
,  // measure 31
0001
0000
0000
0000
,  // measure 32
0001
0000
0000
0000
,  // measure 33
0100
0000
0000
0000
,  // measure 34
0100
0000
0000
0000
,  // measure 35
0010
0000
0000
0000
,  // measure 36
0010
0000
0000
0000
,  // measure 37
1000
0000
0000
0000
,  // measure 38
0100
0000
0000
0000
,  // measure 39
1000
0000
0000
0000
,  // measure 40
0100
0000
0000
0000
,  // measure 41
0010
0000
0000
0000
,  // measure 42
0001
0000
0000
0000
,  // measure 43
0010
0000
0000
0000
,  // measure 44
0001
0000
0000
0000
,  // measure 45
1000
0000
0000
0000
,  // measure 46
1000
0000
0000
0000
,  // measure 47
0001
0000
0000
0000
,  // measure 48
0001
0000
0000
0000
,  // measure 49
1000
0000
0000
0000
,  // measure 50
1000
0000
0000
0000
,  // measure 51
0100
0000
0000
0000
,  // measure 52
0100
0000
0000
0000
,  // measure 53
0010
0000
0000
0000
,  // measure 54
0010
0000
0000
0000
,  // measure 55
0001
0000
0000
0000
,  // measure 56
0001
0000
0000
0000
,  // measure 57
0100
0000
0000
0000
,  // measure 58
0100
0000
0000
0000
,  // measure 59
0010
0000
0000
0000
,  // measure 60
0010
0000
0000
0000
,  // measure 61
1000
0000
0000
0000
,  // measure 62
1000
0000
0000
0000
,  // measure 63
0001
0000
0000
0000
,  // measure 64
0001
0000
0000
0000
,  // measure 65
1001
0000
0000
0000
,  // measure 66
1001
0000
0000
0000
,  // measure 67
0000
0000
0000
0000
,  // measure 68
1000
0000
1000
0000
,  // measure 69
1000
0000
0000
0000
,  // measure 70
0010
0000
0000
0000
,  // measure 71
0100
0000
0000
0000
,  // measure 72
0001
0000
0001
0000
,  // measure 73
0001
0000
0000
0000
,  // measure 74
0100
0000
0000
0000
,  // measure 75
0010
0000
0000
0000
,  // measure 76
0100
0000
0100
0000
,  // measure 77
0100
0000
0000
0000
,  // measure 78
0010
0000
0000
0000
,  // measure 79
1000
0000
0000
0000
,  // measure 80
0001
0000
0001
0000
,  // measure 81
0001
0000
0000
0000
,  // measure 82
0010
0000
0000
0000
,  // measure 83
0100
0000
0000
0000
,  // measure 84
0010
0000
0000
0000
,  // measure 85
0000
0000
0000
0000
,  // measure 86
0000
0000
0000
0000
,  // measure 87
0010
0000
0000
0000
,  // measure 88
0001
0000
0000
0000
,  // measure 89
0000
0000
0000
0000
,  // measure 90
0001
0000
0000
0000
,  // measure 91
0100
0000
0000
0000
,  // measure 92
0010
0000
0000
0000
,  // measure 93
0010
0000
0000
0000
,  // measure 94
1000
0000
0000
0000
,  // measure 95
1000
0000
0000
0000
,  // measure 96
0001
0000
0000
0000
,  // measure 97
0001
0000
0000
0000
,  // measure 98
1000
0000
0000
0000
,  // measure 99
0001
0000
0001
0000
,  // measure 100
1000
0000
0000
0000
,  // measure 101
1000
0000
0000
0000
,  // measure 102
0100
0000
0000
0000
,  // measure 103
0100
0000
0000
0000
,  // measure 104
0010
0000
0000
0000
,  // measure 105
0010
0000
0000
0000
,  // measure 106
0001
0000
0000
0000
,  // measure 107
0001
0000
0000
0000
,  // measure 108
0100
0000
0000
0000
,  // measure 109
0100
0000
0000
0000
,  // measure 110
0010
0000
0000
0000
,  // measure 111
0010
0000
0000
0000
,  // measure 112
1000
0000
0000
0000
,  // measure 113
1000
0000
0000
0000
,  // measure 114
0001
0000
0000
0000
,  // measure 115
0001
0000
0000
0000
,  // measure 116
1000
0000
0000
0000
,  // measure 117
1000
0000
0000
0000
,  // measure 118
0001
0000
0000
0000
,  // measure 119
0001
0000
0001
0000
,  // measure 120
0100
0000
0000
0000
,  // measure 121
0100
0000
0000
0000
,  // measure 122
0010
0000
0010
0000
,  // measure 123
0010
0000
0010
0000
,  // measure 124
1000
0000
0000
0000
,  // measure 125
1000
0000
0000
0000
,  // measure 126
0001
0000
0000
0000
,  // measure 127
0001
0000
0001
0000
,  // measure 128
0100
0000
0000
0000
,  // measure 129
0000
0000
0000
0000
,  // measure 130
0100
0000
0000
0000
,  // measure 131
0010
0000
0010
0000
,  // measure 132
1000
0000
0000
0000
,  // measure 133
1000
0000
0000
0000
,  // measure 134
0001
0000
0000
0000
,  // measure 135
0001
0000
0000
0000
,  // measure 136
0010
0000
0000
0000
,  // measure 137
0010
0000
0000
0000
,  // measure 138
0100
0000
0000
0000
,  // measure 139
0100
0000
0000
0000
,  // measure 140
1000
0000
0000
0000
,  // measure 141
1000
0000
0000
0000
,  // measure 142
0001
0000
0000
0000
,  // measure 143
0001
0000
0000
0000
,  // measure 144
0100
0000
0000
0000
,  // measure 145
0100
0000
0000
0000
,  // measure 146
0010
0000
0000
0000
,  // measure 147
0010
0000
0000
1001
;
