#TITLE:D.N.A;
#SUBTITLE:;
#ARTIST:Iemitsu;
#TITLETRANSLIT:;
#SUBTITLETRANSLIT:;
#ARTISTTRANSLIT:;
#GENRE:;
#CREDIT:;
#BANNER:DNA - BN.png;
#BACKGROUND:DNA - BG.png;
#LYRICSPATH:;
#CDTITLE:cdtitlegpop.png;
#MUSIC:D.N.A.ogg;
#OFFSET:0.420;
#SAMPLESTART:10.373;
#SAMPLELENGTH:12.000;
#SELECTABLE:YES;
#BPMS:0.000=200.000;
#STOPS:;
#BGCHANGES:;
#KEYSOUNDS:;

//---------------dance-single - ----------------
#NOTES:
     dance-single:
     :
     Challenge:
     9:
     0.708,0.711,0.177,0.378,0.000:
0000
0000
0000
0000
,
0000
0000
0000
0000
,
0000
0000
0000
0000
,
0000
0000
0000
0000
,
0000
0000
0000
0000
,
0000
0000
0000
0000
,
0000
0000
0000
0000
,
0000
0000
0000
0000
,
0000
0000
0000
0000
,
1000
0100
0010
0001
0010
1000
0010
0001
,
0100
0010
1000
0001
0100
0000
0010
0000
,
2000
0000
3001
0100
0001
1000
0000
0000
,
0001
0000
2000
0000
0000
0001
0000
0000
,
3001
0000
1000
0100
1000
0100
0110
0000
,
0001
0100
0011
0000
1000
0200
0000
0000
,
0310
0000
0001
0100
1001
0000
1000
0100
,
1001
0000
0001
2000
0001
0000
3001
0000
,
0101
0000
1100
0000
1001
0001
0100
0001
,
0100
0010
1000
0010
0001
0010
1000
0001
,
2000
0000
3020
0000
0230
0000
0301
0100
,
0001
1000
0000
0000
0001
0000
2000
0000
,
0000
0001
0000
0000
3001
0000
1000
0100
,
1000
0010
0100
0000
0001
0100
0010
0000
,
1000
0020
0000
0000
1030
0000
0001
1000
,
0001
0001
100M
0001
0000
0000
1000
1000
,
M001
1000
0000
0001
0002
0000
0000
0000
,
1003
0100
0010
0001
0010
1000
0010
0001
,
0100
0010
1000
0010
0100
0001
0010
1000
,
0010
0001
0100
0010
1000
0100
1000
0010
,
0100
0001
2000
0000
0000
0001
0000
0000
,
3002
0000
0103
0010
1000
0010
0001
0010
,
1000
0100
0010
0001
0100
1000
0100
0010
,
1000
0001
0010
0001
0100
0010
0001
0010
,
1000
0100
0010
0001
2000
0000
0000
0001
,
0000
0000
3002
0000
1003
0100
0010
0100
,
1000
0010
0100
0001
M000
0100
M000
0010
,
0M00
1000
00M0
0001
00M0
1000
0100
0010
,
0001
0010
1000
0010
0001
0100
0020
0000
,
0000
1000
0000
0000
2030
0000
3001
0001
,
1000
0100
0010
1000
0010
0100
00M0
1000
,
0M00
0010
000M
0100
M000
0001
00M0
1000
,
0100
1000
0010
0001
0010
1000
0010
0100
,
0002
0000
0000
1000
0000
0000
1003
0000
,
0001
0100
0010
1000
0000
0010
0000
0100
,
0001
0000
1000
0000
0001
0010
0100
1000
,
0000
0100
0000
0010
0100
0000
1000
0000
,
0110
0010
0100
0001
0000
1000
0000
0001
,
0010
0000
0100
0000
1000
0100
1000
0010
,
0000
0100
0000
0001
0100
0000
0010
0000
,
1000
1000
M010
1000
0000
0000
0001
0001
,
010M
0001
0000
0000
4000
0001
0000
0001
,
3000
0010
0100
0001
0100
0010
1000
0010
,
0100
0010
1000
0010
0200
0000
0302
0000
,
2003
0000
3010
0100
0010
1000
0000
0000
,
1001
0000
1000
0100
1000
0010
0000
0000
,
1001
0000
0001
0010
0001
0100
0010
1000
,
0100
0001
0100
1000
0010
0001
0010
0000
,
1000
0000
0010
0000
0100
0001
0100
0010
,
0000
0000
1000
0000
0001
0100
0010
0100
,
0000
0000
0001
0000
1000
1000
0010
0001
,
0010
1000
0010
0100
0001
0001
0010
0100
,
0002
0000
0203
0000
2300
0000
3001
0100
,
0001
0100
0000
0000
0110
0000
1000
0100
,
1000
0100
0000
0000
0110
0000
0010
0010
,
0001
0100
0010
1000
0010
0100
0001
0001
,
0100
1000
0100
0001
0020
0000
0230
0000
,
1300
1000
M010
1000
0000
0000
0001
0001
,
010M
0001
0000
0000
2000
0000
0000
0000
,
3001
0001
0100
0010
1000
1000
0010
0100
,
0010
0010
1000
0010
0200
0000
0302
0000
,
0023
0000
0130
1000
0010
0100
0000
0000
,
1001
0000
0002
0000
0000
1000
0000
0000
,
2003
0000
3001
0100
0010
0100
0001
0000
,
1000
0100
0011
0000
0100
0010
0000
1000
,
0010
1000
0001
1000
0110
0000
0001
0100
,
0110
0000
1000
0020
1000
0000
1030
0000
,
0101
0000
1001
0000
1100
1000
0100
0010
,
0001
0100
0010
1000
0010
0010
0100
0001
,
0200
0000
0302
0000
2003
0000
3001
0100
,
0010
0100
0000
0000
1001
0000
2000
0000
,
0000
0100
0000
0000
3200
0000
0310
0001
,
0100
0010
1010
0000
1000
0010
0101
0000
,
0001
1000
0000
0001
1000
0001
0100
0001
,
0010
0010
01M0
0010
0000
0000
0100
0100
,
0M10
0100
0000
0000
2001
0000
0000
0000
,
3001
0100
0010
1000
0010
0001
0010
1000
,
0100
0010
0001
0010
0001
0100
0010
1000
,
0010
0100
0010
1000
0100
0001
0100
1000
,
0100
0010
0002
0000
0000
1000
0000
0000
,
2003
0000
3001
0100
0010
0001
0010
1000
,
0100
0010
0001
0010
0100
1000
0100
1000
,
0010
0100
0001
0100
0010
1000
0001
0100
,
0010
1000
0001
0100
0002
0000
0000
0100
,
0000
0000
0203
0000
0310
1000
0010
0100
,
0001
0010
0100
1000
0001
0100
000M
0010
,
0M00
1000
000M
0010
000M
0100
0001
0010
,
0001
0100
0010
1000
0001
1000
0002
0000
,
0000
0100
0000
0000
0203
0000
0310
1000
,
0010
0001
0010
1000
0100
0010
0001
0100
,
000M
0010
0M00
1000
000M
0010
M000
0100
,
0001
0010
0100
1000
0001
0100
0010
1000
,
0002
0000
0000
1000
0000
0000
1003
0000
,
0001
0001
100M
0001
0000
0000
1000
1000
,
M001
1000
0000
0000
0002
0000
0000
0000
,
1003
1000
0100
0010
0000
0000
0001
0001
,
0100
0010
0000
0000
2000
0000
0000
0000
,
3001
0001
0001
0001
0000
0000
1000
1000
,
1000
1000
0000
0000
0002
0000
2000
0000
,
0000
0000
3003
0000
;

//---------------dance-single - ----------------
#NOTES:
     dance-single:
     :
     Hard:
     7:
     0.545,0.502,0.046,0.131,0.000:
0000
0000
0000
0000
,
0000
0000
0000
0000
,
0000
0000
0000
0000
,
0000
0000
0000
0000
,
0000
0000
0000
0000
,
0000
0000
0000
0000
,
0000
0000
0000
0000
,
0000
0000
0000
0000
,
0000
0000
0000
0000
,
1000
0100
1000
0000
0001
0100
0001
0000
,
0100
0010
1000
0010
0100
0000
0001
0000
,
1000
0000
0001
0000
0000
0001
0000
0000
,
0100
0000
0010
0000
0000
0010
0000
0000
,
1000
0000
0001
0000
0000
0001
1000
0000
,
0000
0000
0100
0000
0000
0010
0000
0000
,
0001
1000
0110
0000
,
1001
0000
0000
1000
0002
0000
0100
0000
,
0010
0000
0100
0000
1003
0100
0010
0000
,
0001
0010
0100
0000
1000
0010
0100
0001
,
1000
0001
0100
0010
,
0000
0010
0000
0000
1000
0000
0100
0000
,
0000
0100
0000
0000
0010
0000
0001
0000
,
0000
0001
0100
0000
0000
0000
0010
0000
,
0000
0010
0000
0000
1000
0000
0001
0000
,
1000
0100
1000
0100
0000
0000
0001
0100
,
0001
0100
0000
0001
0002
0000
0000
0000
,
1003
0000
0010
0100
0001
0000
0100
0010
,
1000
0001
0000
0010
0000
0100
1000
0100
,
1000
0000
0001
0100
0010
0000
0100
0010
,
1000
0001
2000
0000
0000
0001
0000
0000
,
0001
0000
3001
0100
0010
0000
1000
0010
,
0100
0000
0001
0010
0000
0100
0000
1000
,
0100
0010
0001
0000
1000
0010
0100
0000
,
0001
0100
0010
0100
0002
0000
0000
0000
,
1000
0000
1000
0000
1003
0100
1000
0000
,
0001
0100
0010
1000
0000
0001
0000
0010
,
0000
0001
0000
0100
0000
0010
1000
0010
,
0100
0000
0001
0100
0010
1000
0002
0000
,
0000
1000
0000
0000
1003
0000
0001
0100
,
0010
0000
1000
0010
0100
0000
0001
0010
,
0000
0100
0000
1000
0000
0010
0000
0100
,
0001
0100
0001
0000
1000
0010
0100
0000
,
0002
0000
0000
1000
0000
0000
1003
0000
,
0001
0100
0001
0100
0000
0010
0000
1000
,
0010
0000
0100
0000
0010
1000
0010
1000
,
0000
0010
0000
0100
0001
0000
1000
0000
,
0001
1000
0001
1000
0000
0001
0000
0010
,
0100
0000
1000
0000
0100
1000
0100
1000
,
0000
0010
0000
0100
0001
0000
0100
0000
,
0001
1000
0001
1000
0000
0000
1000
0001
,
1000
0001
0000
0000
2001
0000
0000
0000
,
3001
0100
0010
0000
1000
0010
0100
0000
,
0001
0010
0001
0100
0010
0000
1000
0000
,
0001
0000
0100
0010
0100
0010
0000
0000
,
1000
0000
0001
0100
0001
0100
0000
0000
,
0010
0000
1000
0100
0010
0000
0001
0100
,
1000
0000
0100
0001
0010
0100
1000
0000
,
0001
0000
0100
0000
0010
1000
0010
1000
,
0000
0000
0001
0000
1000
0100
1000
0100
,
0000
0000
0010
0000
0001
0100
0010
0000
,
1000
0100
1000
0000
0001
0100
0010
1000
,
0001
1000
0010
1000
,
0100
1000
0000
0000
0001
0000
0100
0001
,
0100
0001
0000
0000
1000
0000
0001
0100
,
0010
0000
1000
0010
0100
0000
0001
0010
,
0100
1000
0001
1000
0001
0000
0100
0000
,
0001
1000
0001
1000
0000
0000
1000
0001
,
1000
0001
0000
0000
2000
0000
0000
0000
,
3001
0100
0010
0000
1000
0010
0100
0000
,
0001
0010
0100
1000
0001
0000
1000
0000
,
0010
0000
0100
0000
0000
0100
0000
0000
,
0001
0000
0010
0000
0000
0010
0000
0000
,
0100
0000
1000
0000
0000
1000
0001
0000
,
0000
0000
0110
0000
0000
0010
0000
0000
,
1000
0001
0101
0000
,
1010
0000
0000
1000
0000
0000
0001
0000
,
0100
0000
0010
0000
1000
0100
1000
0000
,
0001
0100
0010
0000
1000
0010
0100
0001
,
1000
0001
0010
0100
,
0000
0100
0000
0000
1000
0000
0010
0000
,
0000
0010
0000
0000
0100
0000
0001
0000
,
0000
0001
1000
0000
0000
0000
0010
0000
,
0000
0100
0000
0000
0001
0000
1000
0000
,
0100
0010
0100
0010
0000
0000
0010
0100
,
0010
0100
0000
1000
2000
0000
0000
0000
,
3001
0100
0010
0000
1000
0010
0100
0000
,
0001
0010
0000
0100
0000
1000
0010
0100
,
0010
0000
1000
0100
1000
0000
0001
0100
,
0010
1000
0002
0000
0000
1000
0000
0000
,
1003
0000
0001
0100
0010
0000
1000
0010
,
0100
0000
0001
0010
0000
0100
0000
0010
,
0001
0100
0010
0000
1000
0010
0100
0000
,
0001
0010
0001
0000
2000
0000
0000
0000
,
0001
0000
3000
0000
0001
0100
0010
0000
,
1000
0010
0100
0000
0001
0010
0000
0100
,
0000
0010
0000
0001
0000
0100
0010
1000
,
0010
0000
0100
0001
1000
0001
0200
0000
,
0000
0010
0000
0000
0310
0000
1000
0010
,
0100
0000
0001
0010
0100
0000
1000
0100
,
0000
0010
0000
0100
0000
1000
0000
0010
,
0100
0001
0100
0000
0010
1000
0001
1000
,
0002
0000
0000
1000
0000
0000
1003
0000
,
0001
0100
0001
1000
0000
0000
0001
0010
,
0100
1000
0000
0000
0002
0000
0000
0000
,
1003
1000
0000
1000
0000
0000
0001
0001
,
0000
0001
0000
0000
0200
0000
0000
0000
,
0310
1000
0010
1000
0000
0000
0001
0100
,
0001
0100
0000
0000
0002
0000
2000
0000
,
0000
0000
3003
0000
;

//---------------dance-single - ----------------
#NOTES:
     dance-single:
     :
     Medium:
     5:
     0.417,0.502,0.015,0.123,0.000:
0000
0000
0000
0000
,
0000
0000
0000
0000
,
0000
0000
0000
0000
,
0000
0000
0000
0000
,
0000
0000
0000
0000
,
0000
0000
0000
0000
,
0000
0000
0000
0000
,
0000
0000
0000
0000
,
0000
0000
0000
0000
,
1000
1000
0001
0001
,
0100
0010
1000
0001
,
0010
0000
0001
0000
0000
0001
0000
0000
,
0100
0000
0010
0000
0000
0010
0000
0000
,
1000
0000
0001
0000
0000
0001
0100
0000
,
0000
0000
0010
0000
0000
1000
0000
0000
,
0001
0010
0100
0000
,
1000
0000
0000
0010
0000
0000
0100
0000
,
0001
0100
0010
0010
,
0100
0100
0001
0010
,
0100
0010
0001
1000
,
0000
1000
0000
0000
0010
0000
0100
0000
,
0000
0100
0000
0000
0001
0000
1000
0000
,
0000
1000
0010
0000
0000
0000
0100
0000
,
0000
0001
0000
0000
1000
0000
0100
0000
,
1000
0100
0000
1000
0000
0000
0001
0100
,
0000
0001
0000
0000
0020
0000
0000
0000
,
1030
0100
1000
0010
,
0100
0001
0000
0100
0000
0010
1000
0000
,
0001
0010
0001
0100
,
0010
2000
0000
0000
,
3001
0100
0100
0010
,
0010
0000
1000
0010
0000
0100
0000
0010
,
1000
0001
0010
0001
,
0100
0010
2000
0000
,
0010
3000
0010
0100
,
0001
0000
0100
0000
0000
0001
0000
1000
,
0000
0100
0000
1000
0000
0010
0100
0000
,
0001
0000
0100
0000
0010
1000
0020
0000
,
0000
0000
0030
0100
,
0100
0000
0001
0000
0001
0000
1000
0100
,
0000
0010
0000
0001
0000
0100
0000
0010
,
1000
0000
0010
0000
0100
0000
0001
1000
,
0002
0000
0000
0003
,
1000
0000
0000
1000
0000
0010
0000
0100
,
0001
0000
0100
0000
0010
0000
0000
0010
,
0000
1000
0000
0001
0010
0000
0100
0000
,
1000
0000
0000
0100
0000
0010
0000
0001
,
0100
0000
0010
0000
1000
0000
0000
0010
,
0000
0100
0000
0001
0100
0000
0010
0000
,
1000
0001
0000
1000
0000
0000
0001
1000
,
0000
0001
0000
0000
2001
0000
0000
0000
,
3001
0001
0100
0100
,
0010
1000
0001
0010
,
0100
0000
1000
0000
0000
1000
0000
0000
,
0010
0000
0100
0000
0000
0100
0000
0000
,
0001
0010
0010
0100
,
0100
1000
0010
0100
,
0001
0000
1000
0000
0001
0000
0000
0001
,
0000
0000
0100
0000
0010
0000
0000
0010
,
0000
1000
0001
0001
,
0100
0100
0010
1000
,
0010
0100
0001
1000
,
0000
1000
0000
0000
0100
0000
0010
0000
,
0000
0010
0000
0000
0001
0000
0100
0000
,
0100
0010
0010
1000
,
0010
0100
0001
1000
,
0001
0100
0000
0001
0000
0000
0100
0010
,
0000
0100
0000
0000
0020
0000
0000
0000
,
1030
0100
0010
0001
,
0100
0010
1000
0010
,
0010
0000
0100
0000
0000
0100
0000
0000
,
0001
0000
1000
0000
0000
1000
0000
0000
,
0010
0000
0100
0000
0000
0100
0001
0000
,
0000
0000
1000
0000
0000
0100
0000
0000
,
0010
0001
0100
0000
,
0010
0000
0000
1000
0000
0000
0010
0000
,
0100
0001
1001
1000
,
0010
0100
0010
1000
,
0010
0100
0001
1000
,
0000
1000
0000
0000
0010
0000
0100
0000
,
0000
0100
0000
0000
0001
0000
1000
0000
,
0000
1000
0100
0000
0000
0000
0010
0000
,
0000
0001
0000
0000
0100
0000
0010
0000
,
1000
0100
0000
1000
0000
0000
0001
0100
,
0000
0001
0000
0000
2000
0000
0000
0000
,
3001
0100
0010
1000
,
0010
0100
0000
0001
0000
1000
0100
0000
,
0010
0001
0100
0010
,
1000
0002
0000
0000
,
1003
1000
0010
0100
,
0001
0000
0100
0010
0000
1000
0000
0010
,
0100
0001
0010
0001
,
0100
0010
2000
0000
,
0001
3000
0001
0100
,
0010
0000
1000
0000
0001
0100
0000
0010
,
0000
0100
0000
0001
0000
0010
0100
0000
,
1000
0000
0010
0000
0100
0001
0002
0000
,
0000
1000
0000
0000
1003
0000
1000
0000
,
0010
0000
0100
0000
0001
0000
0100
0010
,
0000
1000
0000
0010
0000
0100
0000
0001
,
1000
0000
0010
0000
0100
0000
0010
1000
,
2000
0000
0000
0001
0000
0000
3001
0000
,
1000
0001
0000
1000
0000
0000
0001
1000
,
0000
0001
0000
0000
2000
0000
0000
0000
,
3010
0100
0000
0010
0000
0000
0100
0010
,
0000
0100
0000
0000
0002
0000
0000
0000
,
1003
0100
1000
0100
0000
0000
0001
0100
,
0001
0100
0000
0000
0020
0000
0200
0000
,
0000
0000
0330
0000
;

//---------------dance-single - ----------------
#NOTES:
     dance-single:
     :
     Easy:
     3:
     0.260,0.293,0.008,0.100,0.000:
0000
0000
0000
0000
,
0000
0000
0000
0000
,
0000
0000
0000
0000
,
0000
0000
0000
0000
,
0000
0000
0000
0000
,
0000
0000
0000
0000
,
0000
0000
0000
0000
,
0000
0000
0000
0000
,
0000
0000
0000
0000
,
1000
0000
0001
0000
,
0100
0010
1000
0010
,
0010
0100
0000
0000
,
0000
0001
0000
0000
,
1000
0100
0000
0010
,
0000
0001
0000
0100
,
0010
1000
0001
0000
,
0001
0000
0100
0010
,
1000
0010
1000
0000
,
0001
0000
0010
0100
,
1000
0010
0100
0001
,
0000
0001
0000
1000
,
0000
1000
0000
0010
,
0000
0100
0000
0001
,
0000
0010
0100
1000
,
0001
0000
0000
1000
,
0000
0000
0001
0000
,
1000
0000
0010
0000
,
0100
0000
0001
0000
,
0100
0010
0000
1000
,
0000
0002
0000
0003
,
1000
1000
0000
0010
,
0000
0100
0000
0001
,
0000
0010
0010
0000
,
0100
0000
2000
0000
,
3001
0000
0100
0000
,
0010
0000
1000
0010
,
0100
0001
1000
0001
,
0000
0010
0000
0200
,
0000
0300
0000
1000
,
0000
0010
0000
0100
,
0001
0100
0010
1000
,
0001
0000
0100
0000
,
0020
0000
0030
0000
,
1000
0000
0000
0000
,
0001
0000
0001
0000
,
0000
0000
0100
0000
,
0100
0000
0000
0000
,
0010
0000
0010
0000
,
0000
0000
1000
0000
,
1000
0000
0000
0001
,
0000
0000
2001
0000
,
3001
0000
0100
0000
,
0010
1000
0010
0100
,
0100
0001
0000
0000
,
0000
1000
0000
0000
,
0000
0001
0000
0010
,
0000
0100
1000
0100
,
1000
0010
0100
0000
,
0000
0000
0010
0000
,
0000
0000
1000
0000
,
0010
0000
0100
0001
,
0100
0010
1000
0001
,
0000
0000
0000
1000
,
0000
0000
0000
0010
,
0000
1000
0000
0010
,
0100
0001
0100
0010
,
1000
0000
0000
0001
,
0000
0000
1000
0000
,
0001
0000
0100
0000
,
0010
0000
1000
0100
,
1000
0010
0000
0010
,
0000
0100
0000
0100
,
0000
0001
0000
0001
,
0000
0100
0000
0010
,
1000
0001
0100
0000
,
0100
0000
0010
1000
,
0010
0100
0001
0000
,
0010
0000
0100
0000
,
1000
0100
1000
0010
,
0000
0010
0000
0100
,
0000
0100
0000
0001
,
0000
0001
0000
0010
,
0000
0100
1000
0010
,
0100
0000
0000
0001
,
0000
0000
2000
0000
,
3001
0000
0100
0000
,
0010
0100
0001
1000
,
0010
0100
0000
0001
,
0000
2000
0000
3000
,
0000
0001
0000
0010
,
0000
0100
1000
0100
,
1000
0010
0100
0000
,
0001
0000
0200
0000
,
0310
0000
1000
0000
,
0100
0000
0010
0001
,
0100
0010
1000
0010
,
0000
0100
0000
0002
,
0000
0003
0000
1000
,
0000
0100
0000
0010
,
0001
0100
0010
1000
,
0001
0000
0100
0000
,
0002
0000
0003
0000
,
1000
0000
0000
0001
,
0000
0000
2000
0000
,
3010
0000
0000
0100
,
0000
0000
0002
0000
,
1003
0000
0000
1000
0000
0000
0001
0000
,
0000
0001
0000
0000
1000
0000
0002
0000
,
0000
0000
0003
0000
;

//---------------dance-single - ----------------
#NOTES:
     dance-single:
     :
     Beginner:
     1:
     0.133,0.166,0.039,0.000,0.000:
0000
0000
0000
0000
,
0000
0000
0000
0000
,
0000
0000
0000
0000
,
0000
0000
0000
0000
,
0000
0000
0000
0000
,
0000
0000
0000
0000
,
0000
0000
0000
0000
,
0000
0000
0000
0000
,
0000
0000
0000
0000
,
1000
0000
0000
0000
,
0001
0000
0000
0000
,
0000
0100
0000
0000
,
0000
0010
0000
0000
,
0000
1000
0000
1000
,
0000
1000
0000
0000
,
0000
0000
0001
0000
,
0001
0000
0001
0000
,
0100
0000
1000
0000
,
0000
0000
0001
0000
,
0000
0000
0000
0100
,
0000
0000
0000
0010
,
0000
0000
0000
1000
,
0000
1000
0000
1000
,
0000
0000
0000
0000
,
0001
0000
0000
1000
,
0000
0000
0001
0000
,
1001
0000
0000
0000
,
1000
0000
0000
0000
,
0000
0100
0000
0000
,
0000
0010
0000
0000
,
0000
0001
0000
0000
,
0000
0100
0000
0000
,
0000
0000
0010
0000
,
0000
0000
1000
0000
,
0000
0000
1001
0000
,
0001
0000
0001
0000
,
0000
0000
0000
1000
,
0000
1000
0000
0100
,
0000
0000
0000
0010
,
0000
0010
0000
0001
,
0000
0000
0000
0000
,
0100
0000
0100
0000
,
0010
0000
0000
0000
,
1000
0000
0000
0000
,
0000
0000
0001
0000
,
0000
0000
0000
0000
,
0100
0000
0000
0000
,
0000
0000
0010
0000
,
0000
0000
0000
0000
,
1000
0000
0000
0001
,
0000
0000
1000
0000
,
1001
0000
0000
0000
,
0001
0000
0000
0000
,
0000
0100
0000
0000
,
0000
0010
0000
0000
,
0000
1000
0000
0000
,
0000
0001
0000
0000
,
0000
0000
0010
0000
,
0000
0000
0100
0000
,
0000
0000
0001
0000
,
0000
0000
1000
0000
,
0000
0000
0000
0010
,
0000
0000
0000
0100
,
0000
0000
0000
0001
,
0000
0000
0000
0010
,
0000
0000
0000
0000
,
0100
0000
0000
1000
,
0000
0000
0000
0000
,
0001
0000
0000
0000
,
0001
0000
0000
0000
,
0000
1000
0000
0000
,
0000
0001
0000
0000
,
0000
0100
0000
0100
,
0000
0010
0000
0000
,
0000
0000
1000
0000
,
1000
0000
0001
0000
,
0001
0001
0001
0000
,
0000
0000
0100
0000
,
0000
0000
0000
0010
,
0000
0000
0000
0100
,
0000
0000
0000
0001
,
0000
0001
0000
1000
,
0000
0000
0000
0000
,
0001
0000
0000
1000
,
0000
0000
0001
0000
,
1001
0000
0000
0000
,
1000
0000
0000
0000
,
0000
0010
0000
0000
,
0000
0100
0000
0000
,
0000
0100
0000
0000
,
0000
0001
0000
0000
,
0000
0000
1000
0000
,
0000
0000
1000
0000
,
1000
0000
0001
0000
,
0001
0000
0001
0000
,
0000
0000
0000
0100
,
0000
0100
0000
0100
,
0000
0000
0000
0010
,
0000
0010
0000
1000
,
0000
0000
0000
0000
,
0001
0000
0001
0000
,
0100
0000
0000
0000
,
0001
0000
0000
0001
,
0000
0000
0100
0000
,
0100
0000
0000
0100
,
0000
0000
0010
0000
,
0010
0000
0000
0010
,
0000
0000
1001
0000
;
