#TITLE:City of Solitude;
#SUBTITLE:;
#ARTIST:Vitamin Rice!;
#TITLETRANSLIT:;
#SUBTITLETRANSLIT:;
#ARTISTTRANSLIT:;
#CREDIT:;
#BANNER:City of Solitude - BN.png;
#BACKGROUND:City of Solitude - BG.png;
#LYRICSPATH:;
#CDTITLE:cdtitlegpop.png;
#MUSIC:City of Solitude.ogg;
#OFFSET:-1.480;
#SAMPLESTART:37.493;
#SAMPLELENGTH:12.000;
#SELECTABLE:YES;
#BPMS:0.000=140.000;
#STOPS:;
#BGCHANGES:;

//---------------dance-single - ----------------
#NOTES:
     dance-single:
     :
     Challenge:
     11:
     0.770,0.923,0.647,0.096,0.904: // measure 1
0000
0000
0000
0000
,  // measure 2
0000
0000
0000
0000
,  // measure 3
0000
0000
0000
0000
,  // measure 4
0000
0000
0000
0000
,  // measure 5
1001
0000
0000
0000
0000
0000
0000
0000
0000
0000
0000
0000
1000
0000
0001
0000
1000
0000
0001
0000
0000
0100
0000
0000
0001
0000
0000
1000
0000
0000
0001
0000
0000
1000
0000
0000
0000
0000
0000
0001
0000
0000
0000
0000
0000
1000
0000
0000
,  // measure 6
0001
0000
0001
0100
0000
0010
1000
0000
0010
0100
0000
0001
0010
0000
0100
1000
,  // measure 7
0100
0000
0010
0001
0000
0010
0100
0000
1000
0100
0000
1000
0010
0000
0100
0001
,  // measure 8
0100
0000
0010
1000
0000
0010
0001
0000
0010
0100
0000
0001
0010
0000
0100
1000
,  // measure 9
0100
0000
0010
0001
0000
0010
0100
0000
1000
0100
0000
0001
0100
0000
1000
0100
,  // measure 10
1000
0000
0010
0100
0000
0001
0100
0000
0001
1000
0000
0001
0010
0000
0100
1000
,  // measure 11
0100
0000
0010
0001
0000
0010
1000
0000
0010
0001
0000
1000
0010
0000
0100
0001
,  // measure 12
0100
0000
0001
0100
0000
0100
0010
0000
0010
1000
0000
1000
0001
0000
0001
0100
,  // measure 13
0001
0000
0001
0010
0000
0010
0100
0000
1000
0000
0001
0100
0000
0010
1000
0000
,  // measure 14
0001
0010
0001
0100
0000
0010
0000
1000
0010
0100
0010
1000
0000
0001
0000
1000
,  // measure 15
0100
1000
0010
0100
0001
0100
0001
0100
0010
0100
0010
1000
0010
1000
0001
1000
,  // measure 16
0001
0010
0100
1000
0001
0010
0100
1000
0001
0100
0010
0100
0010
0100
0001
0010
,  // measure 17
0001
0000
0100
0000
0010
1000
0010
0100
0001
0000
1000
0100
1000
0100
0010
0001
,  // measure 18
1000
0100
1000
0000
0001
0100
0001
0100
0000
0001
0100
0010
1000
0100
0010
0001
,  // measure 19
1000
0000
0001
0000
0100
0010
0000
1000
0010
0000
0100
0001
0000
0100
0010
0000
,  // measure 20
1001
0000
0000
0000
0000
0000
0000
0000
0000
0000
0000
0000
1000
0000
0100
0000
1000
0000
0100
0000
0000
0010
0000
0000
0001
0000
0000
0000
0000
0000
1000
0000
0000
0100
0000
0000
0000
0000
0000
1000
0000
0000
0100
0000
0000
0000
0000
0000
,  // measure 21
1000
0000
0000
0100
0000
0000
1000
0000
0000
0010
0000
0000
0100
0000
0000
0000
0000
0000
0001
0000
0000
0100
0000
0000
0010
0000
0000
1000
0000
0000
0001
0000
0000
0000
0000
0000
1000
0000
0000
0000
0001
0000
0000
0000
1000
0000
0000
0000
,  // measure 22
1001
0000
0100
0000
0010
0000
1000
0000
0011
0000
0010
0100
0000
0010
0100
0000
,  // measure 23
1100
0000
1000
0000
0010
0100
0000
0010
0100
0000
0001
0100
0000
0001
1000
0000
,  // measure 24
1001
0000
0001
0000
0100
0000
0010
0000
1010
0000
1000
0100
0000
1000
0100
0000
,  // measure 25
0110
0000
0010
0000
0001
0100
0000
0100
0010
0000
0010
1000
0000
1000
0001
0000
,  // measure 26
1001
0000
1000
0000
0010
0000
0100
0000
0101
0000
0001
1000
0000
0001
1000
0000
,  // measure 27
1100
0000
0100
0000
0010
0001
0000
0010
0100
0000
1000
0100
0000
1000
0001
0000
,  // measure 28
1001
0000
1000
0000
0010
0000
0100
0000
0101
0000
0001
0100
0000
0001
0100
0000
,  // measure 29
0110
0000
0000
0000
0000
0000
0010
0000
0000
0000
0000
0000
1000
0000
0001
0000
1000
0000
0001
0000
0000
0100
0000
0000
0010
0000
0000
0000
0000
0000
1000
0000
0000
0000
0000
0000
0100
0000
0000
0000
0000
0000
0010
0000
0000
0000
0000
0000
,  // measure 30
0011
0000
0000
0010
0000
0000
0100
0000
0000
1000
0000
0000
0001
0000
0000
0000
,  // measure 31
1010
0000
0000
1000
0000
0000
0010
0000
0000
0100
0000
0000
0001
0000
0000
0000
,  // measure 32
1001
0000
0000
0010
0000
0000
0100
0000
0000
0001
0000
0000
0100
0000
0000
0000
,  // measure 33
0011
0000
0000
0100
0000
0000
0010
0000
0000
1000
0000
0000
0001
0000
0000
0000
,  // measure 34
2001
0000
0000
0010
0000
0000
0100
0000
0000
0010
0000
0000
3001
0000
0000
0000
,  // measure 35
1002
0000
0000
0100
0000
0000
0010
0000
0000
0100
0000
0000
1003
0000
0000
0000
,  // measure 36
0210
0000
0000
0001
0000
0000
1000
0000
0000
0001
0000
0000
0310
0000
0000
0000
,  // measure 37
1001
0000
0000
0000
0000
0000
0000
0000
0000
0000
0000
0000
1000
0000
0010
0000
1000
0000
0010
0000
0000
0100
0000
0000
0001
0000
0100
0000
0001
0000
0100
0000
0000
0001
0000
0000
0000
0000
0000
0100
0000
0000
0001
0000
0000
0000
0000
0000
,  // measure 38
1001
0000
1000
0000
0010
0000
0110
0000
0100
0000
0001
0100
0000
0001
0100
0000
,  // measure 39
0110
0000
0010
0000
1000
0010
0000
0100
0010
0000
0100
0001
0000
1000
0001
0000
,  // measure 40
1001
1000
0100
1100
1000
1010
0110
0101
,  // measure 41
1001
0000
0001
0000
0100
0001
0000
0100
0010
0000
1000
0000
1001
0000
0101
0000
,  // measure 42
1001
0000
1000
0000
0100
0000
0110
0000
0010
0000
0001
0100
0000
0001
0100
0000
,  // measure 43
0110
0000
0010
0000
1000
0001
0000
0100
0010
0000
1000
0001
0000
1000
0100
0000
,  // measure 44
2200
0000
0000
0001
0000
0010
0001
0010
,  // measure 45
0001
0000
3300
1100
1100
1000
0010
0100
,  // measure 46
0101
0000
0000
0001
0000
0000
0110
0000
0000
1000
0000
0000
0101
0000
0000
0000
,  // measure 47
1001
0000
0000
1000
0000
0000
0101
0000
0000
0010
0000
0000
1100
0000
0000
0000
,  // measure 48
1001
0000
0000
0010
0000
0000
1100
0000
0000
0001
1000
0000
1100
0000
0101
0000
,  // measure 49
1001
0000
0000
0010
0000
0000
1001
0000
0000
0100
0000
0000
0101
0000
0001
0000
,  // measure 50
1001
0000
0000
0001
0000
0000
1100
0000
0000
1000
0000
0000
0101
0000
0000
0000
,  // measure 51
0110
0000
0000
0010
0000
0000
1001
0000
0000
1000
0000
0000
0101
0000
0000
0000
,  // measure 52
1001
0000
0000
1000
0000
0000
0101
0000
0110
0000
1010
0000
1001
0000
1100
0000
,  // measure 53
2002
0000
0000
0000
0000
0000
0000
0000
0000
0000
0000
0000
0003
0000
0000
0000
0000
0000
3100
0000
0000
0000
0000
0000
1000
0000
0100
0000
1000
0000
0100
0000
0000
1000
0000
0000
0000
0000
0000
0001
0000
0000
1000
0000
0000
0001
0000
0000
,  // measure 54
1000
0000
0000
0000
0001
0000
0100
0000
0110
0000
1000
0010
0000
1000
0001
0000
,  // measure 55
1001
0000
0001
0000
0010
0100
0000
1000
0100
0000
0100
0010
0000
0010
0001
0000
,  // measure 56
2002
0000
3003
0000
0001
0000
0100
0000
0101
0000
0100
0010
0000
1000
0001
0000
,  // measure 57
1001
0000
0000
0000
0000
0000
0000
0000
0000
0000
0000
0000
1000
0000
0100
0000
1000
0000
0100
0000
0000
0010
0000
0000
0001
0000
0000
0000
0000
0000
1000
0000
0000
0010
0000
0000
0000
0000
0000
0100
0000
0000
0001
0000
0000
0000
0000
0000
,  // measure 58
1001
0000
1000
0000
0010
0000
0100
0000
0101
0000
0100
0010
0000
0100
0010
0000
,  // measure 59
1001
0000
1000
0000
0001
0100
0010
1000
0010
0000
1000
0010
0000
1000
0010
0000
,  // measure 60
1001
0000
0000
0000
0000
0000
0001
0000
0000
0010
0000
0000
0000
0000
0000
0100
0000
0000
1000
0000
0000
0000
0000
0000
0001
0000
0000
0100
0000
0000
0000
0000
0000
0001
0000
0000
0100
0000
0000
0000
0000
0000
0001
0000
1000
0000
0001
0000
,  // measure 61
1000
0000
0000
0000
0000
0000
1000
0000
0000
0100
0000
0000
0000
0000
0000
0100
0000
0000
0010
0000
0000
0000
0000
0000
0001
0000
0000
0010
0000
0000
0000
0000
0000
0100
0000
0000
1000
0000
0100
0000
1000
0000
0100
0000
0000
2000
0000
0000
,  // measure 62
0002
0000
0000
0000
,  // measure 63
3003
0000
0000
0000
,  // measure 64
0000
0000
0000
0000
0000
0000
0000
0000
0000
1000
0001
1000
,  // measure 65
0001
0000
0000
0000
;

//---------------dance-single - ----------------
#NOTES:
     dance-single:
     :
     Hard:
     9:
     0.593,0.671,0.795,0.070,0.376:
0000
0000
0000
0000
,
0000
0000
0000
0000
,
0000
0000
0000
0000
,
0000
0000
0000
0000
,
1001
0000
0000
0000
1000
0001
1000
0001
1000
0001
1000
0001
0000
1000
0000
0001
,
1000
0000
0001
0100
0000
0100
0010
0000
0010
1000
0000
1000
0001
0000
0010
0100
,
0010
0000
0001
0100
0000
0100
0001
0000
0001
1000
0000
1000
0100
0000
0010
0100
,
0010
0000
0001
1000
0000
1000
0010
0000
0010
0100
0000
0100
0001
0000
1000
0100
,
1000
0000
0001
0100
0000
0100
0010
0000
0010
1000
0000
1000
0001
0000
1000
0100
,
1000
0000
0001
0100
0000
0100
0010
0000
0010
0100
0000
0100
0001
0000
1000
0100
,
1000
0000
0010
0100
0000
0100
0010
0000
0010
1000
0000
1000
0100
0000
0010
0001
,
0010
0000
0100
1000
0000
1000
0010
0000
0010
0100
0000
0100
0001
0000
1000
0001
,
1000
0000
0010
0100
0000
0100
0001
0000
0001
0000
0000
1000
0000
0000
0001
0000
,
0100
0010
1000
0010
0100
0001
0010
0100
,
1000
0100
1000
0010
0100
0001
0100
0001
,
0100
0010
0100
0010
0100
0001
0010
0100
,
1000
0001
0010
0100
0010
0001
0100
0010
,
1000
0100
1000
0010
0100
0001
0100
0001
,
0100
0010
0100
0010
1000
0100
0001
0100
,
2000
0000
0000
0000
0000
0000
0000
0000
3001
0000
0100
0010
0000
0010
0100
0000
,
2002
0000
0000
0000
0000
0000
3003
0000
0000
1000
0001
1000
,
0001
0000
0000
0000
1000
0000
0000
0000
0101
0000
0001
0100
0000
0000
0001
0000
,
1001
0000
0000
0000
1000
0000
0000
0000
0110
0000
0100
0001
0000
0000
0100
0000
,
0110
0000
0000
0000
0010
0000
0000
0000
1100
0000
1000
0001
0000
0000
1000
0000
,
1001
0000
0000
0000
0001
0000
0000
0000
0110
0000
0010
1000
0000
0000
0010
0100
,
0010
0000
0000
0000
0100
0000
0000
0000
0011
0000
0001
1000
0000
0000
0001
0000
,
0101
0000
0000
0000
0100
0000
0000
0000
1010
0000
0010
1000
0000
0000
0010
0000
,
0110
0000
0000
0000
0100
0000
0000
0000
0101
0000
0001
0010
0000
0000
0001
0000
,
0011
0000
0010
0000
1100
1000
0010
0100
,
0101
0000
0000
0001
0000
0000
0100
0000
0000
0010
0000
0000
1000
0000
0000
0000
,
0001
0000
0000
0010
0000
0000
0100
0000
0000
0010
0000
0000
0001
0000
0000
0000
,
1000
0000
0000
0010
0000
0000
0100
0000
0000
0001
0000
0000
1000
0000
0000
0000
,
0001
0000
0000
0010
0000
0000
1000
0000
0000
0010
0000
0000
0001
0000
0000
0000
,
0100
0000
0000
0010
0000
0000
0100
0000
0000
0001
0000
0000
1000
0000
0000
0000
,
0001
0000
0000
0100
0000
0000
1000
0000
0000
0010
0000
0000
0001
0000
0000
0000
,
1000
0000
0000
0010
0000
0000
0001
0000
0000
0100
0000
0000
1000
0000
0000
0000
,
2002
0000
0000
0000
3003
0000
0000
0000
0001
1000
0001
1000
0000
0001
1000
0000
,
1001
0000
0001
0101
0000
0100
0110
0000
,
1010
0000
1000
1100
0000
0100
0110
0000
,
0011
0000
0001
1001
0000
1000
0100
0010
,
0011
0000
0001
1001
0000
0000
1010
1000
,
1010
0000
0010
0110
0000
0100
0101
0000
,
1001
0000
1000
1100
0000
0100
0110
0000
,
1100
0000
0000
1001
0000
0001
0100
0001
,
1100
0000
0000
1001
0101
0100
0010
1000
,
1001
0000
0001
1100
0000
0010
0101
0000
,
1001
0000
1000
0110
0000
0001
1010
0000
,
1100
0000
1000
0101
0000
0001
0100
0010
,
1001
0000
0000
1001
0000
0000
0101
0100
,
0101
0000
0100
0110
0000
0010
1010
0000
,
1001
0000
0100
0101
0000
0001
1001
0000
,
1100
0000
0000
1000
0100
0010
0001
1000
,
2001
0000
0000
0000
0000
0000
3001
0000
1000
0100
1000
0100
0000
1000
0100
0000
,
1000
0000
0000
0000
0001
0000
0000
0000
1100
0000
0000
1100
0000
0000
1100
0000
,
1100
0000
0000
0000
0010
0000
0000
0000
0101
0000
0000
0101
0000
0000
0101
0000
,
0101
0000
0000
0000
0100
0000
0000
0000
0110
0000
0000
0110
0000
0000
0110
0000
,
0110
0000
0000
0000
0010
0000
0000
0000
1010
0000
0000
1010
0000
0000
1010
0000
,
1001
0000
0000
0000
0001
0000
0000
0000
1100
0000
0000
1001
0000
0000
0101
0000
,
1001
0000
0000
0000
0100
0000
0000
0000
1010
0000
0000
0110
0000
0000
0101
0000
,
1001
0000
0000
0000
1000
0000
0000
0000
0110
0000
0000
0011
0000
0000
1001
0000
,
1100
0000
0000
0000
1000
0000
0000
0000
0101
0000
0000
0101
0000
0000
0101
0000
,
2002
0000
0000
0000
,
0000
0000
0000
0000
,
3003
0000
0000
0000
0000
0000
0000
0000
0000
1000
0001
1000
,
0001
0000
0000
0000
;

//---------------dance-single - ----------------
#NOTES:
     dance-single:
     :
     Medium:
     7:
     0.413,0.391,0.096,0.079,0.105:
0000
0000
0000
0000
,
0000
0000
0000
0000
,
0000
0000
0000
0000
,
0000
0000
0000
0000
,
1001
0000
0000
0000
1000
0001
1000
0001
,
1001
0000
1000
0000
0000
1000
0000
0000
1000
0000
0000
1000
0000
0000
1000
0000
,
0001
0000
0001
0000
0000
0001
0000
0000
0001
0000
0000
0001
0000
0000
0001
0000
,
0100
0000
0100
0000
0000
0100
0000
0000
0100
0000
0000
0100
0000
0000
0100
0000
,
0010
0000
0010
0000
0000
0010
0000
0000
0010
0000
0000
0010
0000
0000
0010
0000
,
1000
0000
0100
0000
0000
0010
0000
0000
0001
0000
0000
0100
0000
0000
0010
0000
,
1000
0000
0010
0000
0000
0100
0000
0000
0001
0000
0000
0010
0000
0000
0001
0000
,
0100
0000
0100
0000
0000
0010
0000
0000
1000
0000
0000
0001
0000
0000
0100
0000
,
0001
0000
0100
0000
0000
0010
0000
0000
1000
0000
0000
1000
0000
0000
1000
0000
,
1001
0001
0100
0000
0010
1000
0010
0000
,
0100
0001
0100
0010
1000
0000
0001
0000
,
1000
0100
0010
0000
0001
0100
0010
0000
,
1000
0010
0100
0001
0010
0000
0100
1000
,
0100
0000
0010
0001
0100
0000
0010
1000
,
0010
0100
0001
0000
1000
0100
1000
0000
,
2002
0003
0001
0001
,
0002
0000
0000
3003
,
1001
0000
0001
0100
0010
0000
1000
0010
,
1000
0000
0001
0010
0100
0000
1000
0100
,
1000
0000
0001
0010
0001
0000
1000
0100
,
1000
0000
0001
1000
0001
0000
1000
0010
,
0100
0000
0001
0100
0001
0000
0100
0010
,
0100
0000
0010
1000
0010
0000
0100
0001
,
0100
0000
0001
0010
0100
0000
1000
0100
,
1000
0000
0001
0000
1000
0100
1000
0100
,
1000
0000
0001
0100
0010
0000
0100
0010
,
0100
0000
0010
1000
0010
0000
0100
0001
,
0010
0000
0100
1000
0100
0000
0010
0001
,
0100
0000
0010
1000
0001
0000
1000
0100
,
0001
0000
0100
1000
0010
0000
0100
0001
,
1000
0000
0001
0010
1000
0000
0010
0001
,
0100
0000
0010
1000
0001
0000
1000
0001
,
2002
0000
0000
3003
,
1001
0000
1000
0100
0000
0100
0010
0000
,
0001
0000
0100
0010
0000
0010
1000
0000
,
0001
0000
0100
0010
0000
0010
1000
0010
,
0100
0000
0001
0100
0000
0100
0010
0100
,
0010
0000
1000
0100
0000
0100
0010
0000
,
0001
0000
0100
0010
0000
0010
1000
0000
,
1001
0000
0000
1100
0000
1000
0100
0010
,
0001
0000
0000
1000
1000
0100
1000
0100
,
1000
0000
0010
0100
0000
0001
0100
0000
,
0010
0000
1000
0010
0000
1000
0010
0000
,
0100
0000
0001
1000
0000
0100
0010
0100
,
0010
0000
0001
0010
0000
0100
1000
0001
,
1000
0000
0001
0100
0000
0010
1000
0000
,
0010
0000
0100
0001
0000
0100
0010
0000
,
1000
0000
0000
0001
0100
0010
0100
0010
,
2000
0000
0000
3002
0000
0000
0103
0000
,
1001
0000
0000
0000
1000
0000
0000
0000
0001
0000
0000
0001
0000
0000
0001
0000
,
0100
0000
0000
0000
0010
0000
0000
0000
1000
0000
0000
1000
0000
0000
1000
0000
,
0100
0000
0000
0000
1000
0000
0000
0000
0010
0000
0000
0010
0000
0000
0010
0000
,
0100
0000
0000
0000
0001
0000
0000
0000
0100
0000
0000
0100
0000
0000
0100
0000
,
0010
0000
0000
0000
1000
0000
0000
0000
0001
0000
0000
0100
0000
0000
0001
0000
,
0100
0000
0000
0000
0010
0000
0000
0000
1000
0000
0000
0010
0000
0000
1000
0000
,
0010
0000
0000
0000
0100
0000
0000
0000
0001
0000
0000
0100
0000
0000
0001
0000
,
0100
0000
0000
0000
0010
0000
0000
0000
1000
0000
0000
0001
0000
0000
1000
0000
,
2002
0000
0000
0000
,
3003
0000
0000
0000
,
0000
0000
0000
0000
,
0100
0000
0000
0000
;

//---------------dance-single - ----------------
#NOTES:
     dance-single:
     :
     Easy:
     4:
     0.308,0.391,0.393,0.061,0.000:
0000
0000
0000
0000
,
0000
0000
0000
0000
,
0000
0000
0000
0000
,
0000
0000
0000
0000
,
1001
0000
0000
0000
,
1001
0001
0100
0001
,
0100
0010
0100
0010
,
1000
0010
1000
0010
,
1000
0001
1000
0001
,
1000
0100
0010
0100
,
1000
0010
0001
0100
,
1000
0010
0100
0001
,
1000
0100
1000
1000
,
1001
0001
0100
0001
,
0100
0010
1000
0001
,
0010
0100
1000
0100
,
0010
0100
0010
0001
,
0010
0100
0010
0001
,
0100
0010
1000
0001
,
1001
0000
1000
0010
,
0200
0000
0000
0300
,
1001
0100
0110
0010
,
1010
1000
1100
0100
,
0110
0010
0011
0001
,
1001
1000
1001
0001
,
0101
0100
0110
0010
,
1010
1000
1100
0100
,
0110
0010
0011
0001
,
1001
1000
1100
0100
,
0110
0100
1100
1000
,
1010
0010
0110
0100
,
0101
0001
1001
1000
,
1001
0001
0101
0100
,
0110
0010
0110
0100
,
0101
0001
0011
0010
,
0110
0100
1100
1000
,
2002
0000
0000
3003
,
1000
0000
0000
1000
0000
0000
1000
0000
,
0001
0000
0000
0001
0000
0000
0001
0000
,
0100
0000
0000
0100
0000
0000
0100
0000
,
0010
0000
0000
0010
0000
0000
0010
0000
,
1000
0000
0000
0100
0000
0000
0010
0000
,
0001
0000
0000
0100
0000
0000
0010
0000
,
1000
0000
0000
0010
0000
0000
0100
0000
,
0001
0000
0000
1000
1000
0000
0000
0000
,
0001
0000
0000
0100
0000
0000
0100
0000
,
0010
0000
0000
1000
0000
0000
1000
0000
,
0100
0000
0000
0010
0000
0000
0010
0000
,
0001
0000
0000
0001
0000
0000
0001
0000
,
0100
0000
0000
0100
0000
0000
0010
0000
,
1000
0000
0000
1000
0000
0000
0100
0000
,
1000
0000
0000
0001
0001
0000
0100
0000
,
2002
0000
0000
3003
,
1001
0000
0100
0010
,
0101
0000
0001
0010
,
1100
0000
0010
0100
,
0101
0000
0001
0001
,
1100
0000
0010
0100
,
1001
0000
0001
0010
,
1100
0000
0010
0100
,
1001
0000
0001
0100
,
2002
0000
0000
0000
,
3003
0000
0000
0000
,
0000
0000
0000
0000
,
1000
0000
0000
0000
;

//---------------dance-single - ----------------
#NOTES:
     dance-single:
     :
     Beginner:
     1:
     0.142,0.213,0.114,0.000,0.000:
0000
0000
0000
0000
,
0000
0000
0000
0000
,
0000
0000
0000
0000
,
0000
0000
0000
0000
,
0000
0000
0000
0000
,
1001
0000
0000
0000
,
1000
0000
0000
0000
,
0100
0000
0000
0000
,
0100
0000
0000
0000
,
0010
0000
0000
0000
,
0010
0000
0000
0000
,
0001
0000
0000
0000
,
0001
0000
0001
0000
,
1000
0000
1000
0000
,
0100
0000
0100
0000
,
0010
0000
0010
0000
,
0001
0000
0001
0000
,
0100
0000
0100
0000
,
0010
0000
0010
0000
,
1000
0000
0000
0000
,
0001
0000
0000
1000
,
1000
0000
1000
0000
,
1000
0000
1000
0000
,
0001
0000
0001
0000
,
0001
0000
0001
0000
,
0100
0000
0100
0000
,
0100
0000
0100
0000
,
0010
0000
0010
0000
,
0010
0000
0010
0000
,
1000
0000
0100
0000
,
1000
0000
0100
0000
,
0010
0000
0001
0000
,
0010
0000
0001
0000
,
1000
0000
0010
0000
,
0100
0000
0001
0000
,
1000
0000
0001
0000
,
1001
0000
0000
0000
,
1000
0000
1000
0000
,
0100
0000
0100
0000
,
0010
0000
0010
0000
,
0001
0000
0001
0000
,
0100
0000
0100
0000
,
0010
0000
1000
0000
,
0110
0000
0000
0000
,
1001
0000
0000
0000
,
1000
0000
0100
0000
,
0010
0000
0001
0000
,
0100
0000
0010
0000
,
1000
0000
1000
0000
,
0001
0000
0100
0000
,
0010
0000
1000
0000
,
0001
0000
1000
0000
,
1001
0000
0000
0000
,
1000
0000
0001
0000
,
1001
0000
0100
0000
,
0110
0000
0010
0000
,
0110
0000
1000
0000
,
1001
0000
1000
0000
,
1001
0000
0100
0000
,
0110
0000
0010
0000
,
0110
0000
0001
0000
,
1001
0000
0000
0000
;
