#TITLE:Border of Maximum;
#SUBTITLE:;
#ARTIST:AKHT;
#TITLETRANSLIT:;
#SUBTITLETRANSLIT:;
#ARTISTTRANSLIT:;
#CREDIT:;
#BANNER:bom-bn.PNG;
#BACKGROUND:bom-bg.PNG;
#LYRICSPATH:;
#CDTITLE:!rebirth.png;
#MUSIC:Border Of Maximum.mp3;
#OFFSET:-0.860;
#SAMPLESTART:75.813;
#SAMPLELENGTH:14.700;
#SELECTABLE:YES;
#BPMS:0.000=176.000;
#STOPS:;
#BGCHANGES:;

//---------------dance-single - ----------------
#NOTES:
     dance-single:
     :
     Challenge:
     12:
     1.000,1.000,0.624,0.688,0.993:
0000
0000
0000
0000
,
0000
0000
0000
0000
,
0000
0000
0000
0000
,
1001
1000
0001
1000
0001
1000
1001
0001
,
0101
0100
0001
0100
0001
0100
0001
0100
,
0110
0100
0010
0100
0010
0100
0110
0010
,
1010
1000
0010
1000
1010
0000
1010
0000
,
1001
0000
1000
1010
0010
0000
0110
0000
,
1001
0000
1000
1100
0100
0000
0110
0000
,
0012
1003
2100
3001
,
0102
0000
0103
0010
0000
1000
0010
0100
,
0101
0000
0001
1001
1000
0000
1100
0000
,
0110
0000
0010
0011
0001
0000
1001
0000
,
2100
3001
0102
1003
,
1001
0000
0000
0000
0000
0000
1001
0000
0000
0000
0000
0000
1001
0000
0000
0000
0000
0000
1001
0000
0000
0000
0000
0000
1000
0000
0100
0000
1000
0000
0100
0000
0000
0010
0000
0000
0001
0000
0000
0100
0000
0000
0010
0000
0000
1000
0000
0000
,
0001
0000
1000
1100
0100
0000
0110
0000
,
0011
0000
0001
1001
1000
0000
1100
0000
,
1002
0103
2001
3100
,
1001
0000
0000
0000
0100
0000
0000
0000
0010
0000
1000
0000
0101
0000
0001
1000
,
2002
0000
0000
0010
0000
3003
1001
0000
,
2200
0000
0000
0001
0000
3300
1100
0000
,
1001
0000
0000
0001
0100
0001
1000
0100
1000
0010
0100
0001
,
2000
0000
0000
0000
0000
0000
0000
0000
3001
0100
0010
1000
0001
1000
0001
1000
,
0200
0000
0000
0310
0001
0010
0002
0000
0000
1003
0100
1000
0200
0000
0000
0310
,
0001
0010
0200
0000
0000
1300
0010
0100
0002
0000
2003
0000
3001
0100
0010
1000
,
0020
1000
0001
0230
,
0302
0000
0000
0000
1000
0000
0000
0000
2003
0000
0000
3020
0000
0000
0230
0000
,
0301
1000
0010
1000
0100
1000
0001
1000
0010
1000
0100
1000
0001
0010
0100
1000
,
0001
0010
0001
0100
0001
1000
0100
1000
0001
0010
0001
1000
0010
1000
0100
0010
,
0001
1000
0010
1000
0100
1000
0001
1000
0010
1000
0100
1000
0001
0100
0010
1000
,
0001
0010
0100
1000
0100
0010
0001
0100
0010
1000
0010
0100
,
0002
0000
1000
0000
0100
0000
0023
0230
,
2300
0001
0010
3200
,
0320
0001
1000
0230
,
2300
0000
0000
0000
0010
0000
0000
0000
3020
0000
0000
0032
0000
0000
0203
0000
,
2300
0000
0000
0000
0001
0000
0000
0000
0100
0000
0000
0000
3010
0100
0001
0100
,
0020
0000
0000
0000
0001
0000
0000
0000
2030
0000
0000
3200
0000
0000
0320
0000
,
0032
0003
1001
0000
1000
0100
0010
0001
,
1001
0000
1001
0000
1001
0000
1001
0000
0001
0010
0100
1000
0001
0100
0010
1000
,
0002
0000
0103
0020
1000
0000
2030
0000
,
3002
0000
0013
0200
1000
0000
2300
3000
,
2200
0000
0001
0000
0010
0000
0001
3300
,
2001
0000
0001
0000
3001
0100
0010
1000
,
1002
0000
0103
0020
1000
0000
2030
0000
,
3200
0000
0310
0002
0100
0000
2003
0000
,
3020
0032
0203
2300
,
0002
0000
0000
0000
0000
0000
3003
0000
1000
0000
1001
0000
1001
0000
0001
0100
,
0002
0000
0000
0203
0000
0000
2300
0000
,
3020
0000
0000
0032
0000
0000
0203
0000
,
0302
0023
2030
3200
,
0302
0000
1000
0000
1003
0100
0010
0001
,
1002
0000
0000
0203
0000
0300
0110
0000
,
2001
0000
0000
3200
0000
0300
0110
0000
,
0011
0000
0000
0001
0100
0010
1000
0010
0100
0001
0010
0100
,
2000
0000
0000
0000
0000
0000
3001
0010
0100
1000
0100
0010
,
0001
1000
0010
1000
0100
1000
0010
1000
0001
1000
0010
1000
0100
1000
0010
1000
,
0001
1000
0010
1000
0100
1000
0010
1000
0001
1000
0010
1000
0100
1000
0010
1000
,
0001
0100
0001
1000
0000
0001
0100
0010
1000
0001
0100
0010
0100
0001
1000
0001
,
1000
0100
0010
0001
1000
0100
0010
0100
1000
0100
0010
0001
0010
0100
1000
0010
,
1000
0100
0010
0002
0000
1003
0100
1000
0001
0100
0001
1000
0001
0100
0020
0000
,
0000
1030
0100
1000
0001
0100
0010
1000
0010
0100
0001
0100
0010
1000
0001
0100
,
0002
0000
0000
0203
0000
0000
0320
0000
2030
0000
0000
3200
0000
0000
0320
0000
,
0031
0000
1000
0100
0000
0010
0001
0000
1000
0010
0000
0100
0001
1000
0100
1000
,
0001
1000
0010
1000
0100
1000
0010
1000
0001
1000
0010
1000
0100
1000
0010
1000
,
0001
1000
0010
1000
0100
1000
0010
1000
0001
1000
0010
1000
0100
1000
0010
1000
,
0002
0000
0000
0000
0000
0000
0000
0000
0103
0000
0010
1000
0010
1000
0001
1000
,
0002
0000
0000
0000
0103
0000
0010
1000
0020
0000
0000
0000
0230
0000
0000
0000
,
0301
0010
0200
0000
0000
1300
0020
0000
0000
0000
0230
0000
0000
0000
0301
0010
,
0001
1000
0010
1000
0100
1000
0010
2000
0000
0000
0000
3002
0000
0000
0000
0000
,
1003
0100
1000
0001
0100
0001
1000
0100
1000
0001
0100
0001
1000
0100
1000
0001
,
1000
0000
1MM1
0000
M1M1
0000
M11M
0000
1M1M
0000
MM11
0000
,
1MM1
0000
1000
0000
0010
0000
0100
0000
0001
0000
1000
0100
0010
0100
1000
0000
,
1001
0000
0001
0000
0100
0000
0010
0000
1000
0000
0010
0100
0001
0100
0010
0000
,
0110
0000
0010
0000
1000
0000
0001
0000
0011
0000
0010
0100
1000
0001
0100
0000
,
0101
0000
0100
0000
0010
0000
1000
0000
1001
0000
0001
0010
0100
1000
0001
0000
,
1001
0000
1000
0000
0100
0000
0010
0000
0001
0000
0100
0010
1000
0001
1001
0000
,
1000
0000
1010
0000
1000
0000
0001
0010
0100
1000
0010
0100
0001
0000
0100
0000
,
0101
0000
0100
0000
0010
0000
1000
0000
1001
0000
0001
0100
0010
0100
0001
0000
,
1001
0000
0001
0010
0000
0010
0100
0000
0100
1000
0000
1000
0001
0100
0001
1000
,
0001
0000
0100
0000
0010
0000
1000
0000
0010
0000
0100
0001
1000
0001
0100
0000
,
1001
0000
0010
0000
0100
0000
0001
0000
0010
0000
0100
1000
0100
0010
0001
0000
,
1001
0000
1000
0000
0100
0000
0010
0000
0011
0000
0001
0100
0010
1000
0001
0000
,
1001
0000
1000
0000
0100
0000
1000
0000
0101
0000
0001
0100
0010
0100
0001
0000
,
1001
0000
1000
0000
0100
0000
0010
0000
0001
0000
1000
0100
0010
0001
1001
0000
,
0001
0000
0101
0000
0100
0000
0010
0100
0001
0100
0010
1000
0001
0000
1000
0000
,
1001
0000
0001
0000
0010
0000
0100
0000
1100
0000
1000
0100
1000
0010
0100
0000
,
0101
0000
0001
1000
0000
1000
0100
0000
0100
0010
0000
0010
0001
0010
0100
1000
,
00M1
0100
0000
00M1
1000
0000
0M01
0010
0000
0M01
1000
0000
00M1
0100
0000
00M1
,
1000
0000
00M1
0100
0000
00M1
1000
0000
M001
0010
0100
1000
0010
0100
0001
1000
,
0M10
1000
0000
0M10
0001
0000
M010
0100
0000
001M
1000
0000
001M
0100
0000
M010
,
0001
0000
M010
0100
0000
001M
1000
0100
0010
0001
1000
0001
1M00
0001
0000
1M00
,
0010
0000
100M
0100
0000
10M0
0001
0000
1M00
0010
0000
100M
0100
0000
100M
0010
,
0000
1000
0100
0010
0001
0100
0010
1000
0010
0100
0001
0010
010M
1000
0000
01M0
,
0001
0000
M100
0010
0000
M100
0001
0000
01M0
1000
0000
01M0
0001
0000
M001
0100
,
1000
0000
0000
0010
0000
0000
1000
0000
0000
0010
0000
0000
0100
0000
0000
0000
0000
0000
0001
0000
0000
0010
0000
0000
0100
0000
0000
1000
0000
0000
0010
0000
0000
0100
0000
0000
0001
0000
0000
0000
0010
0000
0000
0000
0100
0000
0000
0000
,
1000
0100
1000
0100
0010
0001
0010
0001
1000
0100
0010
0001
0010
0100
1000
0010
,
0100
0001
0100
0010
1000
0001
0010
0100
1000
0000
0000
0000
0000
0000
0000
0000
,
0000
0000
2002
0000
,
0000
0000
0000
0000
,
0000
0000
0000
0000
,
0000
0000
0000
0000
,
3003
0000
0000
0000
;

//---------------dance-single - ----------------
#NOTES:
     dance-single:
     :
     Hard:
     9:
     0.662,0.760,0.323,0.373,0.190:
0000
0000
0000
0000
,
0000
0000
0000
0000
,
0000
0000
0000
0000
,
1000
0000
0000
0001
,
0100
0000
0000
0000
,
0010
0000
0000
1000
,
0001
0000
1100
0101
,
1001
0000
1000
0100
0000
0010
0001
0100
,
0010
0000
1000
0010
0000
0100
0001
0100
,
0110
0101
1100
0101
,
1001
0000
1000
0100
0000
0010
0001
0100
,
0010
0000
1000
0010
0000
0100
0001
0010
,
0100
0000
1000
0100
0000
0010
0001
0010
,
0100
1100
1001
0101
,
1000
0001
1000
0001
1000
0000
0000
0000
,
1001
0000
0001
0100
0000
0010
1000
0010
,
0100
0000
0001
0010
0000
0100
1000
0010
,
0100
0101
0110
1010
,
1001
0000
0000
0000
1000
0100
0010
0001
,
2001
0000
0000
3010
0000
0000
0110
0000
,
1002
0000
0000
0103
0000
0000
0110
0000
,
1001
1100
0110
0011
,
2002
0000
0000
3003
,
1000
0000
1000
0100
0000
0100
0010
0000
,
0010
0001
0000
0001
0100
0100
0010
1000
,
0020
1000
1000
2030
,
3002
0000
0000
0000
0010
0000
0000
0000
0013
0000
0000
0100
0000
0000
1000
0000
,
0001
0010
0100
1000
0001
0010
0100
1000
,
0001
0000
1000
0000
0000
0100
0000
0000
0010
0000
0000
0001
0000
0000
1000
0000
,
0001
0010
0100
1000
0001
0100
0010
1000
,
1001
1100
0110
0011
,
2001
0000
0001
0000
0001
0000
3001
0100
,
0020
1000
1000
2030
,
3002
0100
0100
0203
,
0320
0000
0000
0000
1000
0000
0000
0000
1030
0000
0000
0001
0000
0000
0100
0000
,
0020
0000
1000
0000
1000
0000
1030
0100
,
2000
0000
0000
0000
0010
0000
0000
0000
3010
0000
0000
0100
0000
0000
0001
0000
,
0100
0000
1001
0000
0001
0010
0100
1000
,
0002
1000
1000
1000
1000
0000
0000
0000
,
2003
0000
0000
3020
0000
0000
0230
0000
,
0302
0000
0000
0023
0000
0000
0230
0000
,
2300
0000
0020
3000
0230
0000
0302
0000
,
1000
0000
0000
0000
1003
0100
0010
0001
,
1001
0000
1000
0100
0000
0010
0001
0100
,
0010
0000
1000
0010
0000
0100
0001
0010
,
0100
1100
0110
0011
,
2002
0000
0000
3003
,
2001
0000
0000
3020
0000
0000
0230
0000
,
0302
0000
0000
0023
0000
0000
0230
0000
,
2300
0000
0020
3000
0230
0000
0302
0000
,
2003
0000
0000
0000
3001
0010
0100
0010
,
0012
0000
0000
1000
0000
0000
1003
0000
,
2001
0000
0000
0100
0000
0000
3010
0000
,
0110
0011
1001
1100
,
2002
0000
0000
3003
,
1000
0100
0010
0001
1000
0100
0010
0001
,
1000
0010
0100
0001
1000
0010
0100
0001
,
1000
0000
0000
1000
0000
0000
0010
0000
0100
0000
0000
0001
0000
0000
1000
0000
,
0001
0010
0100
1000
0010
0100
0001
1000
,
0001
0001
0000
1000
1000
0010
0100
0001
,
0000
1000
0100
1000
0010
0100
0001
0010
,
0100
0000
0000
1000
0000
0000
0010
0000
0100
0000
0000
0001
0000
0000
0100
0000
,
0020
0000
0000
1000
2030
0000
0000
0000
,
3001
0010
0100
1000
0001
0010
0100
1000
,
0001
0100
0010
1000
0001
0100
0010
1000
,
0002
0000
0000
0000
0203
0000
0000
0310
,
2000
0000
3001
0100
0020
0000
2030
0000
,
3001
0010
0000
0100
0000
1000
0000
0010
,
0100
0001
0100
0010
1000
0000
0001
0000
,
1000
0100
0000
0100
0010
0000
0010
0001
0000
0001
0100
0000
0100
0010
0000
0010
,
1000
0000
0100
0000
0010
0000
0001
0000
0100
0000
0010
0000
,
1000
0100
0010
0001
1000
0010
0100
0001
,
0010
0100
1000
0100
0010
0001
0100
1000
,
0100
0001
0010
0100
0010
0001
0100
1000
,
0100
0001
0010
0100
1000
0100
0001
0100
,
1000
0010
0100
0001
0010
1000
0010
0001
,
0100
0010
1000
0100
1000
0010
0100
1000
,
0100
0001
0010
0100
0001
0100
1000
0010
,
0100
0000
0001
0000
0000
1000
0000
0000
0010
0000
0000
0100
0000
0000
0001
0000
,
1000
0100
0001
0100
1000
0010
0100
0001
,
0010
1000
0010
0100
1000
0010
0100
0001
,
0010
0001
0100
1000
0100
0010
1000
0100
,
0010
0001
0010
0100
0001
0100
0010
0001
,
0100
0010
1000
0100
0010
1000
0010
0100
,
1000
0010
0100
1000
0100
0001
0010
0001
,
0100
0010
1000
0100
0010
0100
1000
0001
,
1000
0000
0010
0000
0000
0100
0000
0000
0001
0000
0000
1000
0000
0000
0100
0000
,
1000
0000
1000
0100
0000
0100
0010
0000
0010
0001
0000
0001
0100
0000
0100
0010
,
0000
0010
1000
0000
1000
0001
0000
0001
0100
0000
0010
0000
1000
0000
0010
0000
,
0100
0000
0100
0001
0000
0001
1000
0000
1000
0001
0000
0001
0010
0000
0010
0100
,
0000
0100
1000
0000
1000
0001
0000
0001
0100
0000
0010
0000
1000
0000
1000
0100
,
0000
0100
0010
0000
0010
0001
0000
0001
0100
0000
0100
0010
0000
0010
1000
0000
,
1000
0000
0100
0000
0010
0000
0001
0000
1000
0000
0010
0000
0100
0000
0100
0001
,
0000
0001
1000
0000
1000
0100
0000
0100
1000
0000
1000
0010
0000
0010
0100
0000
,
0100
0001
0000
0001
1000
0000
0100
0000
0010
0000
0001
0000
0100
0000
0010
0000
,
1000
0010
0100
0001
0010
0100
1000
0001
,
1000
0100
0010
0001
1000
0000
0000
0000
,
0000
0000
2002
0000
,
0000
0000
0000
0000
,
0000
0000
0000
0000
,
0000
0000
0000
0000
,
3003
0000
0000
0000
;

//---------------dance-single - ----------------
#NOTES:
     dance-single:
     :
     Medium:
     6:
     0.442,0.543,0.065,0.179,0.104:
0000
0000
0000
0000
,
0000
0000
0000
0000
,
0000
0000
0000
0000
,
0001
0000
0000
0100
,
0100
0000
0000
0000
,
0010
0000
0000
1000
,
1000
0000
0110
0110
,
1001
0000
0000
1000
0000
0000
0010
0000
,
0100
0000
0000
0001
0000
0000
0010
0000
,
0100
1000
0010
0100
,
0001
0000
1000
0100
0000
0010
0001
0010
,
0001
0000
0000
0100
0000
0000
0010
0000
,
1000
0000
0000
0010
0000
0000
0100
0000
,
0001
0100
0010
1000
,
0001
1000
0001
2000
0000
0000
0000
0000
,
3001
0000
0000
0100
0000
0000
0010
0000
,
1000
0000
0000
0010
0000
0000
0100
0000
,
0001
0010
0100
1000
,
0001
0000
0000
0000
1000
0100
0010
0001
,
1000
0000
0000
0010
0000
0000
0100
0000
,
0100
0000
0000
0001
0000
0000
1000
0000
,
1000
0100
0010
0001
,
2002
0000
0000
3003
,
1000
0000
0000
1000
0000
0000
0010
0000
,
0000
0100
0000
0000
0001
0001
1000
0000
,
0020
0000
0000
0130
,
0002
0000
0000
0000
0000
0000
0000
0000
1000
0000
0000
1000
0000
0000
1000
0000
,
1003
0100
0010
0000
0001
0100
0010
0000
,
1000
0001
0000
0100
0000
0010
0000
1000
,
0001
0010
0100
0000
1000
0100
0010
0000
,
0001
0001
1000
1000
,
1002
0000
0000
0000
0000
0000
1003
0010
,
0200
0000
0000
0301
,
2000
0000
0000
3100
,
0020
0000
0000
0000
0000
0000
0000
0000
0031
0000
0000
0001
0000
0000
0001
0000
,
0002
0000
0000
0000
0000
0000
1003
0100
,
2000
0000
0000
0000
0000
0000
0000
0000
0010
0000
0000
0010
0000
0000
0010
0000
,
3020
0000
0000
0000
0130
0001
0100
0001
,
1000
0001
1000
0002
0000
0000
0000
0000
,
1003
0000
0000
0010
0000
0000
0100
0000
,
0001
0000
0000
0010
0000
0000
0100
0000
,
1000
0010
0100
0001
,
2000
0000
0000
0000
3001
0100
0001
0100
,
0001
0000
0000
0010
0000
0000
0100
0000
,
0100
0000
0000
1000
0000
0000
0010
0000
,
0100
0001
0100
0010
,
2002
0000
0000
3003
,
1001
0000
0000
0001
0000
0000
0100
0000
,
0010
0000
0000
1000
0000
0000
0010
0000
,
0100
0001
0010
0100
,
2000
0000
0000
0000
3010
0100
0010
0100
,
0010
0000
0000
0010
0000
0000
0010
0000
,
1000
0000
0000
1000
0000
0000
1000
0000
,
0001
0010
0100
1000
,
2002
0000
0000
3003
,
1000
0100
1000
0100
1000
0100
1000
0100
,
0010
0001
0010
0001
0010
0001
0010
0001
,
1000
0010
0100
0001
,
1000
0000
0100
0010
0001
0000
0100
0000
,
0010
1000
0001
0000
1000
0000
0010
0100
,
0000
0100
0010
0000
1000
0100
0010
0000
,
0001
0001
0010
0010
,
0200
0000
0000
1000
2300
0000
0000
0001
,
3001
0100
0001
0100
0001
0100
0001
0100
,
0010
1000
0010
1000
0010
1000
0010
1000
,
0002
0000
0023
0000
,
0130
0000
1000
0100
0010
0000
0001
0000
,
1000
1000
0000
0001
0000
0100
0000
0010
,
0010
1000
0001
1000
,
0001
0000
0000
0001
0000
0000
0001
0000
0000
0001
0000
0000
0001
0000
1000
0000
,
1000
0000
1000
0000
1000
0000
1000
0000
1000
0000
1000
0000
,
1000
0000
0100
0000
0010
0001
0100
0000
,
0010
0000
1000
0000
0010
0100
0001
0000
,
1000
0000
0001
0000
0010
0100
1000
0000
,
0100
0000
0010
0000
0001
0100
0010
0000
,
1000
0000
0001
0000
0010
0100
1000
0001
,
0000
1000
0001
0000
0100
0010
1000
0000
,
0001
0000
0010
0000
0100
1000
0010
0000
,
0100
0000
0100
0000
0000
0100
0000
0000
0100
0000
0000
0100
0000
0000
0100
0000
,
0100
0000
0010
0000
1000
0100
1000
0000
,
0010
0000
0100
0000
0001
0010
0100
0000
,
0010
0000
0001
0000
0100
0010
1000
0000
,
0010
0000
0100
0000
0001
0010
0001
0000
,
0100
0000
0010
0000
1000
0100
0010
0001
,
0000
1000
0001
0000
0100
0010
1000
0000
,
0001
0000
0010
0000
0100
1000
0010
0000
,
1000
0000
1000
0000
0000
1000
0000
0000
1000
0000
0000
1000
0000
0000
1000
0000
,
0001
0000
0000
0001
0000
0000
0001
0000
0000
0001
0000
0000
0001
0000
0000
0001
,
0000
0000
0001
0000
0000
0001
0000
0000
0001
0000
0000
0000
0100
0000
0000
0000
,
0010
0000
0000
0010
0000
0000
0010
0000
0000
0010
0000
0000
0010
0000
0000
0010
,
0000
0000
0010
0000
0000
0010
0000
0000
0010
0000
0000
0000
0100
0000
0000
0100
,
0000
0000
0100
0000
0000
0100
0000
0000
0100
0000
0000
0100
0000
0000
0100
0000
,
0000
0100
0000
0000
0100
0000
0000
0000
0010
0000
0000
0000
1000
0000
0000
1000
,
0000
0000
1000
0000
0000
1000
0000
0000
1000
0000
0000
1000
0000
0000
1000
0000
,
0000
1000
0000
0000
1000
0000
0001
0000
1000
0000
0000
0000
0010
0000
0000
0000
,
0100
0001
0010
0100
,
1000
0001
1000
0000
,
0000
0000
2002
0000
,
0000
0000
0000
0000
,
0000
0000
0000
0000
,
0000
0000
0000
0000
,
3003
0000
0000
0000
;

//---------------dance-single - ----------------
#NOTES:
     dance-single:
     :
     Easy:
     4:
     0.297,0.362,0.129,0.115,0.000:
0000
0000
0000
0000
,
0000
0000
0000
0000
,
0000
0000
0000
0000
,
1000
0000
0000
1000
,
1000
0000
0000
0000
,
0001
0000
0000
0001
,
0001
0000
1001
1001
,
1001
0000
1000
0000
,
0010
0000
0100
0000
,
0001
0010
0001
0100
,
0010
0000
1000
0000
,
0010
0000
0100
0000
,
0001
0000
0001
0000
,
1000
0100
0010
0001
,
1000
0000
0000
0000
,
0001
0000
0001
0000
,
0100
0000
0100
0000
,
0010
1000
0010
0100
,
0001
0000
1000
0000
,
0001
0000
0000
0001
0000
0000
0000
0000
,
1000
0000
0000
1000
0000
0000
0000
0000
,
0001
1000
0001
1000
,
2002
0000
3003
0000
,
1000
0000
0100
0000
,
1000
0000
0010
0000
,
0200
0000
0300
0001
,
0002
0000
1003
0100
,
1000
0001
1000
0001
,
0100
0010
0100
0010
,
1000
0100
1000
0100
,
0010
0010
0001
0001
,
2000
0000
3000
0010
,
0020
0000
0030
0100
,
0002
0000
0003
1000
,
0200
0000
1300
0010
,
0200
0000
0300
0001
,
2000
0000
3010
0100
,
0002
0000
1003
0100
,
0110
0110
0000
0000
,
1000
0000
0010
0000
,
0100
0000
0001
0000
,
0100
0010
1000
0001
,
0100
0000
0001
0000
,
1000
0000
0100
0000
,
1000
0000
0010
0000
,
0100
0001
0100
0010
,
1000
0000
0000
0000
,
0001
0000
0010
0000
,
0100
0000
1000
0000
,
0010
0100
0001
0100
,
0010
0000
1000
0000
,
1001
0000
0000
1100
,
1100
0000
0000
0101
,
0101
0000
0110
0000
,
2002
0000
3003
0000
,
1000
0100
1000
0100
,
0010
0001
0010
0001
,
1000
0000
0010
0000
,
0100
0001
0100
0010
,
1000
0000
0001
0010
,
0000
0100
1000
0010
,
0100
0000
0001
0000
,
1000
0000
0001
0000
,
1000
0100
1000
0100
,
0010
0001
0010
0001
,
1000
0000
0010
0000
,
0100
0000
0001
0000
,
1000
0000
0100
0000
,
1000
0001
0100
0000
,
0010
0010
0100
0100
,
0002
0000
0000
0003
,
1001
1000
0010
0100
,
0001
0100
0010
1000
,
0100
0010
0001
0010
,
0100
1000
0010
0100
,
0001
0010
0100
1000
,
0100
1000
0010
0100
,
0001
0010
0001
0100
,
1001
0000
0000
0000
,
1001
0001
0100
0010
,
1000
0010
0100
0001
,
0010
0100
1000
0100
,
0010
0001
0100
0010
,
1000
0010
0100
0001
,
0010
0100
1000
0010
,
0100
0001
0100
0010
,
1001
0000
0000
0000
,
1000
0000
0000
1000
0000
0000
1000
0000
,
0000
1000
0000
0000
1000
0000
0000
0000
,
0001
0000
0000
0001
0000
0000
0001
0000
,
0000
0001
0000
0000
0001
0000
0100
0000
,
0000
0100
0000
0000
0100
0000
0000
0100
,
0000
0100
0000
0010
,
0000
0010
0000
0000
0010
0000
0000
0010
,
0000
0010
1000
0000
,
0001
0000
0010
0000
,
0100
0000
1000
0000
,
0000
0000
2002
0000
,
0000
0000
0000
0000
,
0000
0000
0000
0000
,
0000
0000
0000
0000
,
3003
0000
0000
0000
;

//---------------dance-single - ----------------
#NOTES:
     dance-single:
     :
     Beginner:
     2:
     0.141,0.210,0.036,0.000,0.000: // measure 1
0000
0000
0000
0000
,  // measure 2
0000
0000
0000
0000
,  // measure 3
0000
0000
0000
0000
,  // measure 4
0000
0000
0000
0000
,  // measure 5
0000
0000
0000
0000
,  // measure 6
0000
0000
0000
0000
,  // measure 7
0000
0000
0000
0000
,  // measure 8
1000
0000
0000
0000
,  // measure 9
1000
0000
0000
0000
,  // measure 10
0001
0000
0000
0000
,  // measure 11
0001
0000
0000
0000
,  // measure 12
0100
0000
0000
0000
,  // measure 13
0100
0000
0000
0000
,  // measure 14
0010
0000
0000
0000
,  // measure 15
0010
0000
0000
0000
,  // measure 16
0100
0000
0000
0000
,  // measure 17
0100
0000
0000
0000
,  // measure 18
0001
0000
0000
0000
,  // measure 19
0001
0000
0000
0000
,  // measure 20
1000
0000
0000
0000
,  // measure 21
1000
0000
0000
0000
,  // measure 22
0001
0000
0000
0000
,  // measure 23
0001
0000
0000
0000
,  // measure 24
1000
0000
1000
0000
,  // measure 25
0001
0000
0001
0000
,  // measure 26
0100
0000
0100
0000
,  // measure 27
0010
0000
0010
0000
,  // measure 28
1000
0000
1000
0000
,  // measure 29
0001
0000
0001
0000
,  // measure 30
0010
0000
0010
0000
,  // measure 31
0100
0000
0000
0000
,  // measure 32
0100
0000
0100
0000
,  // measure 33
1000
0000
1000
0000
,  // measure 34
0010
0000
0010
0000
,  // measure 35
0100
0000
0100
0000
,  // measure 36
0001
0000
0001
0000
,  // measure 37
1000
0000
1000
0000
,  // measure 38
0001
0000
0001
0000
,  // measure 39
1000
0000
0000
0000
,  // measure 40
1000
0000
0000
0000
,  // measure 41
1000
0000
0000
0000
,  // measure 42
0001
0000
0000
0000
,  // measure 43
0001
0000
0000
0000
,  // measure 44
0100
0000
0000
0000
,  // measure 45
0100
0000
0000
0000
,  // measure 46
0010
0000
0000
0000
,  // measure 47
0010
0000
0000
0000
,  // measure 48
1000
0000
0000
0000
,  // measure 49
0100
0000
0000
0000
,  // measure 50
0010
0000
0000
0000
,  // measure 51
0001
0000
0000
0000
,  // measure 52
0110
0000
0000
0000
,  // measure 53
0110
0000
0000
0000
,  // measure 54
1001
0000
0000
0000
,  // measure 55
1001
0000
0000
0000
,  // measure 56
1000
0000
1000
0000
,  // measure 57
1000
0000
1000
0000
,  // measure 58
0001
0000
0000
0000
,  // measure 59
0001
0000
0000
0000
,  // measure 60
0100
0000
0100
0000
,  // measure 61
0010
0000
0010
0000
,  // measure 62
1000
0000
1000
0000
,  // measure 63
0001
0000
0001
0000
,  // measure 64
1000
0000
1000
0000
,  // measure 65
1000
0000
1000
0000
,  // measure 66
0010
0000
0000
0000
,  // measure 67
0100
0000
0000
0000
,  // measure 68
0001
0000
0000
0000
,  // measure 69
0001
0000
0000
0000
,  // measure 70
0100
0000
0100
0000
,  // measure 71
0100
0000
0000
0000
,  // measure 72
0010
0000
0010
0000
,  // measure 73
0100
0000
0100
0000
,  // measure 74
0001
0000
0001
0000
,  // measure 75
1000
0000
1000
0000
,  // measure 76
0001
0000
0001
0000
,  // measure 77
0010
0000
0010
0000
,  // measure 78
0100
0000
0100
0000
,  // measure 79
1000
0000
0000
0000
,  // measure 80
1000
0000
1000
0000
,  // measure 81
0100
0000
0100
0000
,  // measure 82
0010
0000
0010
0000
,  // measure 83
0001
0000
0001
0000
,  // measure 84
0100
0000
0100
0000
,  // measure 85
0010
0000
0010
0000
,  // measure 86
1000
0000
1000
0000
,  // measure 87
0001
0000
0000
0000
,  // measure 88
1000
0000
0000
1000
,  // measure 89
0000
0000
1000
0000
,  // measure 90
0001
0000
0000
0001
,  // measure 91
0000
0000
0001
0001
,  // measure 92
0000
0000
0001
0000
,  // measure 93
0000
0001
0000
1000
,  // measure 94
0000
0000
1000
0000
,  // measure 95
0000
1000
1000
0000
,  // measure 96
0000
0000
0001
0000
,  // measure 97
0000
0000
1000
0000
,  // measure 98
0000
0000
1001
0000
;
