#TITLE:Bad Apple!!;
#SUBTITLE:(REDALiCE Remix);
#ARTIST:Alstroemeria Records feat. REDALiCE;
#TITLETRANSLIT:;
#SUBTITLETRANSLIT:;
#ARTISTTRANSLIT:;
#CREDIT:;
#BANNER:Bad Apple rmx - BN.png;
#BACKGROUND:Bad Apple rmx- BG.png;
#LYRICSPATH:;
#CDTITLE:cdtitlegpop.png;
#MUSIC:Bad Apple!! (REDALiCE Remix).ogg;
#OFFSET:-0.200;
#SAMPLESTART:67.980;
#SAMPLELENGTH:12.000;
#SELECTABLE:YES;
#BPMS:0.000=170.000,60.000=85.000,60.500=340.000,61.500=170.000,64.000=85.000,92.000=42.500,93.000=85.000,95.000=170.000,223.000=85.000,253.000=42.500,254.000=170.000;
#STOPS:;
#BGCHANGES:;

//---------------dance-single - ----------------
#NOTES:
     dance-single:
     :
     Challenge:
     10:
     0.802,1.000,0.239,0.047,0.993: // measure 1
0000
0000
0000
0000
,  // measure 2
0000
0000
0000
0000
,  // measure 3
0000
0000
0000
0000
,  // measure 4
0000
0000
0000
0000
,  // measure 5
0000
0000
0000
0000
,  // measure 6
0000
0000
0000
0000
,  // measure 7
0000
0000
0000
0000
,  // measure 8
0000
0000
0000
0000
,  // measure 9
1000
0100
0010
0001
0100
0010
1000
0010
,  // measure 10
0100
0001
0010
0100
1000
0100
0010
0001
,  // measure 11
0100
0010
1000
0100
1000
0010
0100
0001
,  // measure 12
0010
0100
1000
0100
0010
0001
0010
1000
,  // measure 13
0010
0001
0100
0010
1000
0010
0100
0001
,  // measure 14
0010
0001
0100
1000
0100
0001
0010
0100
,  // measure 15
1000
0100
0010
0100
1000
0010
0100
0001
,  // measure 16
1000
2002
0000
3003
1100
0000
1001
0000
,  // measure 17
0101
0100
0010
1000
0001
0000
1000
0100
0000
0010
0001
0000
0100
0010
0000
1000
,  // measure 18
0000
0010
0000
0100
0000
0001
0000
0010
0000
0100
0000
1000
0000
0001
0000
0100
,  // measure 19
0010
1000
0010
0100
0001
0000
0010
0100
0000
1000
0100
0000
0010
0001
0000
0100
,  // measure 20
0000
0000
0010
0000
0000
0000
1000
0000
0000
0000
0010
0000
0000
0000
0100
0000
0000
0000
0001
0000
0000
0000
1000
0000
0001
0000
1000
0100
1000
0100
1000
0100
,  // measure 21
0010
0001
0100
0010
1000
0000
0001
0100
0010
0000
1000
0100
0010
0001
0001
0100
,  // measure 22
0001
0000
0000
0000
1000
0000
0001
0000
0100
0000
0000
0000
0010
0000
1000
0000
0001
0000
0000
0000
1000
0000
0100
0000
1000
0000
0001
0100
0001
0100
0001
0100
,  // measure 23
0010
1000
0001
0010
0100
0000
1000
0100
0010
0000
0001
0100
0010
1000
1000
0010
,  // measure 24
2000
0000
0000
0000
0000
0000
0000
0000
0000
0000
0000
0000
0000
0000
0000
0000
0000
0000
3001
0000
0000
0000
0000
0000
0100
0000
0000
0010
0000
0000
1000
0000
0000
0000
0000
0000
0001
0000
0000
0010
0000
0000
0100
0000
0000
0000
0000
0000
1000
0000
0000
0000
0000
0000
0000
0000
0100
0000
0000
0000
0000
0000
0000
0000
0010
0000
0000
0000
0000
0000
0000
0000
0001
0000
0000
0000
0000
0000
0000
0000
0100
0000
0000
0000
0000
0000
0000
0000
0010
0000
0000
0000
0000
0000
0000
0000
1000
0000
0000
0000
0000
0000
0000
0000
0001
0000
0000
0000
0000
0000
0000
0000
1000
0000
0000
0000
0000
0000
0000
0000
0001
0000
0000
0000
0000
0000
0000
0000
0000
0000
0000
0000
0000
0000
0000
0000
0000
0000
0000
0000
0000
0000
0000
0000
1001
0000
0000
0000
0000
0000
0000
0000
0000
0000
0000
0000
0000
0000
0000
0000
0000
0000
0000
0000
0000
0000
0000
0000
0001
0000
0000
0000
0000
0000
0000
0000
0000
0000
0000
0000
0100
0000
0000
0000
0000
0000
0000
0000
0000
0000
0000
0000
,  // measure 25
0000
0010
1000
0010
0100
0000
0001
0010
0000
0100
1000
0010
0100
0000
0001
0100
,  // measure 26
0000
0010
1000
0010
0100
0000
0001
0010
0100
0000
1000
0100
0010
0000
0001
0100
,  // measure 27
0000
0010
1000
0010
1000
0000
0001
0010
0000
0100
1000
0001
0100
0000
0010
1000
,  // measure 28
0000
0001
0010
0100
1000
0000
0001
0100
0001
0000
0100
0010
1000
0000
0100
0010
,  // measure 29
0000
0010
0001
0010
0100
0000
1000
0100
0000
1000
0100
0010
0001
0000
0100
0010
,  // measure 30
0000
0100
0010
1000
0001
0000
0010
0100
1000
0000
0100
0010
0001
0000
0100
0010
,  // measure 31
0000
1000
0010
0100
0001
0000
0010
0100
0000
1000
0100
1000
0010
0000
0100
0001
,  // measure 32
0000
1000
0001
0010
0100
0000
1000
0100
1000
0000
0010
0100
0001
0000
0010
0001
,  // measure 33
0000
0001
0010
0100
1000
0000
0010
0100
0000
0001
0100
0010
1000
0000
0001
0010
,  // measure 34
0000
0100
1000
0100
1000
0000
0001
0100
0001
0000
1000
0100
1000
0000
0010
0100
,  // measure 35
0000
0010
0100
0001
0100
0000
0010
1000
0000
0010
0100
0001
0010
0000
0100
1000
,  // measure 36
0000
0100
0010
0001
1000
0000
0001
0100
0001
0000
0100
0010
1000
0000
0001
0010
,  // measure 37
0000
0010
0001
0010
0001
0000
0100
0010
0000
1000
0010
1000
0010
0000
0100
0001
,  // measure 38
0000
1000
0100
0010
0001
0000
1000
0100
0001
0000
0100
1000
0010
0000
0100
0001
,  // measure 39
0000
0100
0010
1000
0001
0000
1000
0100
0000
1000
0100
0010
0001
0000
0000
0000
,  // measure 40
M1M1
0000
11MM
0000
M11M
0000
1MM1
0001
,  // measure 41
0100
0010
1000
0000
0001
0010
0100
0000
,  // measure 42
1100
0000
1000
0010
0100
0001
1000
0100
,  // measure 43
1000
0010
0100
0000
0001
0100
0010
1000
,  // measure 44
0010
0100
0001
0010
0100
1000
0001
0010
,  // measure 45
0001
0100
0010
0000
1000
0010
0100
0000
,  // measure 46
0101
0000
0001
0010
0100
1000
0100
0010
,  // measure 47
0001
0100
0010
0000
1000
0100
1000
0000
,  // measure 48
110M
0000
M110
0000
0M11
0000
M001
0100
,  // measure 49
0010
1000
0010
0000
0100
0001
1000
0000
,  // measure 50
1001
0000
0001
0010
0100
0010
0001
0100
,  // measure 51
1000
0100
0001
0000
1000
0100
0010
0010
,  // measure 52
0001
0001
0100
0010
1000
0010
0100
0001
,  // measure 53
1000
0001
1000
0000
0100
0010
0001
0000
,  // measure 54
0101
0000
0010
1000
0001
0100
0010
1000
,  // measure 55
0010
0100
0001
0000
1000
0100
1100
0000
,  // measure 56
M11M
0000
0000
0000
MM11
0000
0000
0000
M11M
0000
0000
0000
1001
1000
0010
0100
,  // measure 57
0001
0000
0010
0100
1000
0010
0100
0001
1000
0000
0001
0010
0001
0100
0010
1000
,  // measure 58
0010
0000
0100
0001
1000
0100
0010
0001
1000
0000
0010
0100
0001
0100
0010
1000
,  // measure 59
0001
0000
0010
1000
0010
0001
0100
0010
1000
0000
0001
0100
1000
0100
0001
0010
,  // measure 60
0100
0000
0000
0000
1000
0000
0100
0000
1000
0000
0010
0000
0001
0000
0010
0000
1000
0000
0000
0000
0001
0100
0001
0100
0001
0000
0100
0000
0010
0000
1000
0000
,  // measure 61
1001
0000
1000
0100
0110
0010
0001
0100
0110
0000
0010
1000
1001
0001
0010
0100
,  // measure 62
1100
0000
1000
0010
1010
1000
0001
0100
0110
0000
0010
0100
1001
0010
0100
0001
,  // measure 63
1100
0000
0010
0100
0011
0100
1000
0010
0101
0000
1000
0010
0110
0100
0001
0100
,  // measure 64
0110
0000
0000
0000
0010
0000
0100
0000
1002
1000
1000
1000
1000
0000
1003
0100
1000
0000
0100
0000
0000
0000
0010
0000
0001
0000
0000
0000
0100
0000
0010
0000
,  // measure 65
0000
1000
0001
0000
0100
0000
0010
0000
1000
0000
0010
0000
0100
0001
1000
0100
,  // measure 66
0000
1000
0010
0000
0100
0000
0001
0000
1000
0100
0000
1000
0010
0000
0100
0001
,  // measure 67
0000
1000
0010
0000
0100
0000
0001
0000
1000
0000
0100
0000
0010
0001
0010
0001
,  // measure 68
0000
0001
0100
0000
0001
1000
0001
1000
0001
0100
0000
0100
0010
0000
0010
1000
,  // measure 69
0000
1000
0001
0000
0100
0000
0010
0000
1000
0000
0100
0000
0010
0001
0010
0001
,  // measure 70
0000
0001
1000
0000
0010
0000
0100
0000
0001
0100
0000
0010
1000
0000
0001
0010
,  // measure 71
0000
0010
0001
0000
0100
0000
0010
0000
1000
0000
0100
0000
1000
0100
0010
0100
,  // measure 72
1000
0001
1000
0100
1000
0100
0010
0001
1000
0100
0000
1000
0100
0000
0010
0001
,  // measure 73
0000
0100
0010
0000
1000
0000
0001
0000
1000
0000
0100
0000
0010
0001
0010
0001
,  // measure 74
0000
0001
0100
0000
0010
0000
1000
0000
0001
0100
0000
0100
0010
0000
0010
1000
,  // measure 75
0000
1000
0100
0000
0010
0000
0001
0000
1000
0000
0100
0000
0010
0001
0100
0010
,  // measure 76
0000
1000
0001
0000
1000
0100
1000
0100
1000
0010
0000
0010
0100
0000
0100
0001
,  // measure 77
0000
0001
1000
0000
0001
0000
0100
0000
0010
0000
1000
0000
0001
0010
0001
0010
,  // measure 78
0000
0010
0100
0000
1000
0000
0010
0000
0100
0001
0000
1000
0100
0000
0010
0001
,  // measure 79
0000
0100
0010
0000
1000
0000
0100
0000
2002
0000
0000
0000
0000
0000
0000
0000
,  // measure 80
0010
0000
0000
0000
3013
0000
0000
0000
1001
0000
0001
0100
0000
0010
1000
0010
,  // measure 81
0100
0000
0001
0010
0000
0100
1000
0010
0100
0000
0001
0100
0000
0010
1000
0010
,  // measure 82
0100
0000
0001
0010
0001
0000
1000
0100
1000
0000
0010
0100
0000
0010
1000
0010
,  // measure 83
0100
0000
0001
0010
0000
0100
1000
0010
0100
0000
0001
0010
0000
0100
0010
1000
,  // measure 84
0001
0000
1000
0100
1000
0000
0001
0100
0001
0000
1000
0010
0000
0010
0100
0001
,  // measure 85
0010
0000
0100
1000
0000
0100
1000
0010
0100
0000
0001
0100
0000
0100
0010
1000
,  // measure 86
0010
0000
0100
0001
0100
0000
0010
1000
0010
0000
0100
0001
0000
0001
1000
0100
,  // measure 87
0010
0000
0001
0010
0000
0010
0100
1000
0100
0000
0010
0100
0000
0010
0100
1000
,  // measure 88
0001
0000
1000
0100
0010
0000
0001
0010
0100
0000
1000
0100
0000
0100
0010
0001
,  // measure 89
0100
0000
0010
1000
0000
1000
0001
0010
0100
0000
1000
0100
0000
0100
0010
0001
,  // measure 90
0100
0000
0001
0010
0100
0000
1000
0100
0010
0000
0001
0100
0000
0010
1000
0010
,  // measure 91
0100
0000
0001
0010
0000
0100
1000
0010
0100
0000
0001
0100
0000
0010
1000
0001
,  // measure 92
0100
0000
0001
0100
1000
0000
0100
0001
1000
0000
0001
0010
0000
0100
1000
0010
,  // measure 93
0100
0000
0001
0010
0000
0001
0010
0100
1000
0000
0010
0100
0000
0001
0100
0010
,  // measure 94
1000
0000
0001
0010
1000
0000
0010
0001
1000
0000
0010
0100
0000
0010
0100
0001
,  // measure 95
1000
0000
0001
0010
0000
0100
1000
0010
1000
0000
0000
0000
11MM
0000
0000
0000
,  // measure 96
M11M
MM11
2002
0000
,  // measure 97
0000
0000
0000
0000
,  // measure 98
0000
0000
0000
0000
,  // measure 99
0000
0000
0000
0000
,  // measure 100
0000
0000
3003
0000
;

//---------------dance-single - ----------------
#NOTES:
     dance-single:
     :
     Hard:
     9:
     0.551,0.840,0.111,0.052,0.265:
0000
0000
0000
0000
,
0000
0000
0000
0000
,
0000
0000
0000
0000
,
0000
0000
0000
0000
,
0000
0000
0000
0000
,
0000
0000
0000
0000
,
0000
0000
0000
0000
,
0000
0000
0000
0000
,
1000
0100
1000
0100
0010
0001
0010
0001
,
1000
0010
1000
0010
0100
0001
0100
0001
,
1000
0100
0010
0001
0100
0010
1000
0010
,
0100
0001
0010
0100
1000
0100
0010
0001
,
0100
0010
1000
0010
0100
0001
0010
0100
,
1000
0100
0010
0001
0100
0010
1000
0100
,
1000
0010
0100
0001
0010
0001
0010
0100
,
1000
2002
0000
3003
1001
0000
0110
0000
,
1001
1000
0010
0100
0001
0100
0010
1000
,
0010
0100
0001
0010
0100
1000
0010
0100
,
0001
1000
0001
1000
0001
0000
0100
0000
0010
0000
1000
0000
0010
0000
0100
0000
,
0001
0010
0100
1000
0100
0010
0001
0100
,
0010
1000
0010
1000
0010
0000
0100
0000
0001
0000
0100
0000
0010
0000
1000
0000
,
0001
0010
0100
1000
0100
0010
0001
0100
,
0010
1000
0010
1000
0010
0000
0100
0000
0001
0000
0010
0000
0100
0000
1000
0000
,
0002
0000
0100
0100
0103
0000
0010
0000
1000
0100
1000
0000
1001
0000
0000
0001
,
0000
0000
0100
0000
0010
0000
0000
1000
0000
0000
0100
0000
0010
0000
0000
0001
,
0000
0000
0100
0000
0010
0000
1000
0000
0100
0000
0010
0000
0001
0000
0000
0010
,
0000
0000
0100
0000
1000
0000
0000
0010
0000
0000
0100
0000
0001
0000
0000
1000
,
0000
0000
0100
0000
1000
0000
0010
0000
0100
0000
0001
0000
1000
0000
0000
0100
,
0000
0000
1000
0000
0010
0000
0000
0100
0000
0000
0001
0000
0010
0000
0000
0100
,
0000
0000
1000
0000
0010
0000
0100
0000
0010
0000
0100
0000
0001
0000
0000
0100
,
0000
0000
0001
0000
0010
0000
0000
0100
0000
0000
1000
0000
0010
0000
0000
0100
,
0000
0000
0001
0000
1000
0000
0100
0000
0010
0000
0001
0000
1000
0000
0000
0010
,
0000
0000
0100
0000
0001
0000
0000
0010
0000
0000
0100
0000
1000
0000
0000
0010
,
0000
0000
0100
0000
0001
0000
0100
0000
0010
0000
1000
0000
0001
0000
0000
0010
,
0000
0000
0100
0000
1000
0000
0000
0010
0000
0000
0100
0000
0001
0000
0000
0010
,
0000
0000
0100
0000
1000
0000
0100
0000
0010
0000
0001
0000
0100
0000
0000
0010
,
0000
0000
1000
0000
0010
0000
0000
0100
0000
0000
0001
0000
0000
0010
0000
0000
,
0100
0000
1000
0000
0010
0000
0100
0000
0001
0000
1000
0000
0001
0000
0000
0100
,
0000
0000
0010
0000
1000
0000
0000
0010
0000
0000
0100
0000
0101
0000
0000
0000
,
0110
0000
1010
0000
1001
0000
1100
1000
,
0010
0100
0001
0000
1000
0100
1000
0000
,
0010
0000
0100
0001
0100
0010
1000
0001
,
0010
0100
1000
0000
0001
0100
0010
1000
,
0010
0100
0001
0010
0100
1000
0001
0001
,
0100
0010
1000
0000
0001
0100
0001
0000
,
1000
0000
0100
0010
0001
0100
0010
1000
,
0010
0100
0001
0000
0010
0100
1000
0000
,
0001
0000
0100
0000
0010
0000
1001
1000
,
0100
1000
0010
0000
0100
0001
0100
0000
,
0010
0000
1000
0010
0100
0001
0010
0100
,
1000
0100
0010
0000
0001
0100
0010
1000
,
0010
0100
0001
0010
0100
1000
0001
0001
,
0100
0010
1000
0000
0010
0100
0001
0000
,
0010
0000
0100
1000
0010
0100
0001
0100
,
0001
0100
0010
0000
1000
0010
0100
0000
,
0001
0000
0000
0000
1000
0000
0000
0000
0001
0000
0000
0000
1000
0100
1000
0100
,
1000
0000
0000
0000
0001
0100
0001
0100
0001
0000
0000
0000
1000
0010
1000
0010
,
1000
0000
0000
0000
0001
0010
0001
0010
0001
0000
0000
0000
1000
0100
0010
0001
,
1000
0000
0000
0000
0001
0100
0010
1000
0001
0000
0000
0000
1000
0010
0100
0001
,
1000
0000
0000
0000
0001
0100
0010
1000
0001
0000
0000
0000
1000
0100
1000
0100
,
1000
0000
0010
0100
0001
0100
0001
0100
0001
0000
0100
0010
1000
0001
1000
0001
,
1000
0000
0010
0100
0001
1000
0001
1000
0001
0000
0100
0010
1000
0100
0010
0100
,
1000
0000
0001
0100
0010
1000
0010
0100
0001
0000
1000
0100
0010
0001
0100
0010
,
1000
0000
0001
1000
2002
0000
0000
3003
1000
0000
0100
0000
0010
0000
0001
0000
,
1000
0000
0010
0100
0001
0100
0010
1000
,
0001
0000
0100
0010
1000
0010
0100
0001
,
1000
0000
0001
0100
1000
0100
0001
0010
,
0100
0000
1000
0100
0010
0001
0100
1000
,
0100
0000
0001
0010
0100
0010
0001
0100
,
0010
0000
1000
0010
0001
0010
1000
0100
,
0010
0000
0001
0010
0001
0100
0010
1000
,
0100
0000
1000
0010
0100
0001
0100
0001
,
1000
0000
0010
0100
0001
0100
0010
1000
,
0010
0000
0100
0001
0010
0100
1000
0100
,
0010
0000
0001
0100
0010
0100
0001
0010
,
0100
0000
1000
0100
0001
0100
1000
0010
,
0100
0000
0001
0010
1000
0010
0001
0100
,
0010
0000
1000
0100
0010
1000
0010
0100
,
1000
0000
0010
0100
2002
0000
0003
0000
,
0001
0000
0000
0000
3001
0000
0000
0000
1001
0000
0000
0100
0000
0000
0010
0000
,
1000
0000
0000
0010
0000
0000
0100
0000
0001
0000
0000
0010
0000
0000
0100
0000
,
1000
0000
0010
0000
0100
0000
0001
0000
1000
0000
0000
0100
0000
0000
0010
0000
,
0001
0000
0000
0010
0000
0000
0100
0000
1000
0000
0000
0010
0000
0000
0100
0000
,
0001
0000
0010
0000
0001
0000
0100
0000
0010
0000
0000
1000
0000
0000
0010
0000
,
0100
0000
0000
0001
0000
0000
0010
0000
0001
0000
0000
0100
0000
0000
0010
0000
,
1000
0000
0010
0000
0100
0000
0001
0000
0010
0000
0000
0100
0000
0000
1000
0000
,
0100
0000
0000
0010
0000
0000
0001
0000
0100
0000
0000
0010
0000
0000
1000
0000
,
0001
0000
0100
0000
0001
0000
0100
0000
0010
0000
0000
1000
0000
0000
0010
0000
,
0100
0000
0000
0001
0000
0000
0010
0000
0100
0000
0000
1000
0000
0000
0010
0000
,
0100
0000
0001
0000
0100
0000
0001
0000
1000
0000
0000
0001
0000
0000
0010
0000
,
0100
0000
0000
1000
0000
0000
0100
0000
0010
0000
0000
0001
0000
0000
0100
0000
,
0010
0000
1000
0000
0010
0000
0100
0000
0001
0000
0000
0010
0000
0000
0001
0000
,
0100
0000
0000
0010
0000
0000
0100
0000
0010
0000
0000
1000
0000
0000
0010
0000
,
0100
0000
0001
0000
0010
0000
0100
0000
1000
0000
0000
0100
0000
0000
1000
0000
,
0010
0000
0000
0100
0000
0000
0001
0000
0101
0000
0000
0000
1100
0000
0000
0000
,
1010
0011
2002
0000
,
0000
0000
0000
0000
,
0000
0000
0000
0000
,
0000
0000
0000
0000
,
0000
0000
3003
0000
;

//---------------dance-single - ----------------
#NOTES:
     dance-single:
     :
     Medium:
     6:
     0.403,0.463,0.111,0.041,0.000:
0000
0000
0000
0000
,
0000
0000
0000
0000
,
0000
0000
0000
0000
,
0000
0000
0000
0000
,
0000
0000
0000
0000
,
0000
0000
0000
0000
,
0000
0000
0000
0000
,
0000
0000
0000
0000
,
1000
0100
0010
0001
1000
0000
0010
0000
,
0100
0001
0010
0100
,
1000
0100
0010
0001
,
0100
0010
1000
0001
,
1000
0100
1000
0010
0100
0000
0001
0000
,
0010
0100
1000
0010
,
0100
0001
1000
0001
,
1000
1001
0000
0000
1100
0000
0101
0000
,
1001
0001
0100
0010
,
1000
0010
0100
0001
,
1000
0100
0010
0000
0001
0000
0100
0000
,
0010
1000
0010
0100
,
0001
0010
0001
0000
0100
0000
0010
0000
,
1000
0000
0010
0000
0100
0000
0001
0010
,
0001
0010
0100
0000
1000
0000
0010
0000
,
2000
0000
3001
0100
0010
0010
1001
0000
,
1000
0100
0010
0000
0001
0100
0010
0000
,
1000
0010
0100
0000
0001
0000
0010
0000
,
0001
0100
0010
0000
1000
0100
1000
0000
,
0010
0100
0001
0000
0100
0000
0010
0000
,
1000
0010
0100
0000
0001
0010
0001
0000
,
0100
0010
1000
0000
0010
0000
0100
0000
,
0001
0010
0001
0000
1000
0100
1000
0000
,
0010
0100
0001
0000
0010
0000
0001
0000
,
0100
0010
1000
0000
0100
1000
0100
0000
,
0010
0001
0010
0000
0100
0000
1000
0000
,
0010
0100
0001
0000
0100
0010
1000
0000
,
0001
0010
0001
0000
0010
0000
0001
0000
,
0010
0100
1000
0000
0001
0100
1000
0000
,
0100
0001
1000
0000
0010
0000
0100
0000
,
0001
0010
1000
0000
0010
0001
0100
0000
,
0100
0000
0010
0000
0010
0000
1000
0100
,
0010
0001
1000
0000
0001
0000
0001
0000
,
0100
0000
0010
0000
1000
0000
0001
0010
,
0001
0010
0100
0000
1000
0000
0001
0100
,
0010
1000
0001
0000
0100
0000
0001
1000
,
0001
1000
0001
0000
0100
0000
0010
0000
,
1000
0000
0010
0000
0100
0000
0001
0010
,
0001
0010
0100
0000
1000
0000
0010
0100
,
0010
0100
0001
0000
1000
0000
0001
0100
,
0010
1000
0010
0000
0100
0000
0001
0000
,
0010
0000
0100
0000
1000
0000
0100
0010
,
0100
0010
0001
0000
0100
0000
0010
1000
,
0010
1000
0010
0000
0100
0000
0001
0010
,
0001
0010
0100
0000
1000
0000
0010
0000
,
0100
0000
0001
0000
1000
0000
0001
1000
,
0001
1000
0100
0000
0010
0000
0011
0000
,
0110
0000
1100
0000
0110
0000
1001
1000
,
0001
0000
0100
0010
1000
0000
0001
0010
,
0100
0000
1000
0100
1000
0000
0001
0010
,
1000
0000
0010
0001
0100
0000
0010
1000
,
0001
0000
0100
0010
1000
0000
1001
0010
,
0100
0000
0001
0010
0100
0000
1000
0100
,
0010
0000
0001
0100
0010
0000
1000
0010
,
1000
0000
0001
0100
0001
0000
1000
0100
,
0010
0000
2002
3003
1000
0100
0010
0000
,
0001
0000
0100
0000
0010
1000
0001
0000
,
0010
0000
0100
0000
1000
0100
1000
0000
,
0010
0000
0100
0000
0001
0010
1000
0000
,
0100
0000
0001
0000
0100
0010
1000
0000
,
0001
0000
0010
0000
0001
0100
1000
0000
,
0010
0000
0001
0000
0100
0010
1000
0000
,
0001
0000
0010
0000
0001
0100
1000
0000
,
0010
0000
0001
0000
1000
0100
0010
0000
,
0001
0000
0010
0000
0100
1000
0010
0000
,
0100
0000
0001
0000
0100
0010
0100
0000
,
0001
0000
0010
0000
0001
0010
1000
0000
,
0010
0000
0001
0000
0100
1000
0010
0000
,
0100
0000
0001
0000
0100
1000
0100
0000
,
0010
0000
0100
0000
0001
0010
0001
0000
,
0100
0010
2002
3000
,
1000
0000
1003
0000
1001
0000
1000
0100
,
1000
0000
0010
0100
0001
0000
1000
0100
,
0001
0000
0010
0000
0100
0000
1000
0010
,
0100
0000
0001
0010
0001
0000
0100
0010
,
1000
0000
0010
0000
0100
0000
0001
0010
,
0001
0000
0100
0010
1000
0000
0010
0100
,
0001
0000
1000
0000
0100
0000
0010
0001
,
0010
0000
0100
1000
0010
0000
0100
0001
,
1000
0000
0001
0000
0010
0000
0100
1000
,
0010
0000
0100
0001
1000
0000
0001
0010
,
0001
0000
0100
0000
0010
0000
1000
0010
,
0100
0000
0001
0010
0001
0000
0100
0010
,
1000
0000
0010
0000
0100
0000
0001
0010
,
0001
0000
0100
1000
0100
0000
0010
0001
,
0100
0000
0010
0000
1000
0000
0010
0100
,
0001
0000
1000
0100
1100
0000
0101
0000
,
0011
1010
2002
0000
,
0000
0000
0000
0000
,
0000
0000
0000
0000
,
0000
0000
0000
0000
,
0000
0000
3003
0000
;

//---------------dance-single - ----------------
#NOTES:
     dance-single:
     :
     Easy:
     3:
     0.253,0.348,0.058,0.029,0.000:
0000
0000
0000
0000
,
0000
0000
0000
0000
,
0000
0000
0000
0000
,
0000
0000
0000
0000
,
0000
0000
0000
0000
,
0000
0000
0000
0000
,
0000
0000
0000
0000
,
0000
0000
0000
0000
,
1000
0100
0010
0001
,
0100
0010
1000
0010
,
0100
0001
0010
0100
,
1000
0100
0010
0001
,
0100
0010
1000
0010
,
0100
0001
0010
0100
,
1000
0001
0100
0010
,
1001
0000
1001
1001
,
1001
0001
0100
0010
,
1000
0010
0100
0001
,
0010
0100
1000
0010
,
0100
0001
0100
0010
,
1000
0010
0100
0001
,
0010
0100
1000
0100
,
0010
0001
0100
0010
,
2000
3001
1001
1001
,
0000
1000
0000
0010
,
0000
0100
0001
1000
,
0000
0001
0000
0010
,
0000
0100
1000
0010
,
0000
0100
0000
0001
,
0000
0010
0001
0100
,
0000
0010
0000
1000
,
0000
0010
0100
0001
,
0000
1000
0000
0100
,
0000
0010
0001
0100
,
0000
0010
0000
1000
,
0000
0010
0100
0001
,
0000
0010
0000
0100
,
0000
1000
0010
0100
,
0000
0001
0000
1000
,
1000
0001
0001
1000
,
0100
0010
0000
0001
,
0000
0100
0010
1000
,
0010
0100
0000
0001
,
0010
0001
0100
0010
,
1000
0010
0000
0100
,
0000
0001
0010
0001
,
0100
0010
0000
1000
,
0100
1000
0010
0100
,
0001
0010
0000
0100
,
0000
1000
0100
0010
,
0100
1000
0000
0010
,
0100
0001
0010
0100
,
1000
0010
0000
0100
,
0000
0001
0010
0001
,
0100
0010
0000
1000
,
1000
0001
0001
1001
,
1000
0010
0100
0001
,
0010
0100
1000
0010
,
0100
0010
1000
0010
,
0100
0001
0010
0100
,
1000
0001
0010
0100
,
1000
0010
0100
0001
,
0100
0010
1000
0001
,
0100
1001
1000
1000
,
0001
0001
0100
0100
,
0010
0010
1000
0100
,
1000
0100
0010
0001
,
0010
0001
1000
1000
,
0010
0010
0100
0100
,
0001
0001
1000
0100
,
0010
0001
1000
0100
,
0010
0001
1000
1000
,
0010
0010
0100
0100
,
0001
0001
0010
0100
,
1000
0010
0100
0001
,
0100
0010
1000
1000
,
0010
0010
0100
0100
,
0001
0001
0010
0100
,
1000
0010
2002
0000
,
0000
3003
1000
0000
,
0100
0000
0010
0000
,
0001
0100
0010
0000
,
1000
0000
0010
0000
,
0100
0001
0010
0000
,
0100
0000
1000
0000
,
0010
0100
0001
0000
,
0010
0000
0001
0000
,
0100
0010
1000
0000
,
0001
0000
0010
0000
,
0100
1000
0010
0000
,
0100
0000
0001
0000
,
1000
0100
1000
0000
,
0010
0000
0100
0000
,
0001
0010
0001
0000
,
0010
0000
0100
0100
,
0010
0010
2002
0000
,
0000
0000
0000
0000
,
0000
0000
0000
0000
,
0000
0000
0000
0000
,
0000
0000
3003
0000
;

//---------------dance-single - ----------------
#NOTES:
     dance-single:
     :
     Beginner:
     2:
     0.151,0.195,0.023,0.000,0.000:
0000
0000
0000
0000
,
0000
0000
0000
0000
,
0000
0000
0000
0000
,
0000
0000
0000
0000
,
0000
0000
0000
0000
,
0000
0000
0000
0000
,
0000
0000
0000
0000
,
0000
0000
0000
0000
,
1000
0000
1000
0000
,
0001
0000
0001
0000
,
0100
0000
0100
0000
,
0010
0000
0010
0000
,
1000
0000
1000
0000
,
0100
0000
0100
0000
,
0010
0000
0010
0000
,
0001
0000
0001
0001
,
0001
0000
0000
0000
,
0100
0000
0000
0000
,
0010
0000
0000
0000
,
1000
0000
0000
0000
,
0001
0000
0000
0000
,
0010
0000
0000
0000
,
0100
0000
0000
0000
,
1000
1000
1000
1000
,
0000
1000
0000
0010
,
0000
0010
0000
0100
,
0000
0100
0000
0001
,
0000
0001
0000
0010
,
0000
0010
0000
0100
,
0000
0100
0000
1000
,
0000
1000
0000
0010
,
0000
0010
0000
0100
,
0000
0100
0000
0001
,
0000
0001
0000
1000
,
0000
1000
0000
0100
,
0000
0100
0000
0010
,
0000
0010
0000
0001
,
0000
0001
0000
0100
,
0000
0100
0000
0010
,
0010
0010
0010
0010
,
0000
0010
0000
1000
,
0000
1000
0000
0001
,
0000
0001
0000
0100
,
0000
0100
0000
0010
,
0000
0010
0000
1000
,
0000
1000
0000
0001
,
0000
0001
0000
0100
,
0100
0100
0100
0100
,
0000
0100
0000
0010
,
0000
0010
0000
1000
,
0000
1000
0000
0001
,
0000
0001
0000
0010
,
0000
0010
0000
0100
,
0000
0100
0000
1000
,
0000
1000
0000
0001
,
0001
0001
0001
0001
,
0000
0001
0000
0100
,
0000
0100
0000
0010
,
0000
0010
0000
1000
,
0000
1000
0000
0010
,
0000
0010
0000
0100
,
0000
0100
0000
0001
,
0000
0001
0000
0100
,
0000
1001
1001
0000
,
1000
0000
0100
0000
,
0100
0000
0010
0000
,
0010
0000
0001
0000
,
0001
0000
0100
0000
,
0100
0000
0010
0000
,
0010
0000
1000
0000
,
1000
0000
0001
0000
,
0001
0000
1000
0000
,
0100
0000
0010
0000
,
0001
0000
0100
0000
,
0010
0000
1000
0000
,
0010
0000
0100
0000
,
0001
0000
0010
0000
,
0100
0000
1000
0000
,
0001
0000
1001
0000
,
0000
0000
1000
0000
,
1000
0000
1000
0000
,
1000
0000
0001
0000
,
0001
0000
0001
0000
,
0001
0000
0100
0000
,
0100
0000
0100
0000
,
0100
0000
0010
0000
,
0010
0000
0010
0000
,
0010
0000
1000
0000
,
1000
0000
0100
0000
,
0100
0000
0010
0000
,
0010
0000
0001
0000
,
0001
0000
1000
0000
,
0100
0000
0010
0000
,
0001
0000
1000
0000
,
0010
0000
0100
0100
,
0100
0000
1001
0000
;
