#TITLE:495;
#ARTIST:t+pazolite;
#FILE:495.ogg;
#BPM:495.000;
#GAP:0;
#SAMPLESTART:18.915;
#SAMPLELENGTH:15.541;
#CDTITLE:!hiryuu.png;
#FREEZE:672.000=121.000,796.000=121.000,840.000=121.000,844.000=121.000,848.000=121.000,852.000=121.000,904.000=121.000,1028.000=121.000,1184.000=121.000,1308.000=121.000,1352.000=121.000,1356.000=121.000,1368.000=121.000,1420.000=121.000,1544.000=121.000,2010.000=485.000,2252.000=121.000,2256.000=121.000,2260.000=121.000,2264.000=121.000,2780.000=121.000,2784.000=121.000,2788.000=121.000,2792.000=121.000,3212.000=606.000,3272.000=121.000,3396.000=121.000,3440.000=121.000,3444.000=121.000,3456.000=121.000,3508.000=121.000,3632.000=121.000;
#CHANGEBPM:1072.000=990.000,1136.000=495.000,1588.000=990.000,1652.000=247.503,1780.000=495.001,1796.000=247.500,1804.000=495.000,1820.000=247.500,1828.000=495.000,1844.000=247.500,1852.000=495.000,1868.000=247.500,1876.000=495.000,1892.000=247.500,1900.000=495.000,1916.000=247.500,1924.000=495.000,1940.000=247.501,1948.000=495.000,2492.000=990.000,2556.000=495.000,3020.000=990.000,3084.000=247.500,3116.000=242.500,3148.000=237.500,3156.000=232.500,3164.000=227.500,3172.000=222.500,3180.000=217.500,3184.000=212.500,3188.000=207.500,3192.000=202.500,3196.000=177.500,3200.000=152.500,3204.000=127.500,3208.000=120.500,3212.000=495.000,3676.000=990.000,3740.000=495.000,3744.000=475.000,3748.000=455.000,3752.000=435.000,3756.000=415.000,3760.000=395.000,3764.000=375.000,3768.000=355.000,3772.000=335.000,3776.000=315.000,3780.000=295.000,3784.000=275.000,3788.000=255.000,3792.000=235.000,3796.000=215.000,3800.000=195.000,3804.000=175.000,3808.000=155.000,3812.000=135.000,3816.000=115.000,3820.000=95.000,3824.000=75.000,3828.000=55.000,3832.000=35.000,3836.000=25.000,3840.000=15.000;
#SINGLE:SMANIAC:13:
00000000
00000000
00000000
00000000
00000000
00000000
00000000
B!4000B!6000
9!80009!6000
3!2000A!8000
7!40001!2000
1!40007!8000
A!20003!6000
3!20001!4000
1!20000020
9!60009!8000
7!40007!8000
9!60003!2000
1!40001!2000
3!60009!8000
A!20001!4000
7!80009!6000
9!80000080
70000000
A0000000
90000000
B0000000
30000000
A0000000
10000000
B0000000
60002000
60004000
20004000
80002000
60802000
40008000
20604080
20008020
60806020
60406020
60806040
B0402040
80406040
20408040
60402042
42402080
60802040
80206040
60208070
60802040
20806020
8040B030
B0704080
20608060
20804020
4080A080
20608060
40204080
20604020
40646460
80608020
80608020
40208020
40104080
20804020
40608020
9!90000000
00000000
00000000
00009000
40206020
40806080
40802060
90602040
20608040
80604080
20608028
28204060
20402060
20402080
40208090
60802040
80206080
40809030
80407040
20806080
20408020
604020A0
20408020
60802040
80206080
40806868
60208040
80608020
60804080
2040B040
20602080
60204020
807!700000
00000000
00000000
00000070
00406040
20406040
20408020
60806080
20402060
20408060
80408020
60402040
60900090
00802010
00100040
80A000A0
008040B0
00A000B!B0
B0900030
00804010
00A00080
60B00070
00804010
00900060
406000B!B0
00000000
{0000000000000000000000000000000000000000B00000000000000000000000}
00000040
20806020
60802040
80408020
60806040
20802080
60208040
60806046
46408020
60806020
80206040
20408020
80402040
20806020
80406090
30A07040
80206040
20806080
20806040
20402080
60408020
60806020
60402046
46406020
40206080
40806020
80408060
80206080
40802040
206020A!A0
00000000
00000000
00000000
00A00080
60208040
20408020
60806020
80402040
80206080
60208040
20408028
28208040
20806020
80408020
60802040
80206040
20806040
60802010
70A03060
80408060
40602040
20604060
20804020
60204080
60804020
80604064
64608020
40802060
80604020
40608020
80604020
80204060
206040B!B0
00000000
00000000
00000000
00B00040
20806020
80406040
80206080
60208040
80206080
60208040
20806040
208060B!B0
00B04020
80608020
40604020
8060B060
80602080
40204080
20608060
40646460
80204020
80604080
20608060
20A08040
20602040
80608040
10A08060
90608060
20604060
40804020
40708020
80408020
80608040
80206040
24242040
20806080
60208040
80206080
90608020
40802060
8020406!60
00000000
00000000
00000000
000000B!40
00000000
00000000
00000000
00000000
00000000
00000000
[000004000000000000000000]
;
#SINGLE:MANIAC:10:
00000000
00000000
00000000
00000000
00000000
00000000
00000000
40000000
20000000
80000000
60000000
20000000
80000000
40006000
40000000
B0000000
60000000
20000000
80000000
40000000
60000000
40002000
60000000
10000000
10000000
B0000000
B0000000
70000000
70000000
A0000000
A0000000
80000000
40000000
60000000
20000000
60004000
20004000
60000000
B!B00000B0
40002000
80006000
20008000
B0600020
00800040
00200040
0060008!80
00900040
00600040
00200040
008000A0
80004000
20008000
6000B!B000
00B06000
80002000
40002000
80009060
00200040
00200060
00800040
008!800090
00400060
00200080
00400020
00A02000
40008000
20006000
B0000000
00000000
00000000
00000000
40006000
40002000
80006000
30200080
00400020
00400080
0020006!60
00900060
00200080
00400020
004000B0
40002000
40008000
2000A0A0
A000A080
00400020
00800020
00400010
40008000
60008000
40002000
60002!2000
10008000
60008000
40002000
60003020
00400080
00200060
00B00000
00000000
00000000
00000000
00400040
00600060
00200020
00800080
00400020
00800060
00400080
00200060
00B!B00000
00B000A!A0
000000A0
001!100000
0010009!90
00000090
007!700000
0070003!30
00000030
00B!B00000
00B0004!40
0000007!80
000000A!20
00000000
00000020
00000080
00400020
00800060
00200080
00400020
00400080
00200060
0080006!60
00300060
00400020
00400080
00200060
00200080
00400020
004000A!A0
0000A080
00400020
00400060
00200080
00200060
00800020
00400020
0080006!60
00B00060
00200080
00200060
00400020
00400060
00800020
004000B0
00000000
00000000
00000000
00000040
00600080
00600020
00600040
00200040
00800020
00600080
0060004!40
00100040
00800060
00800040
00200060
00200040
00800020
006000B!B0
0000B040
00200060
00200040
00800060
00800040
00200080
00600040
0080002!20
00A00040
00200060
00200040
00800020
00600080
00400080
006000B0
00000000
00000000
00000000
00000040
00200080
00600040
00200080
00600040
00200080
00600040
00200080
006000B0
00004000
20004000
60008000
6000B040
00200040
00800020
00600080
006!600090
00600020
00800040
00200040
00102000
40008000
20006000
A0A0A000
A0800040
00200080
00200040
00B06000
20008000
40008000
60008000
4!40001000
60002000
40002000
60002000
10400080
00600080
004000B0
00000000
00000000
00000000
000000A0
;
#SINGLE:ANOTHER:8:
00000000
00000000
00000000
00000000
00000000
00000000
00000000
40000000
00000000
60000000
00000000
20000000
00000000
80000000
00000000
B0000000
00000000
80000000
00000000
20000000
00000000
80000000
00000000
B0000000
B0000000
B0000000
B0000000
B0000000
B0000000
B0000000
B0000000
B0006000
20008000
40006000
80002000
40204000
80002000
60206020
60004020
40008000
20006000
80002040
60400080
00200060
00800020
00400080
20800040
00200080
00600020
00804060
20008000
40008000
20006060
60604000
20008000
60002000
80406080
00200040
00200080
00600020
00602060
00400020
00800060
00200080
40802000
60008000
20004000
B!B0000000
00000000
00000000
0000B000
B0004000
80002000
60008020
40200080
00600020
00800040
00800020
60200060
00400080
00200060
00806040
60002000
80004000
60004040
40604060
00200080
00400060
00802080
60002000
80004000
80002000
60008020
40002000
80006000
20008000
40204060
00200080
00400060
00B!B00000
00000000
00000000
000000B0
00400080
00200040
00200020
00200040
00200080
00400080
00200040
00200020
00600060
002!2000A0
0080004!40
00B00060
00800020
0020004!40
00700080
002!200030
0060008!80
00A00020
004!4000B0
00600040
604000B!B0
00000000
00000B00
000000B0
00600020
00800040
00608020
00400080
00200060
00200080
0040204!40
00700020
00600080
00200040
00208060
00200080
00400060
00200080
80808080
00200060
00800020
00402040
00800020
00600080
00200040
0080002!20
00300080
00600020
00800040
00802060
00800020
00400060
004000B!B0
00000000
00000000
00000000
0000B040
20400060
20600040
20806040
00600020
80400080
20600040
2080604!40
00700020
60200080
40800060
80204060
00200080
40600040
20800060
60606060
20800020
80400060
80204060
00200080
40800020
60800020
4020806!60
00300080
40600080
20400020
80602080
00400080
20600040
208000B!B0
00000000
00000000
00000000
0000B040
20408020
60208040
80206080
20402080
60208040
80206080
20402080
604060B!B0
00B04000
80002000
60002000
80406060
00200080
00200080
00400020
00806080
00200040
00200080
00600020
80404000
80002000
60002000
80808020
80800020
00600080
00200040
20808000
60002000
80004000
80002000
60406000
80002000
40008000
20006040
60600020
00800040
006000B!B0
00000000
00000000
00000000
00B000B!B0
00000000
00000000
00000000
00000000
00000000
00000000
[00000B000000000000000000]
;
#SINGLE:BASIC:5:
00000000
00000000
00000000
00000000
00000000
00000000
00000000
40000000
00000000
00000000
00000000
00000000
00000000
00000000
00000000
60000000
00000000
00000000
00000000
00000000
00000000
00000000
00000000
40000000
40000000
40000000
40000000
60000000
60000000
60000000
60000000
40000000
20000000
80000000
60000000
40002000
80006000
40006000
B0000000
40000000
60000000
20002000
60000040
00000060
00000020
00000080
00000040
00000060
00000080
00800020
00002000
00004000
0000B!B000
00B0B000
00006000
00002000
20006000
00200000
00800000
00400000
00600000
00800000
00600000
00200020
00800000
40000000
60000000
B!B0000000
00000000
00000000
B0000000
B0000000
60000000
20002000
80000040
00000080
00000020
00000060
00000080
00000020
00000040
00400060
00002000
00008000
0000B!B000
0000B0B0
00000060
00000020
00600040
00008000
00002000
00006000
00004000
00008000
00002000
00006000
60002000
00800000
00200000
00B!B00000
00000000
00000000
0000B000
00400040
00400040
00600060
00600060
00200020
00200020
00800080
00800080
00B00000
000000B0
00000000
00B00000
000000B0
00000000
00A00000
000000A0
00000000
00A00000
000000A0
000000A0
000000B!B0
00000000
0000B000
00000040
00000020
00000080
00800060
00000020
00000080
00000040
00000060
00000080
00000020
00000040
00400060
00000020
00000080
0000004!40
00004060
00000020
00000080
00400060
00000080
00000020
00000040
00000080
00000020
00000060
00000080
00800020
00000040
00000060
000000B!B0
00000000
00000000
000000B0
000000B0
00000060
00000020
00800040
00000060
00000080
00000020
00000040
00000060
00000060
00000020
00800040
00000060
00000080
0000006!60
00006040
00000080
00000020
00800020
00000060
00000080
00000020
00000040
00000080
00000020
00000060
00200060
00000020
00000080
000000B!B0
00000000
00000000
000000B0
000000B0
00600060
00600020
00200020
00200080
00800080
00800040
00400040
004000B0
00004000
00008000
00002000
60004000
00200000
00800000
00600000
00200000
00800000
00400000
00800020
00600000
80000000
20000000
4!40000000
40400000
00800000
00200020
00600000
80000000
20000000
40000000
60000000
80000000
60000000
20008000
40000060
00000020
000000B!B0
00000000
00000000
000000B0
000000B!B0
00000000
00000000
00000000
00000000
00000000
00000000
[00000B000000000000000000]
;
#SINGLE:BEGINNER:3:
00000000
00000000
00000000
00000000
00000000
00000000
00000000
40000000
00000000
00000000
00000000
00000000
00000000
00000000
00000000
40000000
00000000
00000000
00000000
00000000
00000000
00000000
00000000
60000000
00000000
60000000
00000000
60000000
00000000
60000000
00000000
40000000
40000000
40000000
40000000
60000000
60000000
60000000
60000000
40000000
00000000
60000000
60000060
00000000
00000020
00000000
00000080
00000000
00000020
00000020
00002000
00000000
00006000
00006000
00000000
00002000
00002000
00200000
00000000
00800000
00000000
00400000
00000000
00600000
00600000
60000000
00000000
B0000000
00000000
00000000
00000000
40000000
00000000
60000000
60000060
00000000
00000080
00000000
00000020
00000000
00000040
00000040
00004000
00000000
00008000
00000080
00000000
00000020
00000020
00002000
00000000
00006000
00000000
00004000
00000000
00006000
00006000
00600000
00000000
00B00000
00000000
00000000
00000000
00400000
00400000
00400000
00400000
00600000
00600000
00600000
00600000
00400000
00000040
00000000
00400000
00000040
00000000
00600000
00000060
00000000
00600000
00000060
00000060
000000B0
00000000
00000000
000000B0
00000000
00000060
00000060
00000060
00000000
00000020
00000000
00000080
00000000
00000080
00000080
00000080
00000000
00000040
00000040
00000000
00000060
00000060
00000040
00000000
00000080
00000000
00000020
00000000
00000060
00000060
00000020
00000000
000000B0
00000000
00000000
00000000
00000040
00000000
00000060
00000060
00000020
00000000
00000080
00000000
00000040
00000000
00000020
00000020
00000080
00000000
00000060
00000060
00000000
00000020
00000020
00000080
00000000
00000040
00000000
00000040
00000000
00000080
00000080
00000020
00000000
000000B0
00000000
00000000
00000000
000000B0
00000040
00000060
00000060
00000020
00000020
00000080
00000080
008000B0
00004000
00000000
00006000
00006000
00600000
00000000
00200000
00000000
00200000
00000000
00800000
00800000
80000000
00000000
40000000
00400000
00000000
00400000
00400000
60000000
00000000
80000000
00000000
20000000
00000000
40000000
40000060
00000000
000000B0
00000000
00000000
00000000
000000B0
;
