#TITLE:esquisse;
#SUBTITLE:;
#ARTIST:高橋ミナミ;
#TITLETRANSLIT:;
#SUBTITLETRANSLIT:;
#ARTISTTRANSLIT:Minami Takahashi;
#GENRE:;
#CREDIT:;
#MUSIC:esquisse.ogg;
#BANNER:esquisse-BN.png;
#BACKGROUND:esquisse-BG.png;
#CDTITLE:cdtitle.png;
#SAMPLESTART:67.581;
#SAMPLELENGTH:14.118;
#SELECTABLE:YES;
#OFFSET:-0.522;
#BPMS:0.000=136.000;
#STOPS:;
#JACKET:esquisse-Jacket.png;
#JACKET:esquisse-Jacket.png;
#BGCHANGES:;
#FGCHANGES:;

//--------------- dance-single - T9N ----------------
#NOTES:
     dance-single:
     T9N:
     Beginner:
     1:
     0,0,0,0,0:
0000
0000
0000
0000
,
0000
0000
0000
0000
,
0000
0000
0000
0000
,
0000
0000
0000
0000
,
2000
0000
0000
0000
,
3000
0000
1000
0000
,
0010
0000
0010
0000
,
0100
0000
0100
0000
,
0002
0000
0000
0000
,
0003
0000
0001
0000
,
1000
0000
0001
0000
,
2000
0000
0000
0000
0000
0000
0000
3000
0000
0000
0000
0000
0000
0000
0000
0000
,
0001
0000
0000
0000
,
0001
0000
0000
0000
,
0100
0000
0000
0000
,
0100
0000
0000
0000
,
0010
0000
0000
0000
,
0010
0000
0000
0000
,
1000
0000
0000
0000
,
1000
0000
0000
0000
,
0001
0000
0000
0000
,
0100
0000
0000
0000
,
0010
0000
0000
0000
,
0100
0000
0000
0000
,
0001
0000
0000
0000
,
1000
0000
0000
0000
,
0100
0100
0100
0000
,
1000
1000
1000
0000
,
0002
0000
0000
0000
0000
0000
0000
0003
0000
0000
0000
0000
0000
0000
0000
0000
,
0100
0000
0001
0000
,
0200
0000
0000
0000
0000
0000
0000
0300
0000
0000
0000
0000
0000
0000
0000
0000
,
0010
0000
1000
0000
,
0010
0000
0000
0000
,
0100
0000
0000
0000
,
0001
0000
0100
0000
,
0010
0000
1000
0000
,
0100
0100
0100
0000
,
0001
0001
0001
0000
,
0200
0000
0001
0300
,
2000
0000
0010
3000
,
0002
0000
0100
0003
,
0020
0000
1000
0030
,
0100
0100
0000
0000
,
0010
0010
0000
0000
,
0001
1000
0001
0000
,
1000
0001
1000
0000
,
0002
0000
0010
0003
,
0200
0000
1000
0300
,
0020
0000
0100
0030
,
2000
0000
0100
3000
,
0010
0000
0001
0001
,
0001
0000
1000
1000
,
2000
0000
0010
3010
,
0200
0000
0001
0301
,
0002
0000
0000
0003
,
2000
0000
3000
0000
,
0020
0000
0000
0030
,
0200
0000
0000
0000
0000
0300
0000
0000
,
0010
0100
0010
0000
,
1000
0001
1000
0000
,
0002
0000
0000
0000
,
0000
0000
0000
0000
,
0000
0000
0003
0000
;

//--------------- dance-single - T9N ----------------
#NOTES:
     dance-single:
     T9N:
     Easy:
     3:
     0,0,0,0,0:
0000
0000
0000
0000
,
0000
0000
0000
0000
,
0000
0000
0000
0000
,
0001
0001
0010
0010
,
0200
1000
0000
1000
,
0000
0010
0000
0310
,
0001
0001
0000
1000
,
0000
0010
0010
0000
,
0100
0100
0000
0001
,
0000
1000
1000
0000
,
0010
0010
0000
0100
,
0000
0000
0000
0000
0002
0000
0000
0003
0000
0000
0000
0000
0000
0000
0000
0000
,
0000
1000
0000
1000
,
0000
0010
0010
0010
,
0000
0100
0000
0001
,
0000
0100
0100
0100
,
0000
0010
0000
1000
,
0001
0000
0100
0000
,
0020
0000
0100
0030
,
0001
0000
0000
0010
,
0001
0010
0000
0100
,
1000
0100
0000
0010
,
0001
0001
0000
1000
,
0100
0100
0000
0010
,
0001
0000
0100
0000
,
0010
0010
0010
1000
,
0100
0010
0001
0001
,
1000
0100
0010
0010
,
0002
0000
0000
0000
0200
0000
0000
0303
0000
0000
0000
0000
0000
0000
0000
0000
,
0001
0000
0100
0000
,
0020
0000
0000
0000
2000
0000
0000
3030
0000
0000
0000
0000
0000
0000
0000
0000
,
0100
0000
0010
0100
,
0020
0000
0000
0130
,
2000
0000
0000
3001
,
0100
0010
0100
0010
,
1000
0001
1000
0001
,
1000
0100
1000
0100
,
0010
0001
0010
0001
,
0020
0000
0001
0031
,
0200
0000
0010
0310
,
2000
0000
0001
3001
,
0200
0000
0010
0310
,
0000
0001
0100
0001
,
0100
0010
0100
0001
,
1000
0100
1000
0100
,
2000
0010
0100
3010
,
1000
0001
0001
1000
,
0010
0010
0100
0100
,
0001
0010
0100
1000
,
0100
0010
0002
0010
,
0013
0001
0001
1000
,
1000
0010
0010
0100
,
0200
0001
0010
0301
,
2000
0010
0100
3010
,
0200
0000
0010
0010
,
0320
0000
0032
0003
,
2000
3020
0230
0302
,
0203
0000
0000
0300
,
0010
0100
0010
0100
,
0001
1000
0001
1000
,
0002
0000
0000
0000
,
0000
0000
0000
0000
,
0000
0000
0003
0000
;

//--------------- dance-single - T9N ----------------
#NOTES:
     dance-single:
     T9N:
     Medium:
     8:
     0,0,0,0,0:
0000
0000
0000
0000
,
0000
0000
0000
0000
,
0000
0000
0000
0000
,
0002
0100
0203
0010
,
0320
0000
0000
0000
1000
0000
0000
1000
0000
0000
0000
0000
0100
0000
0000
0100
,
0000
0000
0000
0000
1000
0000
0000
1000
0000
0000
0000
0000
0000
0000
0030
0000
,
0200
0000
0000
0000
0001
0000
0000
0301
0000
0000
0000
0000
2000
0000
0000
3010
,
0000
0000
0000
0000
0200
0000
0000
0302
0000
0000
0000
0000
0003
0000
0000
0000
,
0020
0000
0000
0000
0100
0000
0000
0130
0000
0000
0000
0000
2000
0000
0000
3001
,
0000
0000
0000
0000
0200
0000
0000
0320
0000
0000
0000
0000
0030
0000
0000
0000
,
2000
0000
0000
0000
0001
0000
0000
3001
0000
0000
0000
0000
0200
0000
0000
0310
,
0000
0000
0000
0000
0200
0000
0000
0310
0000
0000
0000
0000
0000
0000
0000
0000
,
0001
0000
0010
0001
0010
0000
0100
1000
,
0100
0000
0000
0000
0010
0000
0001
0000
0100
0000
0000
0100
0000
0000
0000
0000
,
0010
0000
1000
0010
1000
0000
0001
0100
,
0001
0000
0000
0000
1000
0000
0010
0000
0100
0000
0000
0001
0000
0000
0010
0000
,
0001
0000
0100
0001
0100
0000
0010
1000
,
0010
0000
0100
0001
0010
0000
0001
1000
,
0200
0000
0010
0000
0010
0300
0010
0001
,
0010
0000
0000
0000
0000
0000
0000
0000
0000
0000
0000
0000
0001
1000
0000
0000
,
0001
0010
0001
0000
0100
0001
0100
0000
,
0010
1000
0100
1000
0010
0000
0100
0000
,
0001
1000
0001
0000
1000
0010
1000
0000
,
0100
1000
0010
0100
0001
0000
0010
0001
,
0010
0000
0100
1000
0100
0000
0010
0001
,
1000
0000
0010
0000
1000
0010
0200
0000
,
0301
0000
0000
0000
0001
0000
0000
0010
0000
0010
0000
0000
0001
0000
0000
0000
,
1000
0000
0000
0000
0010
0000
0000
0100
0000
0100
0000
0000
0010
0000
0000
0000
,
2000
0000
0000
0000
0100
0000
0000
3100
0000
0000
0000
0000
0010
0000
0100
0000
,
0010
0000
0001
1000
0001
0000
1000
0010
,
0200
0000
0000
0000
0001
0000
0000
0301
0000
0000
0000
0000
1000
0000
0010
0000
,
1000
0000
0001
0100
0001
0000
1000
0100
,
0020
0000
0001
0000
0100
0000
0031
0010
,
0200
1000
0010
1300
,
0010
0100
0001
0000
1000
0010
0100
0000
,
0001
1000
0001
1000
0002
0000
0103
0000
,
1010
0000
0000
0000
1000
0000
0000
0001
0000
0001
0000
0000
0100
0000
0000
0000
,
1001
0000
0000
0000
0001
0000
0000
0100
0000
0100
0000
0000
0010
0000
0000
0000
,
0001
0100
0010
0000
0010
0100
0001
0010
,
0000
0100
2000
0000
0010
0000
3100
0000
,
0010
1000
0100
0000
0010
0001
1000
0020
,
0000
0100
0000
1000
0000
0100
0000
0030
,
0100
0101
0010
1010
,
0001
0000
0000
0100
0000
0000
0002
0000
0000
0000
0003
0000
0000
0000
0000
0000
,
1001
0000
0000
0000
1001
0000
0000
0100
0000
0010
0000
0000
0001
0000
0000
0000
,
1001
0000
0000
0000
1001
0000
0000
0010
0000
0100
0000
0000
1000
0000
0000
0000
,
0200
0000
0310
0001
0010
0000
0001
2000
,
0000
3010
0020
0000
0100
0000
0130
0000
,
0002
0000
1003
0010
0100
0000
0010
2000
,
0000
0100
0000
0010
0000
3100
0000
0000
,
1001
1000
0100
0010
,
0002
0000
0000
0000
0013
0000
0000
0000
0200
0000
0000
1000
0000
0000
0310
0000
,
0002
0000
0000
0000
0100
0000
0000
0010
0000
0010
0000
0000
0103
0000
0010
0000
,
2000
0000
0000
0000
0010
0000
0000
0100
0000
0100
0000
0000
3010
0000
0100
0000
,
0002
0000
0000
0000
2000
0003
0020
3000
,
0200
0030
0000
0000
0020
0000
0330
0000
,
2000
0000
0200
3000
0020
0300
0002
0030
,
0200
0000
0000
0000
0000
0003
0300
0000
,
0011
0000
0000
0000
1100
0000
0000
0001
0000
0001
0000
0000
0010
0000
0000
0000
,
1100
0000
0000
0000
0011
0000
0000
1000
0000
1000
0000
0000
0100
0000
0010
0000
,
0002
0000
0000
0000
,
0000
0000
0000
0000
,
0000
0000
0003
0000
;

//--------------- dance-single - T9N ----------------
#NOTES:
     dance-single:
     T9N:
     Hard:
     14:
     0,0,0,0,0:
0000
0000
0000
0000
,
0000
0000
0000
0000
,
0000
0000
0000
0000
,
0002
0000
2003
0000
3002
0100
0203
0000
,
0310
0000
1000
0000
0002
0000
0000
0103
0000
0010
1000
0000
2000
0000
0000
3100
,
0000
0000
1000
0000
0020
0000
0000
0230
0000
0000
0000
0000
0000
0000
0300
0000
,
0001
0000
0010
0000
2000
0000
0000
3010
0000
0001
0010
0000
0200
0000
0000
1300
,
0000
0000
0100
0000
0002
0000
0000
0203
0000
0000
0000
0000
1300
0000
0000
0000
,
1000
0000
0100
0000
2000
0000
0000
3010
0000
0100
0001
0000
0020
0000
0000
0031
,
0000
0100
0010
0000
0200
0000
0000
0302
0000
0000
0000
0000
0013
0000
0000
0000
,
0001
0000
1000
0000
0020
0000
0000
0130
0000
0001
0100
0000
0002
0000
0000
1003
,
0000
0000
0010
0000
0100
0001
1000
0020
0000
0000
0000
0030
0000
0000
0000
0000
,
1000
0000
0001
0100
0001
0000
1000
0100
0000
0000
0000
0010
0001
0000
0001
0010
,
0000
0000
0000
0001
0100
0000
0010
2000
0010
0000
3000
0010
1000
0000
0001
0000
,
0100
0000
0001
0000
0001
0000
0100
0000
0100
0000
0000
0000
1000
0000
0001
0100
,
0010
0000
0000
0000
0010
0000
1000
0001
0010
0100
0000
0010
0000
0000
0001
0000
,
1000
0010
1000
0000
0001
0000
0100
0000
0001
0000
0010
0000
0002
0000
0000
1003
,
0010
0000
0000
0000
0010
0000
0100
0000
0001
0000
0000
0000
1000
0000
0010
0100
,
0020
0000
1000
0000
0100
0000
1030
0100
,
0010
0001
0000
0100
0010
1000
0000
0001
0000
0100
0000
0001
0010
0002
0000
0000
,
0103
0000
0010
1000
0010
0000
0100
0001
0000
0001
0100
0010
1000
0000
1000
0001
,
0000
0000
0100
0000
0010
0000
0100
0020
0000
0000
1030
0001
0000
1000
0000
0001
,
0010
0000
0001
0000
0010
0000
0001
0100
0000
0000
0010
0000
1000
0000
0010
0000
,
0100
0000
0001
0000
0010
0000
0100
2000
0000
0000
3000
0000
0010
0000
0100
0001
,
0020
0000
0000
0000
0031
0000
0100
0000
2000
0000
0000
0000
3100
0000
0001
0020
,
0000
0000
0000
0000
0031
0000
0000
0000
0000
0000
0001
0100
0001
0100
0000
0000
,
0011
0000
0000
0000
0011
0000
0000
1000
0000
1000
0000
0010
1000
0000
0000
0000
,
1100
0000
0000
0000
1100
0000
0000
0010
0000
0010
0000
0100
0001
0000
0000
0000
,
0002
0000
0000
0000
0010
0000
0000
0103
0000
0000
0000
0000
0001
0000
1000
0001
,
0000
0000
0000
0000
0001
1000
0000
0010
0000
0000
1000
0010
0100
0000
0010
1000
,
0200
0000
0000
0000
0010
0000
0000
1300
0000
0000
0000
0000
1000
0000
0010
1000
,
0000
1000
0010
0000
0100
0000
0001
0100
0000
0100
0001
0000
1000
0010
1000
0020
,
1000
0000
0100
0030
1000
0000
0100
0010
,
1000
0000
0000
0000
0001
0000
0100
0010
0100
0000
0000
0000
0010
0000
1000
0000
,
0001
0000
0010
0000
0001
0000
0100
0001
0010
0001
1000
0000
0100
0000
0100
0000
,
1000
0000
0010
0000
0100
0000
0001
0010
0002
0000
0000
0000
0103
0000
0010
0000
,
1100
0000
0000
0000
1100
0000
0010
0100
0000
0001
0010
0001
0100
0000
0000
0000
,
0011
0000
0000
0000
0011
0000
0100
0001
0000
1000
0010
0100
0002
0000
0000
0000
,
0103
0000
0010
1000
0010
1000
0000
0001
0100
0000
0001
0000
0010
0000
0100
1000
,
0100
0000
0010
0000
0002
0000
1000
0000
0013
0100
0000
0010
0100
0000
0001
0000
,
1000
0000
0010
0100
0010
1000
0000
0002
0000
0000
0103
0000
0010
0000
2000
0000
,
0000
3002
1000
0203
0000
0320
0001
0030
,
0100
0010
1020
0000
0130
0001
0201
0000
,
0310
0000
0000
1000
0000
0000
0020
0000
0000
0000
0130
0001
0100
0000
0001
0000
,
1000
0000
0010
0100
0010
0000
0100
0001
0000
0010
0100
0010
0001
0000
0000
0000
,
1000
0010
0100
0000
0010
1000
0000
0010
0000
1000
0100
1000
0010
0000
0000
0000
,
1000
0000
0001
0100
0001
0010
0000
0200
0000
0000
1300
0000
0010
0000
0200
0000
,
0000
0000
0301
0010
0200
0000
0000
0000
0310
0000
0001
0000
1000
0000
0000
0000
,
0001
0000
0100
0001
0100
0010
0000
2000
0000
0000
3010
0000
0100
0000
0020
0000
,
0000
0000
0130
0000
0001
0000
0020
0000
0000
0031
1000
0000
0010
0100
0001
0010
,
0001
0000
2000
0010
3020
0100
0230
0001
,
0302
0000
1000
0000
2003
0000
0000
0000
3001
0000
0000
001M
0000
0000
01M0
0000
,
0011
0000
0000
0000
0011
0000
1000
0100
0000
0100
1000
0001
0010
0000
0001
0000
,
1100
0000
0000
0000
1100
0000
0010
0001
0000
0001
0010
0100
1000
0000
0000
0000
,
1002
0000
0200
0023
,
2300
0000
0230
3300
,
0020
0002
0230
0023
,
2300
0000
0000
0000
0000
0000
0000
0000
0000
0000
0000
0030
3000
0000
0000
0000
,
0101
0000
0000
0000
0101
0000
1000
0010
0000
0100
0001
0010
0001
0000
0000
0000
,
1000
0010
0100
0010
1000
0000
0001
0100
0000
0010
1000
0000
0001
0010
0100
1000
,
0002
0000
0000
0000
,
0000
0000
0000
0000
,
0000
0000
0003
0000
;
