#TITLE:水彩世界;
#SUBTITLE:;
#ARTIST:スリーズブーケ;
#TITLETRANSLIT:Suisai Sekai;
#SUBTITLETRANSLIT:;
#ARTISTTRANSLIT:Cerise Bouquet;
#GENRE:;
#CREDIT:;
#MUSIC:Suisai Sekai.ogg;
#BANNER:Suisai Sekai-BN.png;
#BACKGROUND:Suisai Sekai-BG.png;
#CDTITLE:cdtitle.png;
#SAMPLESTART:53.282;
#SAMPLELENGTH:12.000;
#SELECTABLE:YES;
#OFFSET:-0.454;
#BPMS:0.000=160.000;
#STOPS:168.500=0.188
,169.500=0.188
;
#BGCHANGES:-1.300=Suisai Sekai-BGA.avi=1.000=0=0=0=StretchNoLoop==CrossFade_Fastest==,
99999.000=-nosongbg-=1.000=0=0=0=StretchNoLoop====
;
#FGCHANGES:;

//--------------- dance-single - tomori ----------------
#NOTES:
     dance-single:
     tomori:
     Beginner:
     1:
     0,0,0,0,0:
0000
0000
0000
0000
,
0000
0000
0000
0000
,
0000
0000
0000
0000
,
0000
0000
0000
0000
,
0000
0000
0000
0000
,
0001
0000
0000
0000
,
0100
0000
0000
0000
,
0010
0000
0000
0000
,
1000
0000
0000
0000
,
0002
0000
0000
0000
,
0103
0000
0000
0000
,
0000
0000
0000
0000
,
0100
0000
0000
0000
,
0000
0000
0000
0000
,
0001
0000
0000
0000
,
0000
0000
0000
0000
,
0001
0000
0000
0000
,
0000
0000
0000
0000
,
1000
0000
0000
0000
,
0000
0000
0000
0000
,
1000
0000
0000
0000
,
0000
0000
0000
0000
,
0010
0000
0000
0000
,
0000
0000
0000
0000
,
0010
0000
0000
0000
,
0000
0000
0000
0000
,
2000
0000
0000
0000
,
3000
0000
0000
0000
,
0200
0000
0000
0000
,
0300
0000
0000
0000
,
0020
0000
0000
0000
,
0030
0000
0000
0000
,
0002
0000
0000
0000
,
0003
0000
0000
0000
,
0001
0000
1000
0000
,
0001
0000
0000
0000
,
1001
0000
0000
0000
,
0100
0000
0000
0000
,
1001
0000
0000
0000
,
0010
0000
0000
0000
,
0000
1000
1000
0000
,
0001
0001
0000
0000
,
0100
0010
0001
0000
,
2000
0000
0000
3000
,
0000
0000
0000
0100
,
0000
0000
0000
0002
,
0000
0000
0003
0010
,
0000
0100
0000
1000
,
1000
1000
0000
0010
,
0010
0010
0000
0100
,
0000
0100
0000
0001
,
0000
0001
0000
0220
,
0000
0000
0000
0000
,
0000
0000
0000
0000
0000
0330
0000
0000
,
0000
0000
0000
1000
,
0000
0001
0000
2002
,
0000
0000
0000
0000
,
0000
0000
0000
3003
,
0000
0000
0000
1000
,
0000
0001
0000
0200
,
0000
0000
0000
0000
0000
0010
0000
0000
,
0000
0000
0000
0000
,
0000
0000
0000
0300
;

//--------------- dance-single - tomori ----------------
#NOTES:
     dance-single:
     tomori:
     Easy:
     4:
     0,0,0,0,0:
0000
0000
0000
0000
,
0000
0000
0000
0000
,
0000
0000
0000
0000
,
0000
0000
0000
0000
,
0000
0000
0000
0000
,
0100
0000
0000
0000
,
0001
0000
0000
0000
,
2000
0000
0000
0000
,
3020
0000
0000
0000
,
0030
0000
0000
0000
,
0100
0000
0100
0000
,
0100
0000
0000
0000
,
0010
0000
0010
0000
,
0010
0000
0000
0000
,
1000
0000
1000
0000
,
1000
0000
0000
0000
,
0001
0000
0000
0001
0000
0000
0001
0000
,
0000
0000
0000
0000
,
2000
0000
0010
0000
,
3100
0000
0000
0000
,
0002
0000
0100
0000
,
0013
0000
0000
0000
,
0200
0000
0001
0000
,
1300
0000
0000
0000
,
0020
0000
0000
0100
,
0000
0130
0000
0000
0000
0000
0000
0000
,
0001
0000
0010
0000
,
0001
0000
0000
0000
,
1000
0000
0100
0000
,
1000
0000
0000
0000
,
0020
0000
0000
0130
0000
0000
0000
0000
,
0200
0000
0000
0301
0000
0000
0000
0000
,
0001
0000
0010
0000
,
0100
0000
1000
0000
,
0100
0000
0010
0000
,
0001
0000
0000
0000
,
1001
0000
0100
0010
,
0110
0000
1000
1000
,
1010
0000
0001
0001
,
0101
0000
0200
0310
,
0000
0010
1001
0000
,
0100
1001
0000
0000
,
2000
3000
0020
0030
0200
0300
0000
0000
,
0002
0010
0010
0013
,
0000
0200
1000
1300
,
0000
1000
0010
1000
,
0000
0001
0100
0001
,
0000
0010
0000
1100
,
0000
1000
0000
0011
,
0000
0001
0000
2000
,
0000
0100
0000
3020
,
0000
0100
0000
0032
,
0000
0000
0000
0010
,
0000
0100
0000
1003
,
0000
1000
0000
0001
,
0000
0001
0000
2002
,
0000
0000
0000
0000
,
0000
0000
0000
3003
,
0000
0010
0000
1000
,
0000
0001
0000
0200
,
0000
0000
0000
0000
0000
1000
0000
0000
,
0000
0000
0000
0000
,
0000
0000
0000
0300
;

//--------------- dance-single - tomori ----------------
#NOTES:
     dance-single:
     tomori:
     Medium:
     8:
     0,0,0,0,0:
0000
0000
0000
0000
,
0000
0000
0000
0000
,
0000
0000
0000
0000
,
0000
0000
0000
0000
,
0000
0000
0000
0000
,
0200
0001
0301
0000
,
0020
0000
1000
0000
0030
1000
0100
0000
,
0010
0000
0000
0000
0000
0001
0010
0000
,
0100
0000
0000
0000
,
2002
0000
0000
3003
,
1000
0100
1000
0000
0010
0000
0100
0000
,
0020
1030
1000
1000
,
0001
0100
0001
0000
0010
0000
0200
0000
,
0310
0001
0001
0001
,
0200
0000
0010
0310
,
0020
0000
1000
1030
,
0001
0000
0000
0100
0000
0000
0010
0000
,
2000
0000
3100
0000
,
0010
0000
0001
0000
0000
0001
0010
0000
,
0100
0000
1000
0000
0000
1000
0100
0000
,
0010
0000
0002
0000
0000
0100
0103
0000
,
0010
0000
0200
0000
0000
1000
1300
0000
,
0001
0010
0001
0000
0010
0000
0100
0000
,
1000
0100
0002
0103
,
2000
0000
0000
0001
0000
0000
0100
0000
,
0000
3001
0000
1000
0010
0100
0001
0000
,
0010
0000
0000
0100
1100
0000
1000
0000
,
0010
0000
0000
0100
0101
0000
0001
0000
,
0010
0000
0000
1000
1010
0000
0010
0000
,
0100
0000
0000
0010
0022
0030
0003
0000
,
1001
0000
0100
0100
0000
0000
0000
0000
,
0110
0000
0001
0001
0000
0000
0000
0000
,
2000
3100
0002
0013
,
1000
1100
0100
0110
,
0020
0000
0000
0000
0002
0000
0000
0033
,
0000
0020
2000
3030
,
1010
0000
0001
0100
0001
0000
0100
0000
,
0101
0000
1000
0010
1000
0000
0100
0000
,
1100
0000
0001
0010
0001
0000
0010
0000
,
0021
0230
2300
3002
,
0103
0110
0101
0010
,
0110
0000
1010
0000
1000
0001
1000
0000
,
0001
0001
0100
0100
0010
0010
0000
0000
,
2000
3200
0302
0023
,
1030
0100
1000
0000
0010
0000
0100
0000
,
0001
0010
0001
0000
0100
0000
0020
0000
,
1000
0100
1030
0200
,
0001
0010
0301
1000
,
1000
0010
1000
0000
0100
0000
0011
0000
,
0001
0010
0001
0000
0100
0000
2200
0000
,
3300
0202
0303
0022
,
0033
2020
3030
0100
,
0100
0001
0000
0001
0100
0000
0010
0000
,
0010
1000
0000
1000
0010
0000
0100
0000
,
1000
0100
0001
0020
,
0031
0200
0310
2000
,
3100
1000
0000
1000
0100
0000
0010
0000
,
0010
0001
0000
0001
0010
0000
0200
0000
,
1000
0010
0301
1002
,
0100
0020
0000
0033
,
0000
0002
0003
0200
0000
2000
0000
0000
,
0000
0000
0000
0000
,
0000
0000
0000
3300
;

//--------------- dance-single - tomori ----------------
#NOTES:
     dance-single:
     tomori:
     Hard:
     12:
     0.492656,0.640234,0.142841,0.775423,0.061218,338,324,14,76,4,0,0.492656,0.640234,0.142841,0.775423,0.061218,338,324,14,76,4,0:
0000
0000
0000
0000
,
0000
0000
0000
0000
,
0000
0000
0000
0000
,
0000
0000
0000
0000
,
0000
0000
0000
0000
,
2000
0010
3020
0000
,
0130
0000
0002
0000
0000
0013
0100
1000
,
0200
0000
0000
0000
0000
1300
0010
0100
,
0002
0000
0000
0000
,
0003
0000
0000
0000
0000
0000
0000
1000
,
0100
1000
0200
0000
1300
0010
0100
0010
,
0200
0000
0301
0000
0100
0000
0001
0100
,
0010
0100
0002
0000
1003
0010
0100
0001
,
0020
0000
0130
0000
1000
0000
0010
0100
,
0001
0010
0200
0000
0310
0001
1000
0010
,
0200
0000
0301
0000
1000
0100
1000
0000
,
0101
0000
0000
1010
0000
0000
0101
0000
,
0020
0000
0000
0000
0000
0000
0000
0000
0130
0000
0000
0100
1000
0000
0010
0000
,
0100
0010
2000
0000
3001
0010
0100
0010
,
0002
0000
0100
0000
0103
0000
0000
0000
0010
0000
0000
0010
1000
0000
1000
0000
,
0001
0100
0020
0000
0130
0010
1000
0001
,
0200
0000
0001
0000
0301
0000
0000
0000
0100
0000
0000
0100
0010
0000
0010
0000
,
1000
0100
2000
0000
3010
0001
0010
1000
,
0200
0000
0000
0000
0310
0000
0000
0000
0001
0000
0000
0001
1000
0000
1000
0000
,
0020
0000
0000
0230
0000
0000
0302
0000
,
0000
0000
0013
0000
0100
0000
1000
0000
0001
0100
0001
0000
1000
0000
0010
0000
,
0200
0000
0000
0010
2300
0000
0001
3100
,
0020
0000
0000
0100
0032
0000
1000
0013
,
0200
0000
0000
0010
2300
0000
0001
3010
,
0002
0000
0000
0103
0020
2030
3002
0203
,
0310
0100
0001
0020
0000
0000
0030
0000
,
0100
1000
0010
0200
0000
0000
0300
0000
,
2000
0000
0000
3001
0000
0000
0100
0000
0020
0000
0000
1030
0000
0000
0001
0000
,
0010
0100
0001
0100
0010
0001
0100
1000
,
0100
0001
0010
1000
0010
0001
1000
0010
,
0000
0000
0000
0000
0000
0000
0000
0000
0000
0000
0000
0000
2000
0000
0000
0000
0000
0000
0000
0000
0000
0000
0000
0000
3200
0000
0000
0000
0000
0000
0000
0000
0000
0300
0000
0000
0020
0000
0000
0000
0000
0000
0000
0000
0030
0000
0000
0000
,
0002
1003
0010
1000
0001
0100
0010
0100
,
0001
0010
0001
0100
0010
1000
0100
1000
,
0020
0000
0130
0001
2000
0000
3001
0010
,
0200
0000
0310
0001
1000
0010
0002
0000
,
0013
0000
1010
0000
2200
0300
3010
MM00
,
1001
0000
0022
0003
0130
10MM
0100
0010
,
0001
0101
0100
0110
0010
1020
0000
1030
,
0100
0010
0001
0100
0010
1000
1002
0000
,
0103
0010
1000
0100
1000
0010
0100
0010
,
1000
0000
0010
0000
0100
0000
0001
0000
0020
0000
0000
0000
0031
0000
0000
0100
,
0000
0000
1001
0000
1000
0000
0000
0010
0000
0000
0110
0000
0100
0000
0000
0001
,
0000
1000
2020
0030
3000
0000
0001
1000
,
0020
0030
0000
0000
0100
0000
0000
0000
0010
0000
0000
0000
1000
0000
0000
0000
0002
0003
0000
0000
0010
0000
0000
0000
0001
0000
0000
0000
0100
0000
0000
0000
,
2000
3000
0000
0000
0100
0000
0000
0000
0001
0000
0000
0000
0010
0000
0000
0000
2000
3000
0000
0000
0010
0000
0000
0000
0001
0000
0000
0000
1000
0000
0000
0000
,
0010
0100
0010
1000
0100
1000
0010
0100
,
0001
0010
0001
0000
0100
0000
0010
0000
1000
0100
1000
0000
0010
0000
0100
0000
,
0001
0020
0000
0031
1000
0100
2000
0000
,
3010
0200
0000
0301
1000
0010
1000
0100
,
0010
0002
0000
0103
0010
0100
0002
0000
,
1003
0100
2000
0000
3010
0100
0001
0010
,
0100
2000
0000
3001
0100
0001
0020
0000
,
0130
2000
0000
3001
0100
0010
2000
0000
,
3200
2300
3020
0032
,
0023
0230
0302
0023
,
0000
0001
0000
0100
0000
2000
0000
0000
,
0000
0000
0000
0000
,
0000
0000
0000
3030
;

//--------------- dance-single - tomori ----------------
#NOTES:
     dance-single:
     tomori:
     Challenge:
     15:
     0,0,0,0,0:
0000
0000
0000
0000
,
0000
0000
0000
0000
,
0000
0000
0000
0000
,
0000
0000
0000
0000
,
0000
0000
0000
0000
,
0002
0000
0000
0000
0200
0300
0000
0000
0020
0030
0000
0000
0103
0000
0010
0000
,
2000
0000
0020
0000
0000
3100
0031
0010
,
0200
0000
0000
0000
0000
1000
0310
0100
,
0002
0000
0000
0000
0000
0000
0000
0000
0000
0000
0000
0000
0000
0000
0000
0000
0000
0000
0000
0000
0000
0000
0000
0000
0000
0000
0000
0000
0000
0000
0000
0000
0000
0000
0000
0000
0000
0000
0000
0000
0000
0000
0000
0000
0000
0000
0000
0000
0000
0000
0000
0000
0000
0000
0000
0000
0000
0000
0000
0000
0000
0000
0000
0000
0000
0000
0000
0000
0000
0000
0000
0000
0000
0000
0000
0000
0000
0000
0000
0000
0000
0000
0000
0000
0000
0000
0000
0000
0000
0000
0000
0000
0000
0000
0000
0000
0000
0000
0000
0000
0000
0000
0000
0000
0000
0000
0000
0000
0000
0000
0000
0000
0000
0000
0000
0000
0000
0000
0000
0000
0000
0000
0000
0000
0000
0000
0000
0000
0000
0000
0000
0000
0000
0000
0000
0000
0000
0000
0000
0000
0000
0000
0000
0000
0000
0000
0000
0000
0000
0000
0000
0000
0000
0000
0000
0000
0000
0000
0000
0000
0000
0000
0000
0000
0000
0000
0000
0000
0000
0000
0000
0000
0000
0000
0000
0000
0000
0000
0000
0000
0000
0000
0000
0000
0000
0000
0000
0000
0000
0000
0000
0003
,
MMM1
0000
0000
0000
0000
0000
0000
0001
,
0010
0001
0100
0001
0020
0130
0020
0031
,
0100
0010
1000
0100
0000
0100
1000
0010
,
1000
0100
1000
0010
1000
0200
0301
0200
,
1300
0000
0000
0000
0000
0000
0000
0000
0000
0000
0000
0000
0000
0000
0000
0000
0000
0000
0000
0000
0000
0000
0000
0000
0010
0000
0000
0000
0000
0000
0000
0000
0000
0000
0000
0000
0000
0000
0000
0000
0000
0000
0000
0000
0000
0000
0000
0000
0100
0000
0000
0000
0000
0000
0000
0000
0000
0000
0000
0000
0000
0000
0000
0000
0000
0000
0000
0000
0000
0000
0000
0000
0001
0000
0000
0000
0000
0000
0000
0000
0000
0000
0000
0000
0000
0000
0000
0000
0000
0000
0000
0000
0000
0000
0000
0000
0000
0000
0000
0000
0000
0000
0000
0000
0000
0000
0000
0000
0000
0000
0000
0000
0000
0000
0000
0000
0000
0000
0000
0000
0001
0000
0000
0000
0000
0000
0000
0000
0000
0000
0000
0000
0000
0000
0000
0000
0000
0000
0000
0000
0000
0000
0000
0000
0200
0300
0000
0000
0000
0000
0000
0000
0000
0000
0000
0000
0000
0000
0000
0000
0000
0000
0000
0000
0000
0000
0000
0000
0020
0030
0000
0000
0000
0000
0000
0000
0000
0000
0000
0000
0000
0000
0000
0000
0000
0000
0000
0000
0000
0000
0000
0000
,
2000
0100
3100
0200
0010
0310
0020
0001
,
0034
0000
0003
0100
0000
0100
0001
0010
,
0002
0000
0103
0020
0000
1030
0400
1000
,
2300
0000
0000
0000
3010
0000
0000
0000
0010
0000
0000
0010
1000
0000
1000
0000
,
0001
0020
0100
0130
0010
0001
1000
0100
,
0020
0000
0100
0000
0130
0000
0000
0000
0100
1000
0000
1000
0010
0000
0100
0000
,
0001
1000
0100
1000
0001
0001
0100
0010
,
0100
0000
0001
0000
1001
0000
0000
0000
0100
1000
0000
1000
0001
0000
0100
0000
,
0020
1000
1030
0200
0001
0301
0100
1000
,
0020
0000
0000
0000
0130
0000
0000
0000
0100
0010
0000
0010
1000
0000
0100
0000
,
2010
3000
0010
0102
0003
0100
2100
3000
,
0010
0000
0012
0000
0103
0000
1000
0000
0100
1000
0010
0100
0002
0000
0010
0003
,
0101
1000
0200
0310
0012
0003
2000
3020
,
0130
0010
1000
0100
1100
1000
0010
0100
,
0102
0003
0100
0120
0030
0010
2010
3000
,
1001
0000
0000
1000
0002
0203
0320
2030
,
3101
0010
0100
2020
0000
3030
M0M0
0000
,
1010
0100
0010
0202
0000
0303
0M0M
0000
,
1000
0010
0010
0010
0100
0001
0001
0001
,
2020
3130
0202
0313
2020
3031
0202
1303
,
0100
1000
0010
0100
0001
0010
0001
0100
0010
1000
0100
1000
0100
0010
M002
0M00
,
00M0
0000
0000
0000
0000
0000
0000
0000
0000
0000
0000
0000
0000
0000
0000
0000
0000
0000
0000
0000
0000
0000
0000
0000
0003
0000
0000
0000
0000
0000
0000
0000
0000
0000
0000
0000
0000
0000
0000
0000
0000
0000
0000
0000
0000
0000
0000
0000
002M
0000
0000
0000
0000
0000
0000
0000
0000
0000
0000
0000
0000
0000
0000
0000
0000
0000
0000
0000
0000
0000
0000
0000
0030
0000
0000
0000
0000
0000
0000
0000
0000
0000
0000
0000
0000
0000
0000
0000
0000
0000
0000
0000
0000
0000
0000
0000
02M0
0000
0000
0000
0000
0000
0000
0000
0000
0000
0000
0000
0000
0000
0000
0000
0000
0000
0000
0000
0000
0000
0000
0000
0000
0000
0000
0000
0000
0000
0000
0000
0000
0000
0000
0000
0300
0000
0000
0000
0000
0000
0000
0000
0000
0000
0000
0000
2M00
0000
0000
0000
0000
0000
0000
0000
0000
0000
0000
0000
0000
0000
0000
0000
0000
0000
0000
0000
0000
0000
0000
0000
0000
0000
0000
0000
0000
0000
0000
0000
0000
0000
0000
0000
0000
0000
0000
0000
0000
0000
0000
0000
0000
0000
0000
3000
,
1010
0100
0010
0001
0101
0010
0100
0010
,
1100
0010
0100
0001
0011
0100
0010
1000
,
1010
0001
0100
0010
0110
1000
0010
0100
,
2002
0003
3201
0000
0020
1300
0132
0000
,
1003
0100
2020
3030
0202
0303
0010
0100
,
0022
0000
0033
0000
2200
0000
3300
0000
0020
0030
0002
0003
0200
0300
2000
3000
,
0100
0000
0101
0000
0110
0000
1010
0000
0110
0000
2002
0000
3000
0000
1003
0010
,
0100
0001
0010
0001
0100
0010
1000
0100
1000
0000
0001
0000
0201
0000
0310
0000
,
1000
0010
0210
0301
1000
0100
2100
3010
,
0100
0000
0001
0000
1M20
0000
0030
0000
01M2
0000
0003
0000
1100
0000
0000
1010
,
0000
0000
1001
0000
0011
0000
0000
0101
0000
0000
1001
0000
1010
0000
0000
0101
,
0000
0000
0000
0000
0000
0000
0000
0000
0000
0000
0000
0000
0000
0000
0000
0000
0000
0000
0000
0000
0000
0000
0000
0000
0110
0000
0000
0000
0000
0000
0000
0000
0000
0000
0000
0000
0000
0000
0000
0000
0000
0000
0000
0000
0000
0000
0000
0000
1001
0000
0000
0000
0000
0000
0000
0000
0000
0000
0000
0000
0000
0000
0000
0000
0000
0000
0000
0000
0000
0000
0000
0000
0100
0000
0000
0000
0000
0000
0000
0000
0000
0000
0000
0000
0000
0000
0000
0000
0000
0000
0000
0000
0000
0000
0000
0000
0010
0000
0000
0000
0000
0000
0000
0000
0000
0000
0000
0000
0000
0000
0000
0000
0000
0000
0000
0000
0000
0000
0000
0000
0001
0000
0000
0000
0000
0000
0000
0000
0000
0000
0000
0000
0100
0000
0000
0000
0000
0000
0000
0000
0000
0000
0000
0000
0002
0003
0000
0000
0000
0000
0000
0000
0000
0000
0000
0000
0000
0000
0000
0000
0000
0000
0000
0000
0000
0000
0000
0000
0100
0000
0000
0000
0000
0000
0000
0000
0000
0000
0000
0000
0010
0000
0000
0000
0000
0000
0000
0000
0000
0000
0000
0000
,
0200
0300
0000
0000
0000
0000
0000
0000
0000
0000
0000
0000
0000
0000
0000
0000
0000
0000
0000
0000
0000
0000
0000
0000
0010
0000
0000
0000
0000
0000
0000
0000
0000
0000
0000
0000
1000
0000
0000
0000
0000
0000
0000
0000
0000
0000
0000
0000
0020
0030
0000
0000
0000
0000
0000
0000
0000
0000
0000
0000
0000
0000
0000
0000
0000
0000
0000
0000
0000
0000
0000
0000
1000
0000
0000
0000
0000
0000
0000
0000
0000
0000
0000
0000
0100
0000
0000
0000
0000
0000
0000
0000
0000
0000
0000
0000
2000
3000
0000
0000
0000
0000
0000
0000
0000
0000
0000
0000
0000
0000
0000
0000
0000
0000
0000
0000
0000
0000
0000
0000
0010
0000
0000
0000
0000
0000
0000
0000
0000
0000
0000
0000
1000
0000
0000
0000
0000
0000
0000
0000
0000
0000
0000
0000
0200
0300
0000
0000
0000
0000
0000
0000
0000
0000
0000
0000
0000
0000
0000
0000
0000
0000
0000
0000
0000
0000
0000
0000
0010
0000
0000
0000
0000
0000
0000
0000
0000
0000
0000
0000
0001
0000
0000
0000
0000
0000
0000
0000
0000
0000
0000
0000
,
0200
0300
0000
0000
0000
0000
0000
0000
0000
0000
0000
0000
0000
0000
0000
0000
0000
0000
0000
0000
0000
0000
0000
0000
0001
0000
0000
0000
0000
0000
0000
0000
0000
0000
0000
0000
0100
0000
0000
0000
0000
0000
0000
0000
0000
0000
0000
0000
0020
0030
0000
0000
0000
0000
0000
0000
0000
0000
0000
0000
0000
0000
0000
0000
0000
0000
0000
0000
0000
0000
0000
0000
1000
0000
0000
0000
0000
0000
0000
0000
0000
0000
0000
0000
0010
0000
0000
0000
0000
0000
0000
0000
0000
0000
0000
0000
0200
0300
0000
0000
0000
0000
0000
0000
0000
0000
0000
0000
0000
0000
0000
0000
0000
0000
0000
0000
0000
0000
0000
0000
0010
0000
0000
0000
0000
0000
0000
0000
0000
0000
0000
0000
0000
0000
0000
0000
0000
0000
0000
0000
0000
0000
0000
0000
1000
0000
0000
0000
0000
0000
0000
0000
0000
0000
0000
0000
0000
0000
0000
0000
0000
0000
0000
0000
0000
0000
0000
0000
0100
0000
0000
0000
0000
0000
0000
0000
0000
0000
0000
0000
0000
0000
0000
0000
0000
0000
0000
0000
0000
0000
0000
0000
,
1000
0100
1000
0000
0010
0000
0100
0000
0001
0010
0001
0000
0100
0010
1000
0100
,
2000
0000
3101
0000
0001
0010
0100
1000
0100
0010
0001
0000
0200
0000
1300
0000
,
0100
0002
0000
0013
1000
0010
0002
0103
,
0010
2000
0000
3010
0001
0010
0200
0001
,
0301
1000
0010
0010
0100
0001
2001
3010
,
0102
0003
1200
0310
0100
0021
0131
0010
,
1000
0200
0000
0310
0001
0100
2000
3100
,
0002
0000
0013
0000
0000
0000
0100
0000
1000
0000
0100
0010
0002
0000
0103
0000
,
0200
0000
0000
0310
0010
0000
0100
0000
1000
0000
0001
0000
0020
0000
0031
0000
,
0200
0000
0310
0000
2000
0000
3100
0000
0010
0000
0001
0010
0200
0000
0000
0000
,
0000
0000
2000
3000
0000
0000
0020
0030
0000
0000
0002
0000
0000
0000
0000
0000
,
0000
0000
0000
0000
,
0000
0000
0000
0303
;
