#TITLE:スフォルツァート;
#SUBTITLE:;
#ARTIST:井川葵;
#TITLETRANSLIT:SFORZATO;
#SUBTITLETRANSLIT:;
#ARTISTTRANSLIT:Aoi Igawa;
#GENRE:;
#CREDIT:;
#MUSIC:SFORZATO.ogg;
#BANNER:SFORZATO-BN.png;
#BACKGROUND:SFORZATO-BG.png;
#CDTITLE:cdtitle.png;
#SAMPLESTART:65.403;
#SAMPLELENGTH:12.171;
#SELECTABLE:YES;
#OFFSET:0.426;
#BPMS:0.000=175.000
,144.000=87.500
,146.000=175.000
,150.000=87.500
,170.000=175.000
,242.000=87.500
,244.000=175.000
,246.000=350.000
,247.500=175.000
;
#STOPS:246.000=0.129
,246.750=0.129
;
#DISPLAYBPM:87.500:175.000;
#JACKET:SFORZATO-Jacket.png;
#BGCHANGES:;
#FGCHANGES:;

//--------------- dance-single - ----------------
#NOTES:
     dance-single:
     :
     Beginner:
     1:
     0,0,0,0,0:
0000
0000
0000
0000
,
0000
0000
0000
0000
,
0000
0000
0000
0000
,
0000
0000
0000
0000
,
0000
0000
0000
0000
,
0000
0000
0000
0000
,
0000
0000
0000
0000
,
0000
0000
0000
0000
,
0000
0000
0000
0000
,
1000
0000
0000
0000
,
0001
0000
0000
0000
,
1000
0000
0000
0000
,
0001
0000
0000
0000
,
0200
0000
0000
0000
,
0301
0000
0001
0000
,
0001
0000
0000
0000
,
0020
0000
0030
0000
,
0010
0000
0000
0000
,
0200
0000
0300
0000
,
0100
0000
0000
0000
,
2000
0000
3000
0000
,
1000
0000
0000
0000
,
0001
0000
0000
0000
,
0010
0000
0000
0000
,
0001
0000
0000
0000
,
0001
0000
0000
0000
,
0100
0000
0000
0000
,
0100
0000
0000
0000
,
0010
0000
0000
0000
,
0010
0000
0000
0000
,
1000
0000
0000
0000
,
1000
0000
0000
0000
,
0200
0000
0000
0000
,
0300
0000
0000
0000
,
0020
0000
0000
0000
,
0030
0000
0000
0000
,
1000
0000
0001
0000
,
0000
0000
2000
0000
,
0000
0000
0000
0000
0000
3000
0000
0000
,
0002
0000
0000
0003
,
0000
0000
0200
0000
,
0000
0020
0000
0000
,
0330
0000
1001
0000
,
0000
0000
1001
0000
,
0000
0000
1000
0000
,
0001
0000
1000
0000
,
1000
0000
0001
0000
,
0001
0000
2000
0000
,
3000
0000
0200
0000
,
0300
0000
0020
0000
,
0030
0000
0002
0000
,
0003
0000
0100
0000
,
0000
0000
0010
0000
,
0000
0000
1000
0000
,
1000
0000
1000
0000
,
0000
0000
0002
0000
,
0003
0000
0200
0000
,
0300
0000
0010
0000
,
0010
0000
0100
0000
,
0001
0000
0200
0000
,
0000
0000
0310
0000
,
2000
0000
0010
0000
,
0010
0000
0000
0000
,
0001
0000
0000
3000
0000
0000
0000
0000
,
0100
0000
0000
0000
,
0020
0000
0000
0000
,
0002
0000
0000
0000
,
0000
0000
0000
0000
,
0033
0000
0000
0000
,
0100
0000
1000
0000
,
0100
0000
0000
0000
0000
0000
0000
0010
,
0000
0000
0000
0002
0000
0000
0000
0000
,
0000
0000
0000
0000
,
0000
0000
0000
0000
,
0000
0000
0000
0000
0000
0000
0000
0003
;

//--------------- dance-single - ----------------
#NOTES:
     dance-single:
     :
     Easy:
     4:
     0,0,0,0,0:
0000
0000
0000
0000
,
0000
0000
0000
0000
,
0000
0000
0000
0000
,
0000
0000
0000
0000
,
0000
0000
0000
0000
,
0000
0000
0000
0000
,
0000
0000
0000
0000
,
0000
0000
0000
0000
,
0000
0000
0000
0000
,
1000
1000
1000
0000
,
0010
0010
0010
0000
,
0100
0100
0100
0000
,
0001
0001
0001
0000
,
2002
0000
0000
3003
,
0000
0010
0100
0000
,
0220
0000
0000
0000
,
0330
0000
0001
0100
,
0001
0000
1000
0010
,
1000
0000
0100
0000
,
0010
0000
0001
0000
,
0020
0000
0130
0000
,
2000
0000
3001
0000
,
0200
0000
0002
0000
,
0000
0000
0000
0000
0000
0303
0000
0000
,
0010
0000
0010
0000
,
0010
0001
0010
0000
,
0100
0000
0100
0000
,
0100
1000
0100
0000
,
1000
0000
0001
0000
,
1000
0000
0001
0000
,
0100
0000
0001
0000
,
0010
0000
0100
0000
,
1000
1000
1000
0000
,
0010
0010
0010
0000
,
0200
0000
0301
0000
,
0002
0000
0013
0000
,
0020
0030
0001
0100
,
0001
0000
2000
0000
,
0000
3200
0000
0000
,
0302
0000
0000
0203
,
0000
0000
2300
0000
,
3001
0002
0000
0103
,
0020
0000
1030
0000
,
0100
0100
0100
0000
,
0010
0001
0010
0000
,
0001
0100
0002
0003
,
1000
0100
2000
3000
,
0001
0000
1001
0000
,
1000
0000
1001
0000
,
0001
0000
0120
0000
,
0002
0000
0000
0033
1000
0000
0001
0000
,
1001
0000
0010
0000
,
1000
0100
0010
0000
,
0100
0000
0010
0001
,
0010
0000
0100
1000
,
0100
0000
0002
0000
,
0103
0000
2000
0000
,
3010
0000
0001
1000
,
0001
1000
0020
0000
,
0230
0000
0302
0000
,
0000
0000
1003
1000
,
2000
0000
0001
0000
,
3001
0000
0100
0001
,
0100
0000
0010
1000
,
0010
0000
1000
0000
,
0200
0000
0010
0000
,
0302
0000
0100
0000
,
0023
0000
1000
0000
,
1030
0010
1000
0000
,
0001
0100
0001
0000
,
1000
0000
1000
0000
0000
0001
0000
0001
,
0000
0000
0000
2020
0000
0000
0000
0000
,
0000
0000
0000
0000
,
0000
0000
0000
0000
,
0000
0000
0000
0000
,
3030
0000
0000
0000
;

//--------------- dance-single - ----------------
#NOTES:
     dance-single:
     :
     Medium:
     10:
     0,0,0,0,0:
0000
0000
0000
0000
,
0000
0000
0000
0000
,
0000
0000
0000
0000
,
0000
0000
0000
0000
,
0000
0000
0000
0000
,
0000
0000
0000
0000
,
0000
0000
0000
0000
,
0000
0000
0000
0000
,
0000
0000
0000
0000
,
1000
0100
1000
0000
1000
0000
1000
0000
,
0001
0010
0001
0000
0001
0000
0001
0000
,
0100
0010
0100
0000
0010
1000
0010
0000
,
0100
0001
0100
0000
0010
0100
0010
0000
,
1002
0100
1000
0103
,
2001
0000
0010
0000
0100
3100
0000
0102
,
0000
0000
0010
0000
0013
0100
1000
0000
,
1100
0000
1000
0001
0000
0001
0000
0000
,
0011
0000
0010
0100
0000
0100
0000
1000
,
0010
0000
0100
0001
0000
0010
0001
0000
,
0200
1000
0001
1300
,
0102
0000
0000
0010
0000
0103
0000
0000
,
2010
0000
0000
0001
0000
3100
0000
0100
,
0010
0000
0010
0100
0000
1000
0001
0000
,
0001
1000
0000
1001
0000
1001
0000
0000
,
0020
0100
0100
0130
,
1000
0100
1000
0100
0000
0100
0000
0010
,
0002
0000
0000
1000
0000
1000
0000
1003
,
0000
0001
0100
0001
0000
0020
0000
0000
,
0130
0000
1000
0100
0000
1000
0010
1000
,
0000
0001
1000
0001
0000
0100
0001
0100
,
0000
0001
0010
0001
0000
1000
0100
2000
,
0000
0000
0100
0000
0100
0000
3010
0100
,
0002
0000
0000
0000
0020
0000
0003
0000
0200
0030
0000
0000
2300
0000
3100
0000
,
0000
0100
1000
0000
0001
0100
0001
0200
,
0000
0000
0320
0000
2030
0000
3002
0013
,
0000
0010
0001
0000
0100
0000
0010
0000
,
2000
0000
0000
0000
0002
0000
0000
3003
1000
0000
0100
0000
0010
0000
0001
0000
,
1000
0100
0010
0001
0020
0000
0100
0130
,
0000
1000
2000
0000
0001
3001
0000
0100
,
0200
0000
0010
0310
0000
0001
0200
2300
,
3200
0301
0000
0000
0102
0000
0010
0023
,
0000
0000
0032
0000
1003
0200
0000
1000
,
2300
0000
0010
0010
3010
0000
0000
0000
,
0001
0100
0010
1000
0100
0000
1001
0000
,
0100
0001
0010
0000
0100
0000
1010
0000
,
0001
1000
0100
0000
0011
0000
0101
0000
,
1001
0000
0010
1000
0000
0001
0100
0002
,
0000
0103
1000
1100
,
0001
0101
1000
1010
,
0001
0000
0011
0000
0220
0000
0000
0330
,
2200
0000
0000
0000
0000
0000
3300
0000
0001
0000
0000
0001
0000
0000
0001
0000
,
0010
0100
1000
0000
1020
0000
0100
0000
,
0130
0010
0100
0000
0201
0000
0010
0000
,
0301
1000
0001
0000
2010
0000
0001
0000
,
3001
0010
0001
0000
0102
0000
0010
0000
,
0103
0001
0100
0000
1000
0000
0100
0000
,
0011
0011
0001
0010
,
1100
0000
1100
0000
0001
0100
0001
0000
,
1000
0010
1000
0000
0001
0100
0020
0000
,
1030
0010
0200
0000
0301
0000
1000
0001
,
0000
1000
0001
0000
1020
0000
2130
0000
,
3101
0000
0000
0000
0101
0000
0000
0000
0010
0000
0000
0010
0000
0000
0010
0000
,
0100
0000
1000
0100
0000
0001
0010
0000
,
1000
0100
1000
0000
0010
0000
0001
0000
,
0010
0000
0100
0010
0000
0100
0001
0000
,
0020
0100
0001
0130
,
1000
0100
1000
0000
0010
0100
0010
0000
,
0100
0001
0100
0000
0001
0010
0001
0000
,
0101
0000
0010
1000
0100
0000
0010
0001
,
0100
0000
1000
0100
0010
0001
0010
0000
,
1000
0001
1000
0001
0000
0110
0000
1001
,
0000
1000
0200
0002
0000
0000
0000
0000
,
0000
0000
0000
0000
,
0000
0000
0000
0000
,
0000
0000
0000
0000
,
0303
0000
0000
0000
;

//--------------- dance-single - ----------------
#NOTES:
     dance-single:
     :
     Hard:
     15:
     0,0,0,0,0:
0000
0000
0000
0000
,
0000
0000
0000
0000
,
0000
0000
0000
0000
,
0000
0000
0000
0000
,
0000
0000
0000
0000
,
0000
0000
0000
0000
,
0000
0000
0000
0000
,
0000
0000
0000
0000
,
0000
0000
0002
0000
,
1003
0100
0001
0100
1000
0100
0001
0100
,
1000
0010
0001
0010
1000
0010
0001
0010
,
1000
0000
1010
0000
0101
0001
0000
0020
,
0000
0000
1130
0000
2002
0000
0000
3003
,
1000
0100
1000
0100
0001
0100
0001
0100
,
1000
0000
0010
0000
0100
0000
0001
0000
0010
0100
1000
0000
0000
0000
0202
0000
,
0300
0000
0003
0010
0100
1000
0001
0100
0004
0040
0000
0000
0033
0000
0000
0000
,
1020
0000
0000
0000
0130
0000
1100
0000
0000
0000
1000
0000
0100
0000
0010
0001
,
0020
0000
0000
0000
0000
0000
0031
0100
0001
0000
0010
0000
0100
0000
1000
0100
,
2000
0000
3101
0001
0000
0001
0101
0000
,
2100
0000
0000
0001
3100
0010
1000
0100
1000
0100
0000
0000
0001
0100
0001
0100
,
0002
0000
0000
0000
0013
0000
0001
0100
0020
0000
0100
0000
0130
0000
1000
0010
,
0200
0000
0000
0000
0310
0000
0100
0010
2000
0000
0100
0000
3100
0000
0010
0001
,
0100
0000
0000
0000
1000
0100
1000
0100
2000
0000
0040
0000
0000
0000
0000
0000
,
3131
0101
0000
0110
0000
2200
3300
0000
,
M001
M001
M001
M001
,
0100
1000
0100
0010
0100
2000
0000
3100
,
0001
0000
0001
0010
0000
0010
0001
0200
,
0000
0320
2030
3200
0300
0004
0010
0003
,
0001
0000
0100
1000
0000
0100
0001
0010
,
0000
0010
0001
1000
0000
1000
0100
0200
,
0000
0010
0301
0002
0000
0100
1003
2000
,
0100
0000
3100
0010
0001
0000
1000
0100
0010
0000
0100
0010
0001
0000
0010
0000
,
2100
0000
3201
0000
0312
0000
1023
1000
,
0000
1000
1000
0000
0130
0001
0010
0002
,
1000
0000
0103
0020
0100
0000
1030
2100
,
0000
0000
0001
0000
3001
0000
0000
0000
0101
0000
0000
0010
0100
0000
0010
0000
,
2000
0000
0000
0000
3200
0000
0000
0000
0310
0001
0010
0000
0100
1000
0100
0000
,
0001
0010
0001
0000
1000
0100
1000
0000
0002
0000
0000
0013
0100
0010
0001
0000
,
1000
0000
0010
0000
0002
0000
0013
0000
0200
0000
0301
0000
0000
0000
0001
0100
,
2000
0000
0000
3100
0010
0100
0001
0000
0000
0000
2000
0000
3200
0000
1000
0000
,
0010
0000
0301
0000
0000
0000
0000
0000
0020
0000
0000
0130
0001
1000
0010
0100
,
0010
0000
0000
0000
0200
0000
0000
0301
1000
0010
0100
0100
0001
0000
0010
0000
,
2000
0000
0000
0000
0020
0000
0000
0000
3131
0000
0001
0100
0001
0000
1010
0000
,
1000
0010
1000
0000
0100
0000
0010
0000
0012
0000
0000
0000
0103
0000
0010
0000
,
1000
1100
0000
0101
0010
0100
0010
0001
,
0020
0130
2000
3100
1001
0000
1010
0000
,
1000
0100
1000
0000
0010
0000
0001
0000
0010
0000
0100
0000
0001
0000
1000
0000
,
0100
0000
0010
0001
0010
0000
0100
0000
2020
0000
0000
0030
3022
0000
0000
0030
,
0223
0000
0000
0300
0232
0000
0000
0300
2203
0000
0000
3000
2302
0000
0000
0000
,
3113
0000
1000
0001
0100
0000
1010
0000
0022
0000
0000
0000
0000
0000
0000
0000
,
2233
0000
0000
0300
0200
0000
0310
0100
3010
0000
0000
0101
0000
0000
1100
0000
,
0011
0000
1000
0100
0010
0004
0000
0000
2023
0000
0000
0030
3010
0000
0001
0000
,
0100
0000
0010
0000
1000
0000
0100
0010
0100
0000
0000
1000
0001
0000
0000
0100
,
0010
0000
0100
0000
0100
0000
0001
0010
0002
0000
0000
0000
0010
0000
0013
0000
,
2000
0000
3200
0000
0320
0000
0032
0000
4003
0000
0000
0000
3101
0000
0000
0010
,
0100
0000
0010
0000
1000
0000
0001
0000
0220
0030
0300
0000
2200
0300
3000
0000
,
0202
0003
0300
0000
0220
0300
0030
0000
1000
0000
0100
0000
0100
0000
0001
0000
,
0100
0100
2000
0000
3001
1000
0010
0100
,
0001
0010
0001
0010
0100
1000
0100
1000
0002
0000
0013
0000
2002
0000
0000
0000
,
0000
0000
3003
0000
1010
1000
1000
0101
,
0001
0000
0001
0000
0100
0010
0100
0010
0200
0000
0000
0000
0020
0000
0000
0330
,
0001
1000
0000
0001
1000
0000
0001
0100
0010
0000
0000
0010
0000
0000
0010
0100
,
0001
0000
1000
0000
0100
0000
0010
0001
0100
0000
0010
0000
0100
0000
0001
1000
,
0100
0000
0001
0000
0100
0000
1000
0010
0100
0000
0001
0000
0010
0000
0100
0010
,
0002
0000
0103
0110
0000
1010
0101
0000
,
0001
0010
0000
0010
0100
0000
0100
1000
0000
1000
0100
0000
0010
0000
0001
0010
,
0001
0000
0100
0000
0100
0000
0010
1000
0010
0000
0001
0000
0001
0000
0100
0010
,
0100
0000
1000
0000
1000
0000
0010
0100
0010
0000
0001
0000
0001
0000
1000
0010
,
1000
0000
0101
0020
0000
0130
0001
1000
,
0100
0000
0100
0000
1000
0000
1000
0000
0001
0010
0001
0010
0001
0100
0001
0100
,
0001
0010
0100
1000
0000
0101
0000
0011
,
0000
0000
1000
0100
1000
0000
0202
0000
0000
0000
0000
0000
0000
0000
0000
0000
,
0000
0000
0000
0000
,
0000
0000
0000
0000
,
0000
0000
0000
0000
,
0303
0000
0000
0000
;

//--------------- dance-single - ----------------
#NOTES:
     dance-single:
     :
     Challenge:
     17:
     0,0,0,0,0:
0000
0000
0000
0000
,
0000
0000
0000
0000
,
0000
0000
0000
0000
,
0000
0000
0000
0000
,
0000
0000
0000
0000
,
0000
0000
0000
0000
,
0000
0000
0000
0000
,
0000
0000
0000
0000
,
0000
0000
0000
0000
0000
0000
0000
0000
2000
0000
0000
0000
0000
0000
3001
0100
,
0001
0000
0010
0000
1000
0000
0010
0000
0001
0000
0100
0000
0001
0000
0100
0001
,
1000
0000
0100
0000
0001
0000
0100
0000
1000
0000
0100
0000
1000
0000
0010
0100
,
0001
0100
0011
0001
1000
0010
1100
1000
,
0001
0000
0100
0000
1010
0000
0100
0000
0010
0000
1000
0000
0101
0000
0010
0001
,
0011
0010
0110
0100
1100
1000
1001
0001
,
0101
0000
0101
0000
1010
0000
1010
0000
0001
0100
0020
0000
0000
0000
0132
0000
,
1003
0100
1000
0100
0010
0001
0010
0001
0010
0100
1000
0200
2000
0000
0000
3300
,
1001
0000
0001
0000
010M
0000
0010
1000
0100
0000
0100
0000
M010
0000
0001
0100
,
0010
0000
0010
0000
10M0
0000
0001
1000
0100
0000
0100
0000
0M10
0000
0001
0100
,
0001
0100
0000
0010
1010
0000
1000
0100
1000
0010
0000
0100
0101
0000
0001
0100
,
0020
0000
1030
0100
0100
0001
0010
0010
1000
0100
2000
0000
3020
0230
0302
0023
,
0032
0000
0100
0000
0100
0000
0103
0001
0020
0000
0001
0000
0001
0000
0031
0010
,
0200
0000
0010
0000
0010
0000
0310
0001
2000
0000
0100
0000
0100
0000
3010
1000
,
0102
0000
0000
0000
0013
0100
1000
0100
0010
0000
0101
0000
0100
0000
1010
0000
,
0101
0010
0100
1010
0000
1010
0101
0000
,
0002
0000
0013
0002
0000
0203
0000
0320
,
0000
1030
0100
0001
0000
0200
0000
1300
,
0020
0000
0031
0020
0000
0100
0000
0032
,
0000
0103
0001
0010
0000
0200
0010
0000
,
0310
0000
1000
0200
0000
1300
0010
0020
,
0000
0130
0001
0001
0100
0010
1000
2000
,
0000
3010
0001
0020
0000
0130
0001
2000
,
0100
0000
3100
1000
0010
0000
0010
0100
0010
1000
0001
0100
0001
0000
1000
0000
,
2200
0000
3310
0001
0102
0000
0013
0120
,
0000
0000
0131
0000
1100
0000
1000
0000
0100
0000
1000
0000
0001
0000
0001
0100
,
0220
0000
0331
0010
0102
0000
0103
2010
,
0000
0000
3100
0000
0102
0000
0010
0000
0013
0000
0000
0100
0010
0000
1000
0000
,
0002
0000
0020
0000
1133
M1M1
11MM
M1M1
,
1000
0000
0000
0001
0000
0000
0100
0000
0000
0010
0000
0000
1M0M
0000
0010
0M0M
1000
0000
0M1M
0000
1000
0M0M
0010
0000
2M0M
0000
0000
0000
0000
0000
0000
0000
0000
3001
0000
0000
0100
0000
0000
0010
0000
0000
0200
0000
0000
0000
0000
0000
,
0001
0000
0301
0000
1020
0000
0100
0000
0001
0000
0130
0010
0100
0000
0010
0100
,
0002
0000
0000
1003
0100
1000
0020
0000
1000
0000
1030
0000
0201
0000
0010
0000
,
1000
0000
0020
0000
0000
0000
0330
0000
0002
0000
0000
0103
0010
0010
0001
0100
,
0100
0000
0010
0000
2001
0000
0000
3010
0100
0100
1000
0010
0010
0000
1100
0000
,
0001
0000
0100
0010
0000
1000
0001
0000
0010
0000
1000
0100
1000
0010
0100
0001
1000
0000
0000
0000
0001
0000
0100
0000
0001
0000
0000
0000
1000
0000
0000
0000
,
0010
0100
0010
0000
11MM
0000
MM11
0000
11MM
0000
1000
0100
1000
0000
0100
0000
,
0011
0000
0001
0100
0001
0000
0100
0000
1010
0000
1000
0010
1000
0000
0010
0000
,
0101
0000
0001
0010
0001
0000
0010
0000
0001
0100
0010
0000
2001
0000
3010
0000
,
0010
1000
0100
0000
1002
0000
0103
0000
0210
0000
0001
0000
0310
0000
0010
1000
,
1002
0000
0000
0000
0113
0000
1000
0010
2000
3000
0100
0000
0021
0030
0001
0100
,
0002
0003
0010
0000
1200
0300
0001
0100
0020
0030
1000
0000
0012
0003
1000
0010
,
0200
0300
0001
0100
0020
0030
0100
0000
0201
0000
0020
0000
2000
0300
0002
0030
,
3113
0000
0100
0010
0101
0000
0010
0100
1010
0000
0010
1000
0000
1000
0001
0000
,
0001
0000
0000
1000
0000
0000
0010
0000
0000
0100
0000
0000
0001
0000
0010
0000
0001
0000
0040
0000
0000
0000
0000
0000
0132
0000
0000
0000
0000
0000
0100
0000
0000
0000
0000
0000
0013
0000
0000
0000
0000
0000
1000
0000
0000
0100
0000
0000
,
2000
0000
0001
0000
3010
0000
0100
0010
0001
0000
0010
0100
1000
0000
0100
0000
,
0010
0001
0010
0000
0100
1000
0100
0000
0001
0010
0001
0000
1000
0100
1000
0000
,
1001
0000
0011
0000
1001
0000
1100
0000
0120
0000
0000
0000
0130
0000
1000
0001
,
0010
0000
0100
1000
0001
0000
0100
0000
2010
0000
3010
0000
0102
0000
0103
0000
,
1020
1030
0201
0301
2020
3130
0202
0313
,
2200
3310
0022
0133
1100
0110
0011
1001
,
1000
0000
0000
0100
0000
0000
0010
0000
0000
0001
0000
0000
0010
0000
0001
0000
0010
0000
0001
0000
0010
0000
0001
0000
0020
0000
0000
0000
0000
0000
0130
0000
0000
0000
0000
0000
2020
0000
0000
0000
0000
0000
0000
0000
0000
0000
0000
0000
,
0202
0000
3030
0000
0000
0000
0313
1000
0010
0000
1100
0000
1000
0000
0001
0100
,
0010
0000
0011
0000
0100
0001
0010
0100
2001
0000
0000
3000
1002
0000
0020
0003
,
0130
0100
0000
0010
0010
0001
1000
0100
0011
0000
0000
1100
0000
0000
0010
1000
,
0101
0000
0010
0000
1000
0000
0001
0100
0010
0000
1000
0000
1100
0000
0100
1000
,
0010
0000
0100
0000
0011
0000
0010
0001
0100
0000
0010
0000
1010
0000
0100
0010
,
0002
0000
0000
0000
1003
0100
0000
0100
1000
0000
0010
0000
0100
0000
0010
1000
,
0010
0100
0000
0001
0010
0100
1000
0010
1000
0001
0100
0010
1000
0100
0010
0001
,
0020
0000
0001
0000
0031
0000
1000
0010
2000
0000
0100
0000
3100
0000
0010
0001
,
0200
0000
0010
0000
0310
0000
1000
0100
0002
0000
0100
0000
0103
0000
1000
0010
,
0201
0000
0000
0000
0301
0010
0001
0010
0001
0000
1000
0000
1100
0000
0010
0000
,
0100
0000
0000
0000
0000
0000
0011
0000
0000
0000
0000
0000
0001
0000
0000
0000
0000
0000
1000
0000
0000
0010
0000
0000
0100
0000
0000
0001
0000
0000
0010
0000
0000
0001
0000
0000
0010
0000
0000
0100
0000
0000
1000
0000
0100
0000
1000
0000
,
0200
0300
2200
3300
0002
0003
0202
0000
0303
0000
0220
0000
0330
0000
2002
0000
,
3003
0000
0100
0001
1000
0000
2002
0000
0000
0000
0000
0000
0000
0000
0000
0000
,
0000
0000
0000
0000
,
0000
0000
0000
0000
,
0000
0000
0000
0000
0000
0000
0000
0000
0000
0000
0000
0000
0000
0000
0000
3003
;
