#TITLE:Public Style;
#SUBTITLE:;
#ARTIST:麻布麻衣;
#TITLETRANSLIT:;
#SUBTITLETRANSLIT:;
#ARTISTTRANSLIT:Mai Azabu;
#MUSIC:Public Style.ogg;
#BANNER:Public Style-BN.png;
#BACKGROUND:Public Style-BG.png;
#LYRICSPATH:;
#CDTITLE:cdtitle.png;
#SAMPLESTART:53.835000;
#SAMPLELENGTH:9.846000;
#OFFSET:0.242;
#BPMS:0.000000=195.000000;
#STOPS:240.000000=0.153846,
240.500000=0.153846,
241.000000=0.153846,
241.500000=0.153846,
242.000000=0.153846,
242.500000=0.153846,
243.000000=0.153846,
243.500000=0.153846,
340.000000=0.307692,
341.000000=0.307692,
342.000000=0.153846,
342.500000=0.153846,
343.000000=0.153846,
343.500000=0.153846,
412.000000=0.153846,
412.500000=0.153846,
413.000000=0.153846,
413.500000=0.153846,
414.000000=0.153846,
414.500000=0.153846,
417.000000=0.153846,
417.500000=0.153846,
418.000000=0.153846,
418.500000=0.153846,
419.000000=0.153846,
419.500000=0.153846,
420.000000=0.153846,
420.500000=0.153846
;
#TIMESIGNATURES:;
#BGCHANGES:0.875=Public Style-BGA.mp4=1.000000=0=0=0=StretchNoLoop==CrossFade_Fastest==,
99999=-nosongbg-=1.000000=0=0=0=StretchNoLoop====
;
#FGCHANGES:;
#ATTACKS:;
#SPEEDS:148.000000=0.800000=4.000000=0,
152.000000=0.810000=0.000000=0,
153.000000=0.820000=0.000000=0,
154.000000=0.830000=0.000000=0,
155.000000=0.840000=0.000000=0,
156.000000=0.850000=0.000000=0,
156.500000=0.855000=0.000000=0,
157.000000=0.860000=0.000000=0,
157.500000=0.865000=0.000000=0,
158.000000=0.870000=0.000000=0,
158.500000=0.875000=0.000000=0,
159.000000=0.880000=0.000000=0,
159.500000=0.885000=0.000000=0,
160.000000=0.890000=0.000000=0,
160.250000=0.891000=0.000000=0,
160.500000=0.892000=0.000000=0,
160.750000=0.893000=0.000000=0,
161.000000=0.894000=0.000000=0,
161.250000=0.895000=0.000000=0,
161.500000=0.896000=0.000000=0,
161.750000=0.897000=0.000000=0,
162.000000=0.898000=0.000000=0,
162.250000=0.899000=0.000000=0,
162.500000=0.900000=0.000000=0,
162.750000=0.901000=0.000000=0,
163.000000=0.902000=0.000000=0,
163.250000=0.903000=0.000000=0,
163.500000=0.904000=0.000000=0,
163.750000=0.905000=0.000000=0,
164.000000=0.910000=0.000000=0,
164.666667=0.920000=0.000000=0,
165.333333=0.930000=0.000000=0,
166.000000=0.940000=0.000000=0,
166.666667=0.950000=0.000000=0,
167.333333=0.960000=0.000000=0,
168.000000=0.970000=0.000000=0,
168.666667=0.980000=0.000000=0,
169.333333=0.990000=0.000000=0,
170.000000=1.000000=4.000000=0,
240.000000=0.975000=0.000000=0,
240.500000=0.950000=0.000000=0,
241.000000=0.925000=0.000000=0,
241.500000=0.900000=0.000000=0,
242.000000=0.875000=0.000000=0,
242.500000=0.850000=0.000000=0,
243.000000=0.825000=0.000000=0,
243.500000=0.800000=1.000000=0,
244.000000=1.000000=8.000000=0,
284.000000=0.900000=4.000000=0,
308.000000=1.000000=4.000000=0,
311.500000=0.950000=0.000000=0,
312.500000=0.900000=0.000000=0,
313.500000=0.850000=0.000000=0,
314.000000=0.800000=0.000000=0,
344.000000=1.000000=4.000000=0
;
#SCROLLS:;

//---------------dance-single - ---------------
#NOTES:
     dance-single:
     :
     Hard:
     15:
     0,0,0,0,0:
// measure 0
0000
0000
0000
0000
,  // measure 1
0000
0000
0000
0000
,  // measure 2
0000
0000
0000
0000
,  // measure 3
0000
0000
0000
0000
,  // measure 4
0000
0000
0000
0000
,  // measure 5
0002
0000
0203
0000
0310
1000
0010
0000
,  // measure 6
2000
0000
3020
0000
0130
0001
0100
0000
,  // measure 7
1100
0000
0101
0000
,  // measure 8
1010
0000
0000
0000
0000
0000
0000
0000
0000
0000
0000
0000
0000
0000
0000
0000
0000
0000
0000
0000
0000
0000
0000
0000
0000
0000
0000
0000
0000
0000
0000
0000
0000
0000
0000
0000
0000
0000
0000
0000
0000
0000
0000
0000
0000
0000
0000
0000
0011
0000
0000
0000
0000
0000
0000
0000
0000
0000
0000
0000
0000
0000
0000
0000
0000
0000
0000
0000
0000
0000
0000
0000
0000
0000
0000
0000
0000
0000
0000
0000
0000
0000
0000
0000
0000
0000
0000
0000
0000
0000
0000
0000
0000
0000
0000
0000
1001
0000
0000
0000
0000
0000
0000
0000
0000
0000
0000
0000
0000
0000
0000
0000
0000
0000
0000
0000
0000
0000
0000
0000
0000
0000
0000
0000
0000
0000
0000
0000
0000
0000
0000
0000
0000
0000
0000
0000
0000
0000
0000
0000
0000
0000
0000
0000
0120
0030
0000
0000
0000
0000
0000
0000
0000
0000
0000
0000
0000
0000
0000
0000
0000
0000
0000
0000
0000
0000
0000
0000
0000
0000
0000
0000
0000
0000
0000
0000
0000
0000
0000
0000
0000
0000
0000
0000
0000
0000
0000
0000
0000
0000
0000
0000
,  // measure 9
0101
0001
1000
0000
1000
0010
0100
0011
,  // measure 10
0000
0110
0000
2100
0000
3001
0100
0001
,  // measure 11
1000
0100
0010
0000
0010
0001
0100
1010
,  // measure 12
0000
0101
0000
2100
0000
3010
0010
0100
,  // measure 13
0100
0001
1000
0000
1000
0010
0001
1010
,  // measure 14
0000
0110
0000
0102
0000
0103
0100
0100
,  // measure 15
0001
1000
0001
0000
0001
0100
0010
1010
,  // measure 16
0000
0000
1100
0000
0000
0000
1001
0000
0000
0000
0010
0100
0010
0000
0010
0000
,  // measure 17
0000
1010
0000
0011
0000
1001
0100
1001
,  // measure 18
0010
0100
0001
0000
0001
0000
1000
0010
,  // measure 19
0100
0000
0010
0000
1000
0000
1000
0000
0000
0000
0010
1000
0010
0000
0100
0000
,  // measure 20
0001
0010
0001
0100
0010
0010
1000
1000
,  // measure 21
0200
0000
0000
0000
1300
0000
0020
0000
0000
0000
0130
0001
0100
0000
0001
0000
,  // measure 22
0010
0001
0100
0000
0100
0000
0010
0010
,  // measure 23
1000
0001
1000
0001
0000
0001
0100
0100
,  // measure 24
0020
0000
1030
0000
1000
0100
0000
0012
,  // measure 25
0000
0103
0010
0100
0001
1000
0010
0000
,  // measure 26
1000
0100
1000
0100
1000
1000
0100
0100
,  // measure 27
0010
0001
2000
0000
3200
0000
0300
0000
,  // measure 28
1000
0100
0001
0100
1000
0010
0001
0010
,  // measure 29
1000
0010
0100
0002
0000
0103
0100
0000
,  // measure 30
0001
0001
0010
0010
0001
0010
0001
0010
,  // measure 31
0100
1000
0002
0000
0023
0000
0030
0000
,  // measure 32
0110
1000
0001
0120
0000
0130
0010
0200
,  // measure 33
0000
0000
0010
0000
0010
0000
0010
0000
0310
0000
0010
0100
0001
0000
1000
0000
,  // measure 34
0002
0000
0103
0020
0000
1030
0200
0000
,  // measure 35
2300
0000
3010
0200
0000
0300
0001
0100
,  // measure 36
0001
0010
1000
0100
,  // measure 37
0002
0000
0000
0000
4003
0000
0000
3000
,  // measure 38
1100
1100
0101
0101
,  // measure 39
0001
0001
0100
0100
0010
0010
1000
1000
,  // measure 40
0001
0010
0001
0000
1000
0100
1000
0000
0010
0001
0010
0000
0100
1000
0100
0000
,  // measure 41
0011
0000
0100
0000
0010
0000
1100
0000
0010
0000
0100
0000
,  // measure 42
0101
0000
0110
0000
1010
0000
2002
0000
0000
0000
0000
0000
,  // measure 43
30M3
0M00
00M0
0M00
0MM0
0000
0000
0000
,  // measure 44
1002
0000
0203
0000
0310
0100
1000
0100
,  // measure 45
0010
0010
1000
1000
0000
0000
1000
0010
,  // measure 46
0100
0002
0000
0023
0000
0130
1000
0010
,  // measure 47
0110
0110
1001
1001
,  // measure 48
2010
0000
3002
0000
0103
0001
1000
0010
,  // measure 49
0100
0100
0001
0001
0000
0000
1000
0100
,  // measure 50
0001
0200
0000
2300
0000
3010
0100
0001
,  // measure 51
1100
1010
0101
0011
,  // measure 52
1000
0100
1000
0010
0100
0010
1000
1000
,  // measure 53
0100
0010
0200
0000
1300
0000
0010
0100
,  // measure 54
0010
1000
0001
0000
1001
0000
1000
0010
,  // measure 55
0100
0100
0001
0100
0010
0010
1000
0100
,  // measure 56
0040
0031
0010
0001
0010
0100
0010
0001
,  // measure 57
0001
0100
0020
0000
0032
0000
0013
0100
,  // measure 58
0010
0000
1000
0010
0100
0000
0001
1000
,  // measure 59
0020
0130
0002
0013
0200
1300
0020
0130
,  // measure 60
1001
1100
1001
0011
1010
1100
0102
0M03
,  // measure 61
1000
0100
0010
0001
0100
0010
1000
0010
,  // measure 62
0100
0001
0010
0100
2000
3002
0203
0320
,  // measure 63
1030
0100
1000
0010
0100
0000
0100
0010
,  // measure 64
0000
0010
0100
0001
0010
0001
0001
0100
,  // measure 65
0010
1000
0010
0100
0000
0100
0001
0010
,  // measure 66
0001
1000
0010
0100
0010
1000
0001
0001
,  // measure 67
0100
0001
0010
0001
0100
0010
1000
0010
,  // measure 68
0100
0010
0100
0020
0000
0000
1030
0001
1000
0002
0000
0000
,  // measure 69
0103
0010
0100
0000
0000
0000
0001
0010
0001
0000
0000
0000
1000
0100
1000
0000
,  // measure 70
0000
0000
0010
0100
0010
0000
0100
0000
0002
0000
1000
0000
2003
0000
0001
3000
,  // measure 71
1001
0000
0000
0000
0000
0000
0000
0000
0000
0000
0000
0000
0000
0000
0000
0000
0000
0000
0100
0000
0000
0001
0000
0000
0100
0000
0000
0000
0000
0000
0000
0000
0010
0000
0000
0000
0000
0000
0000
0000
1000
0000
0000
0000
0000
0000
0000
0000
,  // measure 72
1000
0000
0010
0000
0010
0000
0100
0000
0100
0000
0001
0000
,  // measure 73
0002
0000
0000
0000
0000
0000
1003
0100
2000
0000
0000
0000
3010
0000
0200
0000
,  // measure 74
0000
0301
0020
0031
0200
0310
2000
3100
,  // measure 75
1100
1100
0101
0101
,  // measure 76
0011
0011
1010
1010
,  // measure 77
1000
0100
0010
0001
1000
0100
0010
0001
,  // measure 78
0000
0001
0000
0001
0001
0000
0000
0000
,  // measure 79
2000
0000
3000
0010
0020
0000
0030
0100
,  // measure 80
0200
0000
0300
0001
0002
0000
0003
0010
,  // measure 81
0002
0000
0003
0100
0020
0000
0030
1000
,  // measure 82
0200
0000
0300
0100
2000
0000
300M
0000
,  // measure 83
0001
0000
0001
0100
0010
0000
0010
1000
,  // measure 84
0100
0000
0100
0100
1000
0000
1000
0100
,  // measure 85
0011
0000
1100
0000
0110
1010
0101
1001
,  // measure 86
0220
0000
0000
0330
,  // measure 87
1000
0010
0200
0000
0301
0010
0001
0010
,  // measure 88
0100
0100
1000
1000
0000
0000
0100
0010
,  // measure 89
0001
0020
0000
0230
0000
0310
0001
1000
,  // measure 90
1010
0110
0101
0110
,  // measure 91
0001
1000
0020
0000
0130
1000
0100
0010
,  // measure 92
0100
0100
0001
0001
0000
0000
0201
0000
,  // measure 93
0310
0020
0000
1030
0000
1000
0010
0100
,  // measure 94
0011
1001
1010
1001
,  // measure 95
0100
1000
0100
1000
0010
0100
0010
1000
,  // measure 96
0010
0100
0020
0000
2030
0000
3100
0010
,  // measure 97
0100
1000
0002
0000
0013
0000
0001
0100
,  // measure 98
0010
0010
1000
1000
0001
0001
0100
0100
,  // measure 99
0004
0013
0001
0100
0001
0010
0001
0010
,  // measure 100
0200
0000
0320
0000
0032
0000
0103
0010
,  // measure 101
1000
0001
0200
0000
0310
0000
0010
1000
,  // measure 102
0001
0001
0100
0100
0010
0010
1000
1000
,  // measure 103
1001
1100
1001
0011
0110
1001
0100
0001
,  // measure 104
1000
0010
1001
0110
1001
0110
0011
0110
,  // measure 105
2100
3M00
1010
1000
0001
0000
0001
0100
,  // measure 106
0010
1100
0000
0110
0000
0012
0000
1003
,  // measure 107
0010
1000
0001
0010
0100
0000
0100
1000
,  // measure 108
0010
0101
0000
1010
0000
0012
0000
0103
,  // measure 109
0100
0010
0010
1000
0001
0000
0001
0100
,  // measure 110
1000
0101
0000
0110
0000
2010
0000
3010
,  // measure 111
0010
0010
1000
0001
1000
0000
1000
0010
,  // measure 112
0100
0000
0101
0000
0000
0000
0011
0000
0000
0000
1001
0000
0000
0000
0100
0010
,  // measure 113
0100
0100
0000
0101
0000
1100
0000
1001
,  // measure 114
0010
1001
0100
0000
0000
0000
0000
0000
;

//---------------dance-single - ---------------
#NOTES:
     dance-single:
     :
     Medium:
     11:
     0,0,0,0,0:
// measure 0
0000
0000
0000
0000
,  // measure 1
0000
0000
0000
0000
,  // measure 2
0000
0000
0000
0000
,  // measure 3
0000
0000
0000
0000
,  // measure 4
0000
0000
0000
0000
,  // measure 5
0001
0000
0001
0000
0100
0001
0100
0000
,  // measure 6
0010
0000
0010
0000
1000
0010
1000
0000
,  // measure 7
1001
0000
0110
0000
,  // measure 8
1100
0000
0000
0000
0000
0000
0000
0000
0000
0000
0000
0000
0000
0000
0000
0000
0000
0000
0000
0000
0000
0000
0000
0000
0000
0000
0000
0000
0000
0000
0000
0000
0000
0000
0000
0000
0000
0000
0000
0000
0000
0000
0000
0000
0000
0000
0000
0000
0101
0000
0000
0000
0000
0000
0000
0000
0000
0000
0000
0000
0000
0000
0000
0000
0000
0000
0000
0000
0000
0000
0000
0000
0000
0000
0000
0000
0000
0000
0000
0000
0000
0000
0000
0000
0000
0000
0000
0000
0000
0000
0000
0000
0000
0000
0000
0000
1100
0000
0000
0000
0000
0000
0000
0000
0000
0000
0000
0000
0000
0000
0000
0000
0000
0000
0000
0000
0000
0000
0000
0000
0000
0000
0000
0000
0000
0000
0000
0000
0000
0000
0000
0000
0000
0000
0000
0000
0000
0000
0000
0000
0000
0000
0000
0000
0002
0003
0000
0000
0000
0000
0000
0000
0000
0000
0000
0000
0000
0000
0000
0000
0000
0000
0000
0000
0000
0000
0000
0000
0000
0000
0000
0000
0000
0000
0000
0000
0000
0000
0000
0000
0000
0000
0000
0000
0000
0000
0000
0000
0000
0000
0000
0000
,  // measure 9
0100
0010
0100
0000
0100
0001
0000
0101
,  // measure 10
0000
0010
0000
0101
0000
0010
1000
0000
,  // measure 11
0010
0100
0010
0000
0010
1000
0000
1001
,  // measure 12
0000
0100
0000
1001
0000
0100
0010
0000
,  // measure 13
0001
0100
0010
0000
0010
1000
0000
0101
,  // measure 14
0000
1100
0000
0101
0000
1000
0001
0000
,  // measure 15
1000
0010
0100
0000
0100
0010
0000
1100
,  // measure 16
0000
0011
0000
1010
0000
1000
0100
0010
,  // measure 17
0000
0101
0000
0110
0000
0001
0010
0100
,  // measure 18
1000
0000
0100
0000
0000
1000
0100
2000
,  // measure 19
3000
0020
0030
0200
0300
0001
0010
0001
,  // measure 20
0010
0000
0001
0000
0000
0010
0001
0200
,  // measure 21
0300
0020
0030
2000
3000
0010
0100
0010
,  // measure 22
0100
0000
0010
0000
0000
0010
0100
0002
,  // measure 23
0003
2000
3000
0002
0003
1000
0100
1000
,  // measure 24
0010
0000
0010
0000
0100
0010
1000
0001
,  // measure 25
0000
1000
0000
0001
0000
1000
0010
1000
,  // measure 26
0020
0130
2000
3100
,  // measure 27
0020
0130
1000
0000
,  // measure 28
0100
0001
0100
0000
0010
1000
0010
0000
,  // measure 29
1000
0001
1000
0000
0001
1000
0001
0000
,  // measure 30
0020
0031
0200
0310
,  // measure 31
0020
0031
0010
0000
,  // measure 32
0100
0010
1000
0000
0001
0100
0010
0000
,  // measure 33
1000
0001
1000
0001
0100
0010
0100
0010
,  // measure 34
1000
0000
0001
0100
0020
0000
0030
0000
,  // measure 35
0100
0000
0001
0010
0200
0000
0300
0000
,  // measure 36
0010
0000
0001
1000
0002
0000
0003
0000
,  // measure 37
0100
0000
1000
0001
2000
0000
3000
0000
,  // measure 38
1001
1001
1100
1100
,  // measure 39
1001
1001
0011
0011
,  // measure 40
0001
0010
0100
1000
0001
0010
0100
1000
,  // measure 41
0010
0000
0100
0000
0010
0000
0100
0000
0001
0000
1000
0000
,  // measure 42
0001
0000
1000
0000
0010
0000
0200
0000
0000
0000
0000
0000
,  // measure 43
030M
M000
000M
M000
000M
0000
0000
0000
,  // measure 44
2000
0000
3002
0000
0103
0010
0100
0000
,  // measure 45
0001
1000
0001
1000
0000
0000
0010
0000
,  // measure 46
2000
3010
0200
0301
,  // measure 47
0101
0101
1010
1010
,  // measure 48
0002
0000
2003
0000
3010
1000
0010
0000
,  // measure 49
0100
0001
0100
0001
0000
0000
1000
0000
,  // measure 50
0002
0013
0200
1300
,  // measure 51
1100
1100
0011
0011
,  // measure 52
1000
0100
1000
0000
0100
1000
0100
0000
,  // measure 53
2000
0000
3020
0000
0230
0000
0310
0100
,  // measure 54
0010
0000
0100
0010
0100
0000
0001
0000
,  // measure 55
1001
0010
1001
0100
,  // measure 56
0001
0010
0001
0000
0010
0001
0010
0000
,  // measure 57
0200
0000
0320
0000
0032
0000
0103
0010
,  // measure 58
0100
0000
0010
0100
0010
0000
1000
0010
,  // measure 59
0100
0000
0001
0100
0010
0000
1000
0100
,  // measure 60
0010
0001
0010
0100
1000
0010
0200
0301
,  // measure 61
1001
0000
0000
1010
0000
0000
1001
0000
,  // measure 62
0000
0101
0000
0000
0001
0100
0010
1000
,  // measure 63
0020
0000
0130
0000
0100
0001
0010
0001
,  // measure 64
0000
1001
0000
1000
0000
1000
0010
0000
,  // measure 65
0020
0000
1030
0000
0100
1000
0010
0100
,  // measure 66
0000
0101
0000
0001
0000
0001
1000
0000
,  // measure 67
1000
0100
0000
0001
0100
0000
0010
1000
,  // measure 68
0000
1001
0000
1001
0000
0001
0100
0010
,  // measure 69
0100
0001
0000
0001
0100
0000
0100
0010
,  // measure 70
0000
0010
1000
0100
2000
0000
3020
0000
,  // measure 71
0130
0000
0000
0100
0001
0000
0000
0001
,  // measure 72
0000
0100
0000
0010
2000
0000
3000
0000
,  // measure 73
1001
0000
0000
0010
0100
0000
0000
0100
,  // measure 74
0000
0001
0000
1000
0020
0000
0130
0000
,  // measure 75
1000
1100
0100
0110
,  // measure 76
0010
0011
0001
1001
,  // measure 77
1000
0001
1000
0000
0001
1000
0001
0100
,  // measure 78
0000
0010
0000
1000
0100
0000
0000
0000
,  // measure 79
0020
0030
0002
0003
,  // measure 80
0200
0300
0020
0030
,  // measure 81
2000
3000
0020
0030
,  // measure 82
0002
0003
0020
0030
,  // measure 83
2000
0000
3002
0000
,  // measure 84
0203
0000
0000
0000
0320
0000
0000
0030
,  // measure 85
1001
0000
0110
0000
1001
0110
2002
3003
,  // measure 86
0220
0000
0000
0330
,  // measure 87
2000
0000
3200
0000
0310
0001
0010
0000
,  // measure 88
0001
0100
0001
0100
0000
0000
0010
0000
,  // measure 89
0020
1030
0002
0103
,  // measure 90
0101
0011
0101
0011
,  // measure 91
0200
0000
2300
0000
3010
0100
0001
0000
,  // measure 92
0010
1000
0010
1000
0000
0000
0001
0000
,  // measure 93
0020
0130
2000
3010
,  // measure 94
1100
1010
1100
1010
,  // measure 95
1000
0010
0100
0010
1000
0000
1000
0000
,  // measure 96
0020
0000
0230
0000
2300
0000
3010
0100
,  // measure 97
0010
0000
0100
0010
0100
0000
0010
0000
,  // measure 98
1010
1001
0101
1001
,  // measure 99
0010
0001
0010
0000
0001
0010
0001
0000
,  // measure 100
0200
0000
0320
0000
0032
0000
0103
0010
,  // measure 101
1000
0000
1000
0010
0100
0000
0100
0001
,  // measure 102
0010
0000
0010
0001
0100
0000
0100
0000
,  // measure 103
0101
0010
1010
0100
1001
0110
2002
0000
,  // measure 104
3003
0000
1010
0100
0101
0010
0110
1001
,  // measure 105
0220
M33M
0010
0100
0010
0000
0010
1000
,  // measure 106
0000
1010
0000
0100
0000
1010
0000
0100
,  // measure 107
0001
0000
0100
0010
0100
0000
0100
0001
,  // measure 108
0000
1001
0000
0010
0000
1001
0000
0010
,  // measure 109
0100
0000
1000
0010
0100
0000
0100
0001
,  // measure 110
0000
1010
0000
0011
0000
1010
0000
0001
,  // measure 111
1000
0000
0001
0100
0010
0000
0010
0100
,  // measure 112
0000
0011
0000
1100
0000
0101
0000
0001
,  // measure 113
0010
0100
0000
1010
0000
0110
0000
1000
,  // measure 114
0100
0010
0001
0000
0000
0000
0000
0000
;

//---------------dance-single - ---------------
#NOTES:
     dance-single:
     :
     Easy:
     7:
     0,0,0,0,0:
// measure 0
0000
0000
0000
0000
,  // measure 1
0000
0000
0000
0000
,  // measure 2
0000
0000
0000
0000
,  // measure 3
0000
0000
0000
0000
,  // measure 4
0000
0000
0000
0000
,  // measure 5
0001
0000
1000
0000
,  // measure 6
0010
0000
1000
0000
,  // measure 7
1001
0000
1001
0000
,  // measure 8
1000
0100
0020
0030
,  // measure 9
0001
0000
0000
0000
0100
0000
0000
0010
,  // measure 10
0000
0010
0000
0020
0000
0030
0000
0000
,  // measure 11
0100
0000
0000
0000
0001
0000
0000
1000
,  // measure 12
0000
1000
0000
2000
0000
3000
0000
0000
,  // measure 13
0010
0000
0000
0000
0100
0000
0000
0001
,  // measure 14
0000
0001
0000
0002
0000
0003
0000
0000
,  // measure 15
1000
0000
0000
0000
0010
0000
0000
0100
,  // measure 16
0000
0100
0000
0100
0000
0000
0001
0000
,  // measure 17
0000
0010
0000
0010
0000
0020
0000
0000
,  // measure 18
0031
0000
0001
0000
,  // measure 19
0010
0000
0000
0010
0000
0000
0000
0000
,  // measure 20
0100
0000
0100
0000
,  // measure 21
1000
0000
0000
1000
0000
0000
0000
0000
,  // measure 22
0010
0000
1000
0000
,  // measure 23
0001
0000
0000
0100
0000
0000
0000
0000
,  // measure 24
0010
0000
0000
0000
0001
0000
0000
1000
,  // measure 25
0000
0000
0010
0010
,  // measure 26
0010
0000
0100
0000
,  // measure 27
2000
3000
2000
3000
,  // measure 28
0001
0000
0010
0000
,  // measure 29
0100
0000
1000
0000
,  // measure 30
0010
0000
0100
0000
,  // measure 31
0002
0003
0002
0003
,  // measure 32
0100
0000
0100
0000
,  // measure 33
0020
0000
0030
0000
,  // measure 34
0100
0000
0000
0000
,  // measure 35
1000
0000
0000
0000
,  // measure 36
0010
0000
0000
0000
,  // measure 37
0001
0000
0000
0000
,  // measure 38
1000
1000
1000
0000
,  // measure 39
0001
0001
0001
0000
,  // measure 40
0010
0010
0100
0100
,  // measure 41
2000
0000
0000
0000
,  // measure 42
0000
0000
3002
0000
,  // measure 43
0003
0000
0000
0000
,  // measure 44
1000
1000
1000
0000
,  // measure 45
0010
0010
0000
0000
,  // measure 46
0200
0000
0300
0000
,  // measure 47
0002
0000
0003
0000
,  // measure 48
0010
0010
0010
0000
,  // measure 49
0001
0001
0000
0000
,  // measure 50
0200
0000
0300
0000
,  // measure 51
0020
0000
0030
0000
,  // measure 52
1000
0100
1000
0000
,  // measure 53
0100
0000
0100
0000
,  // measure 54
0010
0100
0010
0000
,  // measure 55
0200
0300
0020
0030
,  // measure 56
0001
0010
0001
0000
,  // measure 57
0010
0000
0010
0000
,  // measure 58
0100
0010
0100
0000
,  // measure 59
2000
3000
0002
0003
,  // measure 60
1000
1000
0010
0010
0100
0100
0002
0003
,  // measure 61
0100
0000
0000
0010
0000
0000
1000
0000
,  // measure 62
0000
0001
0000
0000
0200
0000
0000
0000
,  // measure 63
0310
0000
0000
0000
1000
0000
0000
0100
,  // measure 64
0000
0100
0000
0100
0000
0000
0000
0000
,  // measure 65
0001
0000
0000
0000
0100
0000
0000
0010
,  // measure 66
0000
0010
0000
0010
0000
0000
0000
0000
,  // measure 67
0100
0000
0000
0000
0010
0000
0000
1000
,  // measure 68
0000
1000
0000
1000
0000
0000
0000
0000
,  // measure 69
0100
0000
0000
0000
0010
0000
0000
0001
,  // measure 70
0000
0001
0000
0001
0000
0000
0000
0000
,  // measure 71
2000
0000
3000
0000
,  // measure 72
0002
0000
0003
0000
,  // measure 73
0200
0000
0300
0000
,  // measure 74
0020
0000
0030
0000
,  // measure 75
1000
1000
1000
0000
,  // measure 76
0100
0100
0100
0000
,  // measure 77
0010
0000
0010
0000
0010
0000
0000
0001
,  // measure 78
0000
0001
0000
0002
0003
0000
0000
0000
,  // measure 79
0002
0000
0100
0000
,  // measure 80
0010
0000
0103
0000
,  // measure 81
0020
0000
1000
0000
,  // measure 82
0100
0000
1030
0000
,  // measure 83
0200
0000
1000
0000
,  // measure 84
0010
0000
1300
0000
,  // measure 85
0001
0000
1000
0000
0010
0100
0010
0100
,  // measure 86
0020
0000
0000
0030
,  // measure 87
1000
1000
1000
0000
,  // measure 88
0010
0000
0010
0000
,  // measure 89
0100
0100
0100
0000
,  // measure 90
0002
0003
2000
3000
,  // measure 91
0010
0010
0010
0000
,  // measure 92
1000
0000
1000
0000
,  // measure 93
0001
0001
0001
0000
,  // measure 94
0200
0300
0020
0030
,  // measure 95
1000
0100
1000
0000
,  // measure 96
2000
3000
0200
0300
,  // measure 97
0010
0100
0010
0000
,  // measure 98
0002
0003
2000
3000
,  // measure 99
0001
0010
0001
0000
,  // measure 100
0002
0003
0020
0030
,  // measure 101
0100
0000
1000
0000
,  // measure 102
0002
0003
0200
0300
,  // measure 103
0010
0010
1000
1000
0001
0001
0200
0000
,  // measure 104
0300
0000
0001
0001
0010
0010
0100
0100
,  // measure 105
2000
3000
1000
0000
0000
0000
0010
0000
,  // measure 106
0000
0100
0000
0100
0000
0100
0000
0000
,  // measure 107
0000
0001
0000
0100
,  // measure 108
0000
0010
0000
0010
0000
0010
0000
0000
,  // measure 109
0000
0100
0000
0001
,  // measure 110
0000
1000
0000
1000
0000
1000
0000
0000
,  // measure 111
0000
0100
0000
0010
,  // measure 112
0000
0001
0000
0001
0000
0001
0000
0000
,  // measure 113
0000
0000
0000
0100
0000
0100
0000
0200
,  // measure 114
0000
0300
0000
0000
;

//---------------dance-single - ---------------
#NOTES:
     dance-single:
     :
     Beginner:
     3:
     0,0,0,0,0:
// measure 0
0000
0000
0000
0000
,  // measure 1
0000
0000
0000
0000
,  // measure 2
0000
0000
0000
0000
,  // measure 3
0000
0000
0000
0000
,  // measure 4
0000
0000
0000
0000
,  // measure 5
0001
0000
0000
0000
,  // measure 6
0001
0000
0000
0000
,  // measure 7
0100
0000
0010
0000
,  // measure 8
0100
0000
0010
0000
,  // measure 9
1000
0000
0000
0000
0000
0000
0000
1000
,  // measure 10
0000
0000
0000
0000
,  // measure 11
0010
0000
0000
0000
0000
0000
0000
0010
,  // measure 12
0000
0000
0000
0000
,  // measure 13
0100
0000
0000
0000
0000
0000
0000
0100
,  // measure 14
0000
0000
0000
0000
,  // measure 15
0001
0000
0000
0000
0000
0000
0000
0001
,  // measure 16
0000
0000
0000
0000
,  // measure 17
0000
1000
0000
0000
0000
0000
0000
0000
,  // measure 18
1000
0000
0000
0000
,  // measure 19
0010
0000
0000
0000
,  // measure 20
0010
0000
0000
0000
,  // measure 21
0100
0000
0000
0000
,  // measure 22
0100
0000
0000
0000
,  // measure 23
0001
0000
0000
0000
,  // measure 24
0001
0000
0000
0000
,  // measure 25
1000
0000
0000
0000
,  // measure 26
1000
0000
0100
0000
,  // measure 27
1000
0000
0000
0000
,  // measure 28
0010
0000
0000
0000
,  // measure 29
0100
0000
0000
0000
,  // measure 30
0001
0000
0010
0000
,  // measure 31
0001
0000
0000
0000
,  // measure 32
0100
0000
0000
0000
,  // measure 33
0010
0000
0000
0000
,  // measure 34
1000
0000
0000
0000
,  // measure 35
0100
0000
0000
0000
,  // measure 36
0010
0000
0000
0000
,  // measure 37
0002
0000
0003
0000
,  // measure 38
0001
0000
0010
0000
,  // measure 39
0100
0000
1000
0000
,  // measure 40
0100
0000
0010
0000
,  // measure 41
2002
0000
0000
0000
,  // measure 42
0000
0000
3003
0000
,  // measure 43
0000
0000
0000
0000
,  // measure 44
1000
0000
0010
0000
,  // measure 45
0100
0000
0000
0000
,  // measure 46
0001
0000
0100
0000
,  // measure 47
0010
0000
0000
0000
,  // measure 48
0100
0000
0001
0000
,  // measure 49
1000
0000
0000
0000
,  // measure 50
0010
0000
0100
0000
,  // measure 51
0001
0000
0001
0000
,  // measure 52
1000
0000
0100
0000
,  // measure 53
1000
0000
1000
0000
,  // measure 54
0010
0000
0001
0000
,  // measure 55
0100
0000
1000
0000
,  // measure 56
0001
0000
0010
0000
,  // measure 57
0001
0000
0001
0000
,  // measure 58
0100
0000
1000
0000
,  // measure 59
0010
0000
0001
0000
,  // measure 60
0200
0300
0020
0030
2000
3000
0002
0003
,  // measure 61
0000
0000
0000
0000
,  // measure 62
0000
0000
0000
0000
,  // measure 63
0100
0000
0100
0000
,  // measure 64
0001
0000
0001
0000
,  // measure 65
1000
0000
1000
0000
,  // measure 66
0010
0000
0010
0000
,  // measure 67
2000
0000
0000
0000
,  // measure 68
3020
0000
0000
0000
,  // measure 69
0230
0000
0000
0000
,  // measure 70
0302
0000
0000
0000
,  // measure 71
0013
0000
0000
0000
,  // measure 72
0100
0000
0000
0000
,  // measure 73
1000
0000
0000
0000
,  // measure 74
0001
0000
0000
0000
,  // measure 75
0100
0000
0001
0000
,  // measure 76
1000
0000
0010
0000
,  // measure 77
2000
0000
0000
0000
0020
0000
0000
3000
,  // measure 78
0000
0000
0030
0000
,  // measure 79
0100
0000
0000
0000
,  // measure 80
0100
0000
0000
0000
,  // measure 81
0001
0000
0000
0000
,  // measure 82
0001
0000
0000
0000
,  // measure 83
1000
0000
0000
0000
,  // measure 84
0010
0000
0000
0000
,  // measure 85
0100
0000
0010
0000
1000
0001
2000
3000
,  // measure 86
0002
0000
0000
0003
,  // measure 87
0100
0000
0100
0000
,  // measure 88
0010
0000
0010
0000
,  // measure 89
1000
0000
0001
0000
,  // measure 90
1000
0000
0001
0000
,  // measure 91
0010
0000
1000
0000
,  // measure 92
0001
0000
0100
0000
,  // measure 93
0001
0000
1000
0000
,  // measure 94
0001
0000
1000
0000
,  // measure 95
0100
0000
1000
0000
,  // measure 96
0100
0000
1000
0000
,  // measure 97
0010
0000
0100
0000
,  // measure 98
0002
0003
2000
3000
,  // measure 99
0010
0000
0001
0000
,  // measure 100
0010
0000
0010
0000
,  // measure 101
0001
0000
1000
0000
,  // measure 102
0020
0030
0200
0300
,  // measure 103
0002
0003
0020
0030
0200
0300
2000
0000
,  // measure 104
3000
0000
2000
3000
0020
0030
0200
0300
,  // measure 105
0002
0003
0001
0000
0000
0000
0000
0000
,  // measure 106
0000
0001
0000
0000
0000
0000
0000
0000
,  // measure 107
0000
0100
0000
0000
,  // measure 108
0000
0100
0000
0000
0000
0000
0000
0000
,  // measure 109
0000
0010
0000
0000
,  // measure 110
0000
0010
0000
0000
0000
0000
0000
0000
,  // measure 111
0000
1000
0000
0000
,  // measure 112
0000
1000
0000
0000
0000
0000
0000
0000
,  // measure 113
0000
0000
0000
0001
0000
0000
0000
0000
,  // measure 114
0000
0001
0000
0000
;
