#TITLE:プラチナ・パスポート;
#SUBTITLE:;
#ARTIST:小倉唯;
#TITLETRANSLIT:Platinum Passport;
#SUBTITLETRANSLIT:;
#ARTISTTRANSLIT:Yui Ogura;
#GENRE:;
#CREDIT:;
#MUSIC:Platinum Passport.ogg;
#BANNER:Platinum Passport-BN.png;
#BACKGROUND:Platinum Passport-BG.png;
#CDTITLE:cdtitle.png;
#SAMPLESTART:52.527;
#SAMPLELENGTH:11.163;
#SELECTABLE:YES;
#OFFSET:-0.201;
#BPMS:0.000=172.000;
#STOPS:89.500=0.349
,92.500=0.349
;
#BGCHANGES:-1.000=Platinum Passport-BGA.avi=1.000=0=0=0=StretchNoLoop==CrossFade_Fastest==,
99999.000=-nosongbg-=1.000=0=0=0=StretchNoLoop====
;
#FGCHANGES:;

//--------------- dance-single - T9N ----------------
#NOTES:
     dance-single:
     T9N:
     Beginner:
     1:
     0.105181,0.139689,0,0.010086,0,73,73,0,1,0,0,0.105181,0.139689,0,0.010086,0,73,73,0,1,0,0:
0000
0000
0000
0000
,
0000
0000
0000
0000
,
1000
0000
0000
0000
,
1000
0000
0000
0000
,
0001
0000
0000
0000
,
0001
0000
0000
0000
,
0100
0000
0000
0000
,
0010
0000
0000
0000
,
0100
0000
0000
0000
,
0010
0000
0000
0000
,
1000
0000
0000
0000
,
0001
0000
0000
0000
,
0001
0000
0000
0000
,
1000
0000
0000
0000
,
1000
0000
0000
0000
,
0100
0000
0000
0000
,
0010
0000
0000
0000
,
0001
0000
0000
0000
,
1000
0000
0000
0000
,
0001
0000
0000
0000
,
1000
0000
0000
0000
,
0001
0000
0000
0000
,
0100
0000
0000
0010
,
0000
0000
0010
0000
,
0000
0000
0100
0000
,
0000
0000
0001
0000
,
0000
0000
1000
0000
,
0000
0000
0001
0000
,
0000
0000
0100
0000
,
0000
0000
0010
0000
,
0000
0000
0010
0000
,
0000
0000
0100
0000
,
0000
0000
0100
0000
,
0000
0000
0001
0000
,
0000
0000
1000
0000
,
0000
0000
0001
0000
,
0000
0000
1000
0000
,
0000
0000
0001
0001
,
0000
0000
1000
0000
,
0000
0000
1000
1000
,
0000
0000
0001
0000
,
0000
0000
0100
0000
,
0000
0000
0001
0000
,
0000
0000
0100
0000
,
0000
0000
0010
0000
,
0000
0000
1000
1000
,
0000
0000
0010
0000
,
0000
0000
0100
0100
,
0000
0000
0001
0000
,
0000
0000
0010
0000
,
0000
0000
0100
0000
,
0000
0000
1000
0000
,
0000
0000
1000
0000
,
0000
0000
0001
0000
,
0000
0000
0001
0000
,
0000
0000
0100
0000
,
0000
0000
0010
0000
,
0000
0000
0100
0000
,
0000
0000
0010
0000
,
0000
0000
0020
0000
,
0000
0000
0130
0000
,
0000
0000
0010
0000
,
0000
0000
0100
0000
,
0000
0000
0001
0000
,
0000
0000
1000
0000
,
0000
0000
0001
0000
,
0000
0000
1000
0000
,
0000
0000
0010
0000
,
0000
0000
0100
0000
,
0000
0001
0000
0000
;

//--------------- dance-single - T9N ----------------
#NOTES:
     dance-single:
     T9N:
     Easy:
     3:
     0.250705,0.349222,0.040343,0.110944,0,174,170,4,11,0,0,0.250705,0.349222,0.040343,0.110944,0,174,170,4,11,0,0:
0000
0000
0000
0000
,
0000
0000
0000
0000
,
0100
0100
0000
0000
,
0001
0000
0001
0000
,
0010
0010
0000
0000
,
0100
0000
1000
0000
,
0002
0000
0003
0001
,
2000
0000
3000
1000
,
0010
0000
0010
0000
,
0100
0000
0100
0000
,
0001
0001
0000
0000
,
0010
0000
0100
0000
,
1000
1000
0000
0000
,
0100
0000
0010
0000
,
0001
0000
1000
0000
,
0001
0000
1000
0000
,
0010
0010
0010
0000
,
0100
0100
0100
0000
,
0010
0000
1000
0000
,
0001
0000
0100
0000
,
0001
0000
0100
0000
,
0010
0000
1000
0000
,
0001
0000
0000
0001
0000
0000
1000
0000
,
0000
1000
0000
0000
0010
0000
0010
0000
,
0010
0000
0100
0100
,
0100
0000
0002
0000
,
0013
0000
0020
0000
,
0130
0000
0200
0000
,
1300
0000
1000
1000
,
1000
0000
0001
0100
,
0001
0000
1000
0010
,
1000
0000
0020
0000
,
0100
0000
0100
0000
,
0130
0000
1001
0000
,
1001
0000
0010
0100
,
0010
0100
1001
0000
,
1001
0000
1000
0100
,
0010
0001
1000
1000
,
1000
0000
0001
0001
,
0001
0000
0100
0100
,
0100
0000
0010
0010
,
0010
0000
1000
0000
,
0001
0000
1000
0000
,
0001
0000
1000
0000
,
0100
0000
0001
0000
,
0010
0000
0010
0010
,
0010
0000
0100
0100
,
0100
0000
0001
0001
,
0001
0000
1000
1000
,
1000
0000
0020
0000
,
1030
0000
0200
0000
,
0301
0000
0001
0010
,
0001
0000
1000
0100
,
1000
0000
0001
0100
,
0001
0000
1000
0010
,
1000
0000
0002
0000
,
1003
1000
2000
0000
,
3001
0001
0001
1000
,
0001
1000
0100
0100
,
0000
0010
0020
0000
,
0000
0000
0030
0000
,
0000
0000
0001
0001
,
0001
0000
1000
1000
,
1000
0000
0010
0100
,
0001
0000
0010
0100
,
1000
0000
0010
0100
,
0010
0000
0100
0010
,
0100
0000
0001
1000
,
0001
0000
1000
0000
0001
0000
0000
1000
,
0000
0010
0000
0000
;

//--------------- dance-single - T9N ----------------
#NOTES:
     dance-single:
     T9N:
     Medium:
     9:
     0.520141,0.523833,0.312661,0.353004,0.015129,361,330,31,35,0,0,0.520141,0.523833,0.312661,0.353004,0.015129,361,330,31,35,0,0:
0000
0000
0000
0000
,
0000
0000
0000
0000
,
0110
0000
0110
0000
0001
0100
0001
0000
,
1000
0010
1000
0010
0000
0100
0001
0000
,
1001
0000
1001
0000
0100
0010
0100
0000
,
0001
0100
0001
0200
0000
0301
1000
0000
,
0100
1000
0100
1000
0000
0100
0100
0000
,
0010
0001
0010
0001
0000
0010
0010
0000
,
0001
1000
0001
2000
0000
3001
0100
0002
,
0000
1003
0001
0000
0010
0000
0100
0000
,
1000
0100
1000
0100
0000
0010
0000
0100
,
0000
1000
0001
1000
0000
0100
0000
0010
,
0001
0000
0001
0010
0000
0001
0000
0100
,
0010
0000
0100
0020
0000
0000
1030
0000
,
0001
0000
0100
0000
0001
0100
0000
0010
,
1000
0000
0010
1000
0000
0000
0001
0100
,
0001
0000
0001
0010
0000
0001
0000
2002
,
0000
3003
0110
0000
1001
0000
0110
0000
,
1000
0001
1000
0001
0000
0001
0100
0000
,
0010
0000
0010
0100
0000
0100
0001
0000
,
0001
1000
0001
1000
0000
1000
0010
0000
,
0100
0000
0001
0020
0000
0000
0130
0000
,
1000
0100
1000
0100
0000
0000
0010
0001
,
0010
0002
0003
0000
1000
1000
0000
1001
,
0000
0010
0000
0210
0000
0000
0001
0000
,
0010
0000
0301
0000
1001
0000
0000
1000
,
0010
0000
1000
0100
1000
0000
0001
0200
,
0000
0300
0001
0010
0001
0000
0000
0100
,
0010
0010
1001
1001
,
2002
0000
3003
0000
0001
0010
0001
0000
,
1000
0100
1000
0000
0001
0100
0001
0000
,
1000
0010
1000
0000
0002
0000
0203
0000
,
0320
0000
2030
0100
0000
0100
0000
3100
,
0000
0010
1000
0000
0001
0001
0000
0000
,
0010
0010
0000
0002
0000
0013
0001
0000
,
1000
0001
1000
0000
0100
0100
0000
0000
,
1000
1000
0000
0020
0000
0000
1030
0001
,
1000
0001
1000
0000
0101
0000
1010
0000
,
0001
0100
0000
0002
0000
1003
0010
0000
,
0100
0010
0100
0000
1010
0000
0101
0000
,
1000
0010
0000
0200
0000
0301
0010
0000
,
0002
0000
0003
0000
1000
0000
0100
1000
,
0000
1000
0010
0000
0100
0001
0100
0001
,
0000
0001
0010
0000
1001
0000
0001
1000
,
0000
1001
0000
0120
0000
0000
1000
0000
,
0100
1030
0101
1010
,
0100
0001
0000
2000
0000
3010
0100
0000
,
0001
0010
0001
0000
1010
0000
0101
0000
,
0010
1000
0000
0200
0000
1300
0001
0000
,
0020
0000
0031
0000
0100
0001
0100
0000
,
0010
1000
0010
0000
1000
0100
0010
0001
,
0000
0000
1001
0000
0010
0000
1000
1000
,
0000
0020
0000
0000
0130
0000
0001
0001
,
0000
0200
0000
0300
0010
0000
1000
0010
,
0000
0000
1000
0000
0000
0000
0001
0000
0100
0000
0000
0001
0000
0000
0100
0000
,
0001
2000
3001
0010
,
0100
1000
0010
0100
,
0001
0000
0010
0000
0001
1000
0001
0000
,
1000
0001
1000
0000
0010
0010
0010
0000
,
0000
1001
0220
0000
,
0000
0000
0300
0030
1000
0000
0001
0200
,
0000
0301
0010
0000
1100
0000
1100
0000
,
1000
0010
1000
0000
0001
0000
0100
0020
,
0000
0130
0010
0000
1000
0001
1000
0001
,
0000
0100
0100
0000
0001
1000
0001
1000
,
0000
0010
0010
0000
0100
0010
0100
0010
,
0000
0000
1000
0000
0002
0000
0000
0000
0103
0000
0000
0001
0000
0000
0010
0000
,
0000
0100
0200
0000
1300
0010
1000
0000
,
0001
0000
0100
0000
0001
0000
0000
0000
1001
0000
0000
0100
0000
0000
0020
0000
,
0000
1030
0000
0000
;

//--------------- dance-single - T9N ----------------
#NOTES:
     dance-single:
     T9N:
     Hard:
     13:
     0.698804,0.698444,0.554721,0.685836,0.095815,485,430,55,68,5,4,0.698804,0.698444,0.554721,0.685836,0.095815,485,430,55,68,5,4:
0000
0000
0000
0000
,
0000
0000
0000
0000
,
1001
0000
0000
0000
1001
0000
0000
0000
1000
0000
0010
0000
0100
0000
0001
0010
,
0001
0100
0001
2000
0000
3010
0100
0000
,
0110
0000
0110
0000
0001
0100
0010
1000
,
0010
0100
0010
0000
1000
0000
0020
0000
0000
0000
0130
0000
0001
0000
0000
0000
,
1000
0000
0100
0000
0010
0000
0002
0000
0000
0003
1100
0000
1100
0000
0000
0000
,
0001
0000
0010
0000
0100
0000
2000
0000
0000
3000
0101
0000
0101
0000
0000
0000
,
0010
1000
0001
0200
0000
0301
1000
0020
,
0000
0000
0130
0000
0001
0000
1000
0100
1000
0000
0001
0000
0010
0000
0001
0000
,
0200
0000
0310
1000
0000
1000
0010
0100
,
0001
0010
0001
0010
0000
0200
0000
1300
,
0001
1000
0010
1000
0000
0100
0010
0001
,
0100
0010
1000
0200
0000
0310
0000
0001
,
1000
0000
0100
0000
2000
0000
0000
0000
3001
0000
0100
0000
0000
0000
0001
0010
,
0001
0100
0010
1000
0000
1000
0010
0000
,
0200
0000
0310
2000
0000
3010
0000
0200
,
0000
0301
0100
1000
0100
0001
0010
1000
,
0020
0000
0031
0000
0001
1000
0100
1000
,
0020
0000
0130
0002
0000
0013
0100
0010
,
0001
0000
1001
0000
0001
1000
0010
1000
,
0002
0000
0000
0000
0103
0000
2000
0000
0000
0000
3100
0000
0010
0000
1000
0100
,
1000
0000
0001
0000
0010
0000
0100
0000
0000
0000
0001
0010
0001
0000
1000
0000
,
0100
0000
0020
0000
0030
0000
1000
0001
1000
0000
0010
0000
0100
0000
0001
0000
,
0000
1010
0000
0102
0000
1003
0010
1000
,
0010
0100
0001
0100
0002
0000
0000
0010
,
0013
0001
1000
0100
0200
0000
1300
0020
,
0000
0130
0002
0000
0013
0000
0000
1000
,
0100
1000
0010
0100
0002
0000
0013
0001
,
0200
0010
0300
0000
2100
0000
0001
0000
,
3010
0100
0001
2000
0000
0010
0000
0001
,
0000
3100
1000
0001
0100
0010
0100
0000
,
0001
1000
0001
0200
0000
0320
0000
2030
,
0000
3001
0100
0001
0101
0101
0000
0000
,
1100
1100
0000
0002
0000
0103
0010
1000
,
0100
1000
0001
0010
1001
1001
0000
0000
,
0110
0000
0110
0000
0000
0000
0200
0000
0000
0000
0301
0000
1000
0000
0010
0100
,
0001
1000
0100
0010
0202
0303
2020
3030
,
0001
0000
0100
0000
0010
0000
1000
0000
0000
0000
1000
0000
0010
0000
0100
0010
,
1000
0001
0010
0001
1000
0100
0020
0000
,
0031
0100
0000
0102
0000
1003
2010
0000
,
3100
0010
0001
0010
0200
0000
1300
0002
,
0000
0013
0100
0010
0001
1000
0010
0100
,
0000
0000
0100
0000
0001
0000
1000
0100
2000
0000
0000
0000
3001
0000
0100
0000
,
0000
0011
0000
1200
0000
0310
0001
0100
,
0010
1000
0100
1000
0202
0303
2020
3030
,
0100
0000
0001
0000
1000
0000
0100
0000
0000
0000
0100
0000
1000
0000
0010
0100
,
0001
1000
0010
0100
0002
0013
0200
1300
,
0010
0000
0001
0000
0010
0000
2000
0000
0000
0000
3100
0000
0001
0000
0100
1000
,
0100
1000
0001
0010
0001
0100
0010
0000
,
1000
0010
0100
0001
0010
0001
1000
0200
,
0000
1300
0010
0001
0010
0000
1100
1100
,
0000
0001
1000
0001
0100
0000
0101
0101
,
0000
1000
0010
1000
0100
0000
1001
1001
,
0000
0000
0001
0000
1000
0000
0010
0000
1000
0000
0000
1001
0000
0000
0101
0000
,
1010
0000
0210
0000
0310
1000
0010
0100
,
0010
0001
0010
0100
0010
1000
0100
1000
,
0001
1000
0010
0100
0001
1000
0001
0100
,
0001
0010
0001
1000
1001
1001
1001
0000
,
0000
0101
2020
0000
,
0000
0000
3000
0000
0130
0001
0100
0002
,
0000
1003
0200
0000
1310
0000
0101
0000
,
1000
0000
0001
0000
1000
0000
0010
0000
1000
0001
0100
0000
0010
0000
0200
0000
,
0000
0301
0020
0000
0130
1000
0001
0020
,
0000
0131
0101
0000
1000
0001
0010
0200
,
0000
1310
1010
0000
1000
0001
1000
0002
,
0000
0000
0103
0000
0010
0000
0100
0000
1010
0000
0000
0011
0000
0000
1001
0000
,
0000
0000
1000
0000
0001
0100
0001
0000
1000
0000
0010
0000
1000
0000
0010
0000
,
0100
0000
0001
0000
0100
0000
0001
0000
1100
0000
0000
0101
0000
0000
2002
0000
,
0000
0000
3103
0010
0100
0000
0000
0000
0000
0000
0000
0000
0000
0000
0000
0000
;

//--------------- dance-single - T9N ----------------
#NOTES:
     dance-single:
     T9N:
     Challenge:
     15:
     0.873145,1.156593,0.746351,1.069098,0.468991,606,532,74,106,90,13,0.873145,1.156593,0.746351,1.069098,0.468991,606,532,74,106,90,13:
0000
0000
0000
0000
,
0000
0000
0000
0000
,
0022
0033
2020
3030
0101
1000
0001
0010
,
0001
1000
0100
0000
0010
0000
0200
0000
0000
0000
1300
0000
0011
0000
0000
0000
,
2200
3300
0202
0303
1001
0010
0100
0001
,
1000
0001
0010
0000
0200
0000
0320
0000
0000
0000
0031
1000
0100
0000
0000
0000
,
0010
0001
0010
0000
0011
0000
0022
0000
0033
0000
1MM1
0000
1MM1
0000
0000
0000
,
0100
1000
0100
0000
1100
0000
2200
0000
3300
0000
1MM1
0000
1MM1
0000
0000
0000
,
0010
0100
0010
0000
1000
0000
0002
0000
0000
0000
0103
0000
0010
0000
2000
0000
,
0000
0000
3001
0000
0100
0000
1000
0100
0001
0000
0010
0000
1000
0000
0010
0000
,
0001
0100
0010
1000
0000
1000
0010
0001
,
0020
0030
2000
3000
0200
0300
0020
0030
0000
0000
0010
0000
0001
0000
1000
0000
,
0100
0001
0100
1000
0000
1000
0010
0001
,
0020
0030
2000
3000
0002
0003
0200
0300
0000
0000
0001
0100
0001
0000
1000
0000
,
0200
0000
0310
0000
0200
0000
0000
0000
0301
0000
0100
0000
1000
0000
0010
0100
,
0010
1000
0001
0020
0000
0031
1001
0000
,
2010
0000
3100
0102
0000
0013
0000
0220
,
0000
1330
0100
0001
0010
1000
0100
0010
,
1002
0000
2003
0010
3000
0010
1000
0001
,
0002
0100
0013
2000
0000
3100
0010
0010
,
2001
0000
3002
0000
0103
0010
1000
1000
,
0010
0000
0100
0000
0001
0000
0012
0000
0000
0000
1003
0000
1100
0000
0010
0100
,
0001
0000
0010
0000
0100
0000
1000
0000
0000
0000
0010
1000
0100
0000
0001
0000
,
0100
0000
2000
3000
0000
0000
0001
0010
0001
0000
0101
0000
M0M0
0000
0011
0000
,
MM00
1010
0M0M
22MM
0000
3310
0001
0010
,
1000
0010
0001
1000
0200
0000
0000
0010
,
0320
0001
0032
1000
2003
0000
0010
3020
,
0100
0000
0001
0000
0230
0000
0000
1300
,
0010
0000
0100
0000
0001
0000
0010
0001
0020
0000
0000
0000
0031
0000
0100
0000
,
0020
0000
1000
0000
1031
0000
0000
0000
1000
0010
1000
0010
0100
0001
0100
0001
,
1000
0010
1000
0010
0100
0001
0100
0001
1000
0001
0010
0100
0010
0001
1000
0001
,
0100
0010
1000
0000
1001
0000
0000
0000
0101
0000
0010
0000
0001
0000
1000
0010
,
0100
0001
0010
0000
0100
0000
1000
0000
1001
0000
0100
0000
0001
0000
0010
0001
,
0100
0010
1000
0000
0010
0000
0100
0000
M1M1
0000
M1M1
0000
0000
0000
0000
0000
,
1M1M
1M1M
0000
1002
0000
0013
1000
0010
,
0001
0000
0100
0000
1000
0000
0100
0000
M1M1
0000
M2M2
0000
0000
0000
0000
0303
,
1M1M
0000
2M2M
0000
0000
0000
3132
0000
0000
0000
1003
0100
1000
0000
0001
0100
,
0001
0000
1000
0000
0010
0100
0001
1000
0102
0000
0003
0000
2010
0000
3000
0000
,
0001
0000
0100
0000
0010
1000
0200
0000
0000
0000
1300
0000
0010
0000
0100
0001
,
0010
0100
1000
0001
0200
0310
0002
0013
,
2000
0000
3200
0000
0301
0000
0200
0000
0000
0000
1300
0000
0001
0000
0100
0001
,
0100
0000
0010
0000
1000
0000
0001
0010
0001
0000
0100
0000
0001
0000
2000
0000
,
0000
3010
0100
0001
0020
0100
0130
2000
,
0000
0000
3001
0000
0010
0000
0001
1000
0100
0000
0010
0000
0100
0000
1001
0000
,
0000
0000
0110
0000
0000
0000
2002
0000
0000
0000
3103
0000
0001
0000
1000
0001
,
0010
0000
0100
0000
1000
0010
1000
0010
2010
0000
30M0
0000
0102
0000
0M03
0000
,
1000
0000
0001
0000
0100
0010
0200
0000
0000
0000
0301
0000
1000
0000
0010
0100
,
0010
0100
0001
0010
0200
1300
0002
0013
,
0001
0000
0100
0000
0010
1000
0200
0000
0000
0000
0310
0000
0001
0000
1000
0100
,
0010
0001
0100
0010
2000
0100
3100
0000
,
0020
0001
0031
0100
0010
1000
0001
0200
,
0000
0000
0310
0000
1000
0010
0100
0010
1000
0000
0010
0000
0100
0000
0001
0000
,
0010
0001
0100
0010
1000
0000
0001
0000
0010
0000
0001
0000
0100
0000
0010
0000
,
1000
0001
0100
0010
0100
0000
0001
0000
1000
0000
0010
0000
0100
0000
0001
0000
,
0010
0001
1000
0100
0010
0000
0001
0000
1M1M
0000
0000
M1M1
0000
0000
M11M
0000
,
2200
0000
0000
0000
3302
0000
0000
0000
1003
0100
0010
0001
0010
0100
1000
0010
,
1000
0001
0100
0001
0010
0100
1000
0010
0100
0010
0100
0001
0010
0100
0010
0100
,
1000
0010
0100
0001
0010
0100
0010
0001
2000
0000
3002
0000
0113
0000
1010
0000
,
0002
0203
0311
1100
1MM1
M11M
1MM1
00M0
,
0M00
0000
0000
00M0
0000
0000
0M00
0000
1002
0000
0000
0000
2013
0000
0000
0000
,
3102
0000
0013
0000
0001
0000
1000
0000
0010
0100
0001
0000
0010
0000
0102
0000
,
0000
0000
0013
0000
2100
0000
3001
0010
0001
0000
1000
0100
1000
0000
0010
0000
,
0100
0001
0010
0001
1000
0000
0010
0000
0100
0001
0100
0000
0010
0000
2010
0000
,
0000
3001
0102
0000
1003
0100
0010
0002
,
0000
11M3
11MM
0000
0001
0010
0100
2000
,
0000
0000
31M1
0000
M1M1
0000
0000
0000
1000
0010
1000
0000
0001
0000
0200
0000
,
0000
0000
0301
0010
0001
0000
0100
0010
2000
0000
0010
3200
0000
0001
0320
0000
,
0000
0000
0031
0000
1001
0000
0000
0000
0100
0001
0100
0000
0010
1000
0010
0000
,
0001
0100
0001
0000
1000
0010
1000
0000
0101
0000
0000
0011
0000
0000
1020
0000
,
0000
0000
1030
0100
0002
0000
0000
0000
0003
0000
0000
0000
0000
0000
0000
0000
;
