#TITLE:On your mark;
#SUBTITLE:(104期 Ver.);
#ARTIST:蓮ノ空女学院スクールアイドルクラブ;
#TITLETRANSLIT:On your mark;
#SUBTITLETRANSLIT:(104th Class Ver.);
#ARTISTTRANSLIT:Hasunosora Jogakuin School Idol Club;
#GENRE:;
#CREDIT:;
#MUSIC:On your mark.ogg;
#BANNER:On your mark-BN.png;
#BACKGROUND:On your mark-BG.png;
#CDTITLE:cdtitle.png;
#SAMPLESTART:49.821;
#SAMPLELENGTH:12.565;
#SELECTABLE:YES;
#OFFSET:0.341;
#BPMS:0.000=154.000
,129.000=308.000
,129.500=154.000
,129.750=77.000
,130.000=308.000
,130.500=154.000
,130.750=77.000
,131.000=308.000
,131.500=154.000
,131.750=77.000
,132.000=154.000
,193.000=308.000
,193.750=154.000
;
#STOPS:193.000=0.146;
#BGCHANGES:1.000=On your mark-BGA.avi=1.000=0=0=0=StretchNoLoop==CrossFade_Fastest==,
99999.000=-nosongbg-=1.000=0=0=0=StretchNoLoop====
;
#FGCHANGES:;

//--------------- dance-single - tomori ----------------
#NOTES:
     dance-single:
     tomori:
     Beginner:
     3:
     0,0,0,0,0:
0000
0000
0000
0000
,
0000
0000
0000
0000
,
0000
0000
0000
0000
,
0000
0000
0000
0000
,
0000
0000
0000
0000
,
0001
0100
0010
0000
,
1000
0010
0100
0000
,
0000
1000
0010
0100
,
0001
0000
1001
0000
,
1000
0000
0100
0000
,
1000
0000
0000
0000
,
0010
0000
0010
0000
,
0010
0000
0000
0000
,
0001
0000
0010
0000
,
0001
0000
0000
0000
,
0100
0000
0100
0000
,
0100
0000
0010
0010
,
0020
0000
1030
0000
,
0002
0000
0103
0000
,
0020
0000
0031
0000
,
2000
0000
3100
0000
,
1000
0000
1000
0000
,
0001
0000
0001
0000
,
0220
0000
0000
0000
,
0330
0000
0000
0000
,
0010
0000
0100
0000
,
0001
0000
0000
0000
,
0100
0000
0010
0000
,
1000
0000
0000
0000
,
2000
0000
3020
0000
,
0230
0000
0302
0000
,
0013
0000
0000
0000
0100
0000
0000
1000
,
0000
0000
2002
0000
0000
0000
0000
3003
,
0001
0100
0001
0000
,
0100
0010
1000
0000
,
2000
0000
0010
3010
,
0200
0000
0001
0301
,
1000
0010
1000
0000
,
0010
0100
0001
0000
,
0020
0000
0001
0031
,
0200
0000
0010
0310
,
0001
0000
0100
0100
,
1000
0000
0000
0000
,
0010
0000
0100
0000
,
0010
0000
1000
1000
,
1000
0000
0001
0001
,
0001
0000
0100
0000
,
0010
0000
0000
0000
0100
0000
0000
0020
,
0000
0000
0000
0000
0000
0000
0000
0000
0000
0000
0000
0000
0000
0000
0000
0000
0000
0000
0000
0000
0000
0000
0000
0000
0000
0000
0000
0000
0000
0000
0000
0000
0000
0000
0000
0000
0000
0000
0000
0000
0000
0000
0000
0000
0000
0000
0000
0030
0000
0000
0000
0000
0000
0000
0000
0000
0000
0000
0000
0000
0000
0000
0000
0000
0000
0000
0000
0000
0000
0000
0000
0000
0000
0000
0000
0000
0000
0000
0000
0000
0000
0000
0000
0000
0000
0000
0000
0000
0000
0000
0000
0000
0000
0000
0000
0000
0000
0000
0000
0000
0000
0000
0000
0000
0000
0000
0000
0000
0000
0000
0000
0000
0000
0000
0000
0000
0000
0000
0000
0000
0000
0000
0000
0000
0000
0000
0000
0000
0000
0000
0000
0000
0000
0000
0000
0000
0000
0000
0000
0000
0000
0000
0000
0000
0000
0000
0000
0000
0000
0000
0000
0000
0000
0000
0000
0000
0000
0000
0000
0000
0000
0000
0000
0000
0000
0000
0000
0000
0000
0000
0000
0000
0000
0000
0000
0000
0000
0000
0000
0000
0000
0000
0000
0000
0000
0000
0000
0000
0000
0000
0000
0000
,
1000
0100
1000
0000
,
0010
0010
0010
0000
,
0001
0100
0001
0000
,
0100
0100
0100
0000
,
2000
0000
0000
0000
,
3020
0000
0000
0000
,
0030
0100
0000
0001
,
0000
1000
0000
0020
,
0000
0000
0000
0000
,
0000
0000
0000
0000
,
0000
0000
0000
0000
,
0030
0000
0000
0000
;

//--------------- dance-single - tomori ----------------
#NOTES:
     dance-single:
     tomori:
     Easy:
     6:
     0,0,0,0,0:
0000
0000
0000
0000
,
0000
0000
0000
0000
,
0000
0000
0000
0000
,
0000
0000
0000
0000
,
0000
0000
0000
0000
,
0100
0100
0100
0000
0001
0000
1000
0000
,
0010
0010
0010
0000
1000
0000
0001
0000
,
0000
0001
0010
0100
,
1000
0100
0020
0000
,
0031
0001
0001
0000
,
0100
0001
0100
0000
,
0010
0010
0010
0000
,
1000
0010
1000
0000
,
0100
0100
0100
0000
,
0001
0100
0001
0000
,
1000
1000
1000
0000
,
0010
1000
0020
0130
,
0000
0100
0000
0010
,
0000
1000
0000
0001
,
0000
1000
0000
0010
,
0200
0300
0002
0003
,
0000
0010
0000
0001
,
0000
1000
0000
0100
,
0020
0030
0200
0300
,
2000
3000
0001
0001
,
0101
0000
1010
0000
,
1001
0000
0000
0000
,
1100
0000
0011
0000
,
1001
0000
0000
0000
,
0200
0300
0002
0003
2000
3000
0020
0030
,
0100
0100
0100
0000
0002
0000
1003
0000
,
0010
0010
0010
0000
0200
0000
0000
0300
,
0000
0001
0010
0100
,
2000
3010
0020
0130
,
0200
0301
0002
0013
,
0001
0100
0001
0000
0010
0000
0100
0000
,
1000
0010
1000
0000
0100
0000
0010
0000
,
0002
0103
0200
0310
,
0020
1030
2000
3100
,
1000
0010
0100
0001
,
1001
0000
0001
0100
,
1000
0000
0010
0001
,
1000
0000
1000
0100
,
0010
0001
0010
0100
,
1000
0000
1000
0100
,
0001
0000
0010
1000
,
0001
0000
0100
0010
,
0100
0000
0100
0000
0002
0000
0000
1003
,
0000
0000
0000
0000
2002
0000
0000
3003
0000
0000
0000
0000
0000
0000
0000
0000
,
0001
0010
0001
0000
0100
0000
0101
0000
,
1000
0100
1000
0000
0010
0000
1010
0000
,
0001
0100
0001
0000
0010
0000
0100
0000
,
1000
0010
1000
0000
0100
0000
0010
0000
,
1001
0000
1000
0000
0010
1000
0010
0000
,
1001
0000
0001
0000
0100
0001
0200
0300
,
0000
0010
1000
0100
,
0001
0010
1000
2002
,
0000
0000
0000
0000
,
0000
0000
0000
0000
,
0000
0000
0000
0000
,
3003
0000
0000
0000
;

//--------------- dance-single - tomori ----------------
#NOTES:
     dance-single:
     tomori:
     Medium:
     10:
     0.117938,0.157174,0.084673,0.148178,0.047629,78,70,8,14,0,1,0.117938,0.157174,0.084673,0.148178,0.047629,78,70,8,14,0,1:
0000
0000
0000
0000
,
0000
0000
0000
0000
,
0000
0000
0000
0000
,
0000
0000
0000
0000
,
0000
0000
0000
0000
,
0001
0000
0010
0000
0001
0000
0100
0000
0010
0000
0000
1010
0000
0000
0101
0000
,
0000
1000
0100
0000
0010
0000
0001
0000
0010
0000
0000
0011
0000
0000
1100
0000
,
0000
0001
0100
0100
0010
1000
0001
0001
,
0110
1001
0220
0330
,
1000
0000
0010
0000
1000
0000
0000
0000
0001
0000
0000
0010
0000
0000
0001
0000
,
0000
0000
0100
0000
0001
0000
0100
0000
0010
0000
0000
1000
0000
0000
0010
0000
,
0100
0000
0000
0000
0100
0000
0001
0000
0100
0000
0000
0010
0000
0000
1000
0000
,
0001
1000
1000
1000
0020
0000
0131
0000
,
0001
0000
0100
0000
0001
0000
0000
0000
1000
0000
0000
0010
0000
0000
0100
0000
,
0000
0000
0001
0000
0001
0000
0001
0000
1000
0000
0000
0010
0000
0000
0100
0000
,
0001
0000
0000
0000
0010
0000
0000
0000
0010
0000
0000
0001
0000
0000
1000
0000
,
0001
0100
0100
0100
0020
0000
1031
0000
,
0000
0010
0001
0100
0002
0000
0203
0000
,
0301
0100
0010
1000
0200
0000
2300
0000
,
3010
0100
0001
0010
0001
0100
0010
0000
,
2000
3200
0320
0032
,
0103
0001
0100
0000
0010
1000
0010
0000
,
0100
0001
1000
0000
0001
1000
0010
0000
,
0100
0100
0100
0000
0010
0010
0010
0000
,
1001
0000
0000
0000
0010
0100
0020
0000
,
0130
0000
0000
0001
0000
0000
1000
0000
0010
0000
0000
0100
0000
0000
0001
0000
,
1000
0000
0000
0000
0010
1000
0100
0000
,
0010
0002
0023
0230
,
2300
0000
3000
0000
0001
0100
0010
0000
,
1001
1001
1010
1010
,
1001
1001
0101
0101
,
0000
0000
1000
0000
1000
0000
0010
0000
0010
0000
0000
0100
0000
0000
0001
0000
,
0000
0110
1001
0110
,
1000
0000
1000
0000
1000
0000
0000
0000
0002
0000
0000
0010
0000
0000
0103
0000
,
0000
0010
1000
0010
0100
0010
1000
0000
,
0002
0013
2000
3010
,
0002
0103
2000
3100
,
0001
0000
0001
0000
0001
0000
0000
0000
0200
0000
0000
0010
0000
0000
0301
0000
,
0000
1000
0010
0100
0010
1000
0001
0000
,
0100
0000
0100
0000
0100
0000
0000
0000
0001
0000
0000
0010
0000
0000
1001
0000
,
0000
0000
0000
0000
1000
0100
1000
0100
,
0020
0000
0030
0000
0001
0010
0001
0010
,
0200
0000
0300
0000
1000
0010
0100
0001
,
0010
0000
0000
0000
0001
0000
0000
0000
0100
0000
0000
1000
0000
0000
0100
0000
,
0000
0000
0000
0000
0001
0001
0010
0100
,
2000
0000
3000
0000
1000
1000
0100
0010
,
0002
0000
0003
0000
0100
0010
0100
0010
,
2000
0000
0000
0000
3001
0000
0000
0000
0002
0000
0000
0100
0000
0000
1003
0000
,
0000
2002
3003
0000
,
0100
0010
1000
0010
0200
0000
0310
0000
,
0001
0100
0010
0100
0002
0000
1003
0000
,
1000
0100
0010
0100
2000
0000
3010
0000
,
0100
0001
0100
0010
0200
0000
0301
0000
,
1000
1000
1000
0000
1010
0000
1100
0000
,
0001
0001
0001
0000
0101
0000
0011
0000
,
0000
0001
0010
0100
2000
0000
3200
0000
,
0310
0110
1001
2002
,
0000
0000
0000
0000
,
0000
0000
0000
0000
,
0000
0000
0000
0000
,
3003
0000
0000
0000
;

//--------------- dance-single - tomori ----------------
#NOTES:
     dance-single:
     tomori:
     Hard:
     15:
     0.694017,0.825563,0.275188,0.529207,0.566251,459,433,26,50,10,1,0.694017,0.825563,0.275188,0.529207,0.566251,459,433,26,50,10,1:
0000
0000
0000
0000
,
0000
0000
0000
0000
,
0000
0000
0000
0000
,
0000
0000
0000
0000
,
0000
0000
0000
0000
,
1001
0000
1000
0000
0100
0000
0001
0000
0100
0000
1000
0010
0000
0010
1000
0000
,
0001
0100
0010
0000
1000
0000
0010
0000
0100
0001
0000
0100
0001
0000
4040
0000
,
3030
0001
0010
1000
0100
0001
1000
0220
,
0331
0100
1000
0100
0001
0010
0200
0000
0000
0300
0000
0000
,
1000
0100
1000
0000
0100
0000
0010
0001
0010
0000
0001
0010
0000
0000
2000
0000
,
0000
0000
3010
0000
0100
0000
0001
0000
0010
0000
0000
1100
0000
0000
0040
0000
,
0031
0000
0000
0000
1000
0000
0100
1000
0100
0000
0000
1000
0000
0000
0001
0100
,
0001
0100
0100
0100
0020
1030
0020
1030
,
0001
0100
0001
0000
0010
0000
0100
1000
0100
0000
0000
0001
0000
0000
0200
0000
,
0000
0000
0310
0000
0001
0000
1000
0000
0100
0000
0000
0011
0000
0000
0400
0000
,
1300
0000
0000
0000
1000
0000
0001
1000
0100
0000
0000
0100
0000
0000
0002
0000
,
0013
0100
1000
0000
1000
0000
1000
0000
0100
0001
0100
1000
0020
0000
0000
0000
,
1030
1000
0001
0001
0100
0100
0010
0010
,
0010
1000
0001
0000
1100
0000
1000
0000
0010
0000
0100
0000
0101
0000
0000
0000
,
1000
0100
0001
0100
1000
0010
0001
0010
,
2000
0000
3000
0100
0020
0000
0030
0001
0200
0010
0300
1000
0002
0000
0403
0000
,
0310
0000
1000
0100
1000
0000
0001
0000
0100
0000
0010
1000
0001
0000
0100
0000
,
0010
1000
0001
0100
1000
0100
0001
0000
,
2000
0000
0020
3000
0200
0030
0000
0300
0002
0000
0200
0003
0020
0300
0000
0030
,
1MM1
0000
0000
0000
1100
0000
0100
0000
1000
0010
0000
1000
0010
0000
0100
0001
,
0100
0000
0000
0001
0000
0000
0011
0000
0100
0000
0000
1000
0000
0000
0010
0000
,
0110
0000
0000
0001
0000
0000
0100
0000
0010
0000
0100
0000
1000
0000
0100
0000
,
0020
0000
0000
1030
0010
0000
0100
0000
0200
0000
0000
0301
0100
0000
0040
0000
,
1030
0000
0000
1000
0010
0000
0100
0000
0001
0010
0001
0000
0100
0001
0100
0000
,
0001
1000
0001
1000
0010
0100
0010
0100
,
0010
1000
0010
0000
0100
0000
0001
0000
1000
0000
0100
0000
0020
0000
0000
0000
,
0031
1000
0001
1000
0001
0000
0100
0000
0010
1000
0000
0001
0100
0001
0200
0000
,
0300
1M1M
M1M1
1M1M
,
0001
1000
0001
0000
0100
0000
0001
0000
0010
0000
0000
0100
0000
0000
2000
0000
,
0000
0000
3001
0000
0100
0000
0001
0000
1000
0010
1000
0000
0002
0000
0000
0000
,
0013
0000
0100
1000
0100
0000
1000
0000
0010
0100
0000
0010
0100
0000
0002
0000
,
0000
0000
1000
0000
1003
0000
0010
0000
0010
0000
0100
0001
1000
0001
0100
0000
,
0001
0010
0001
0000
1000
0000
0100
0000
0010
0000
0000
0001
0000
0000
2000
0000
,
0000
3010
0100
0010
1000
0001
0100
0000
,
0102
0000
0000
0000
0013
0000
0000
0000
2100
0000
0000
3020
0000
0000
0230
0000
,
0000
0000
0301
0000
0010
0001
0010
0000
0100
1000
0100
0000
0001
0010
0100
1000
,
0200
0000
0300
0000
1000
0010
1000
0000
0010
0100
0010
0000
1000
0100
0010
0001
,
0020
0000
0031
1000
0010
0100
0010
0100
,
0002
0000
0000
0000
0103
0000
0000
0000
1010
0000
0000
1100
0000
0000
2000
0000
,
0000
0000
0001
0000
3001
0100
0010
0000
1000
0100
1000
0000
0001
0010
0100
1000
,
0200
0000
0300
0000
1000
0010
0100
0000
0001
0100
0001
0000
1000
0100
0010
0001
,
0020
0000
0130
1000
0100
0001
0100
1000
,
0020
0000
0100
0000
0130
0000
0000
0000
0001
0100
0000
0010
1000
0000
0202
0000
,
0000
0000
0000
0000
0000
0000
0000
0000
0000
0000
0000
0000
0000
0000
0000
0000
0000
0000
0000
0000
0000
0000
0000
0000
0000
0000
0000
0000
0000
0000
0000
0000
0000
0000
0000
0000
0000
0000
0000
0000
0000
0000
0000
0000
0000
0000
0000
0303
0M0M
0000
0000
0000
0000
0000
0000
0000
0000
0000
0000
0000
0000
0000
0000
0000
0000
0000
0000
0000
0000
0000
0000
0000
0000
0000
0000
0000
0000
0000
0000
0000
0000
0000
0000
0000
1000
0000
0000
0000
0000
0000
0000
0000
0000
0000
0000
0000
0040
0000
0000
0000
0000
0000
0000
0000
0000
0000
0000
0000
0100
0000
0000
0000
0000
0000
0000
0000
0000
0000
0000
0000
0000
0000
0000
0000
0000
0000
0000
0000
0000
0000
0000
0000
1030
0000
0000
0000
0000
0000
0000
0000
0000
0000
0000
0000
0100
0000
0000
0000
0000
0000
0000
0000
0000
0000
0000
0000
0010
0000
0000
0000
0000
0000
0000
0000
0000
0000
0000
0000
0001
0000
0000
0000
0000
0000
0000
0000
0000
0000
0000
0000
1000
0000
0000
0000
0000
0000
0000
0000
0000
0000
0000
0000
,
0101
0000
0001
0000
0100
0000
1000
0000
0100
0000
0001
0010
0000
0010
0100
0000
,
1000
0100
1000
0000
0010
0100
0010
0100
0001
0010
0000
0010
0001
0000
0004
1000
,
0003
0000
0010
0000
1000
0000
0010
0000
0001
0000
1000
0010
0100
0000
0001
0100
,
0010
0100
0001
0000
2000
0000
3010
0000
0100
0001
0000
0001
0100
0010
1000
0000
,
0101
0000
0100
0000
0110
0000
0010
0000
1010
0000
1000
0001
0100
0000
0010
1000
,
0001
0010
0001
0000
0101
0000
0010
0000
1000
0001
0000
0001
1000
0000
44MM
0000
,
3300
0001
0010
1000
0100
0001
0010
0004
,
0013
0001
0100
1000
0100
0001
0010
0000
0000
2002
0000
0000
,
0000
0000
0000
0000
,
0000
0000
0000
0000
,
0000
0000
0000
0000
,
3003
0000
0000
0000
;
