#TITLE:無敵的ハピネス!;
#SUBTITLE:;
#ARTIST:SOS団;
#TITLETRANSLIT:Mutekiteki Happiness!;
#SUBTITLETRANSLIT:;
#ARTISTTRANSLIT:SOS Brigade;
#GENRE:;
#CREDIT:;
#BANNER:Mutekiteki Happiness!-BN.png;
#BACKGROUND:Mutekiteki Happiness!-BG.png;
#LYRICSPATH:;
#CDTITLE:cdtitle.png;
#MUSIC:Mutekiteki Happiness!.ogg;
#OFFSET:-0.296000;
#SAMPLESTART:31.025999;
#SAMPLELENGTH:10.378000;
#SELECTABLE:YES;
#BPMS:0.000000=185.000000
;
#STOPS:
;
#BGCHANGES:-0.800=Mutekiteki Happiness-BGA.mp4=1.000=0=0=1===CrossFade_Fastest==,
99999=-nosongbg-=1.000=0=0=0 // don't automatically add -songbackground-
;
#KEYSOUNDS:;
#ATTACKS:;

//---------------dance-single - ----------------
#NOTES:
     dance-single:
     :
     Hard:
     15:
     0.742909,0.932119,0.653760,0.750338,0.163440,700.000000,612.000000,88.000000,101.000000,22.000000,8.000000,0.742909,0.932119,0.653760,0.750338,0.163440,700.000000,612.000000,88.000000,101.000000,22.000000,8.000000:
0000
0000
0000
0000
,
0000
0000
0000
0000
,
1000
0010
1000
0010
0000
1010
0000
0101
,
0000
0001
0100
0001
0000
0000
1000
0010
,
0000
0010
0100
0000
0100
0001
0000
0002
,
0000
0103
0010
1000
1100
0000
1010
0000
,
1001
0000
0001
0000
0100
0010
1000
0200
,
0000
1300
0010
0100
0001
0000
0011
0000
,
1000
0100
1000
0010
0000
0010
0100
0001
,
0000
0001
0100
1000
0000
1000
0100
0002
,
0000
0103
0001
2000
0000
3010
1000
0020
,
0000
0130
0001
0200
0000
0310
1000
0100
,
0010
0000
0001
0000
0010
0000
0001
0000
0000
0000
0001
0100
0010
0000
1100
0000
,
0000
1010
0000
0011
0000
0001
0100
0020
,
0000
1030
0010
0200
0000
0310
1000
0002
,
0000
0000
0103
0000
0001
0000
2000
0000
3010
0000
0100
0000
0010
0000
1000
0100
,
1000
0000
0000
0000
1001
0000
0001
0100
0001
0000
0000
0000
1001
0000
1000
0010
,
1000
0000
0000
0000
1001
0000
0001
0010
0001
0000
0100
0000
0010
0000
1000
0100
,
1000
0000
0000
0000
0110
0000
0001
0100
0001
0000
0000
0000
0110
0000
1000
0010
,
1000
0000
0000
0000
0110
0000
0001
0010
0001
0000
0010
0000
0100
0000
1000
0000
,
0010
0100
0001
0020
0000
0031
1000
0200
,
0000
0310
0001
2000
0000
3010
0100
0001
,
0000
0000
0001
0100
0010
0000
1000
0000
0100
0000
1000
0000
0010
0000
1010
0000
,
0000
0100
0101
0000
M000
00M0
M001
0200
,
0000
0310
1000
0100
1000
0010
0100
0002
,
0000
0103
0010
1000
0001
0100
0010
2000
,
0000
0000
3010
0100
0010
0000
1000
0000
0100
0000
0010
0000
0001
0000
0010
0000
,
0001
0002
0100
0200
0303
0010
1000
1010
,
0000
0000
0100
0000
0001
0000
0101
0000
0000
0000
1000
0100
1000
0000
1100
0000
,
0000
0000
0001
0010
0001
0000
0011
0000
0000
0000
0100
0000
0010
0000
2000
0000
,
0000
3010
0100
0002
0000
1003
0100
0020
,
0000
0031
0010
0200
M300
0000
1000
0200
,
0000
0301
0100
1000
0010
0100
0001
0200
,
0000
1300
0100
0001
0010
0001
0100
0020
,
0000
0000
1030
0100
1000
0000
0100
0000
0020
0000
0000
0000
0031
0000
2002
0000
,
0M00
00M0
0M00
30M3
0M00
0010
0010
0101
,
0000
0100
0100
1010
0000
0100
0001
0011
,
0000
0001
1000
1100
0000
0010
0100
0002
,
0000
0103
0001
0100
0010
0100
1000
0100
,
0010
0000
1000
0001
1000
0000
0100
0000
0011
0000
0000
0101
0000
0000
1010
0000
,
2100
0000
0100
0100
0000
0010
0000
0001
,
0000
0001
0000
0010
0000
000M
010M
0000
,
3002
0000
0010
0010
0000
1000
0000
0100
,
0000
0010
0010
0010
0000
M000
M000
0000
,
1003
0000
1000
0010
0000
0010
0000
0100
,
0000
0100
0001
0010
0000
0010
0001
0000
,
0101
1000
0010
1010
0000
0001
0100
1001
,
0000
1000
0001
0220
0000
0000
0330
0000
,
2000
0000
3010
0020
0000
0230
0000
0320
,
0000
1030
0001
2000
0000
0000
3001
0100
,
0002
0000
0103
0020
0000
0230
0000
0320
,
0000
1030
0100
0002
0000
0000
0103
1000
,
1010
0000
0010
1000
0001
0100
0101
0000
,
0001
0100
0010
1000
0110
0000
0010
1001
,
0000
1000
1000
0010
0010
0100
0100
0001
,
0002
0100
0103
0010
1000
1000
0000
1200
,
0000
0010
0310
0001
0100
0100
0021
0000
,
0130
2010
0000
3001
0110
0220
0000
0330
,
0001
0000
0010
0001
0010
0000
0100
0010
0100
0000
1000
0100
1000
0000
0001
0000
,
0001
0000
0000
0001
1000
0000
0000
1000
,
0010
0000
0000
0010
1000
0100
0001
0010
,
1000
0000
0000
1000
0001
0000
0000
0001
,
0200
0000
0000
0301
0010
1000
0100
0001
,
1000
0010
0100
0020
0000
1030
0001
0200
,
0000
0310
0100
0001
2002
0000
3003
0000
,
0001
0100
0010
2000
0000
3010
0100
0002
,
0000
1003
0010
0100
0001
0001
1000
1000
,
0000
1001
0100
0000
0110
0000
1010
0000
,
0001
1100
0101
0011
,
1000
0000
0010
0100
0010
0000
1000
0000
0001
0010
0001
0000
0100
0000
0020
0000
,
0000
1030
0202
0000
0303
0000
1000
0200
,
0000
1300
0010
0100
0101
00M0
M000
0120
,
0000
0130
0001
1000
0100
00M0
000M
0102
,
0000
0000
1003
0100
1000
0000
0010
0000
0100
0000
0010
0000
0100
0000
0001
0000
,
0020
0000
0230
0000
2300
0000
3002
0000
0013
0000
0100
1000
0100
0000
2001
0000
,
0000
0000
3001
0010
0001
0000
0120
0000
0000
0000
1030
0010
0100
0000
0021
0000
,
0000
0000
0031
0100
0010
0000
2100
0000
0000
0000
3001
0000
0100
0000
0202
0000
,
0000
0313
1000
2020
0000
3031
0100
0022
,
0000
0000
1033
0000
0010
0000
2200
0000
0000
0000
3301
0010
0001
0000
0020
0000
,
0000
1030
0010
0001
0100
0010
1000
0020
,
0000
0031
0010
1000
0100
1000
0010
0200
,
0000
0000
0301
0010
0001
0000
0010
0000
0200
0000
0000
0000
1300
0000
2002
0000
,
00M0
0M00
00M0
3M03
00M0
1000
0010
2200
,
0000
3301
0010
0202
0000
1303
0100
0022
,
0000
0133
0001
2020
0000
3130
0110
0000
,
0001
0000
0010
0000
1000
0000
0010
0000
0001
0000
0010
0000
0001
0100
0002
0000
,
0000
0000
1003
0010
1000
0000
0100
0000
1001
0000
0000
0110
0000
0000
1010
0000
,
0100
0000
0010
1000
0100
0000
0010
0001
0100
0000
0001
1000
0010
0000
1000
0001
,
0100
0000
0010
1000
0100
1000
0020
0000
0000
0000
0130
0001
0010
0001
0200
0000
,
0000
0310
1000
0010
0001
0010
1000
0100
,
0001
0000
0100
1000
0100
0000
0010
0000
0011
0000
0000
0101
0000
0000
0110
0000
,
2010
0000
3020
0000
,
0230
0000
0302
0000
,
1003
0010
1000
0010
0000
1010
0000
0101
,
0000
0001
0100
0001
0000
0000
1010
0010
,
0000
0010
0100
0000
0100
0001
0000
1002
,
0000
0103
0010
1000
1100
0000
1010
0000
,
1001
0000
0001
0000
0100
0010
1000
0200
,
0000
0000
1300
0010
0100
0000
0010
0000
0001
0000
0000
0000
1100
0000
1000
0000
,
0000
0000
0010
0001
0010
0000
0101
0000
0000
0000
0010
1000
0010
0000
0110
0000
,
0000
1001
1001
1001
0000
0000
0000
0000
;

//---------------dance-single - ----------------
#NOTES:
     dance-single:
     :
     Medium:
     10:
     0.517914,0.521986,0.349167,0.326880,0.011144,488.000000,441.000000,47.000000,44.000000,0.000000,0.000000,0.517914,0.521986,0.349167,0.326880,0.011144,488.000000,441.000000,47.000000,44.000000,0.000000,0.000000:
0000
0000
0000
0000
,
0000
0000
0000
0000
,
0001
0100
0001
0100
0000
0100
0000
0010
,
0000
0010
1000
0010
0000
0000
0000
1100
,
0000
0000
1001
0000
0001
0100
0000
0010
,
0000
1000
0100
1000
0100
0000
0010
0000
,
1001
0000
0110
0000
0100
0001
0100
0002
,
0000
1003
0010
1000
0010
0000
0000
0000
,
0110
0000
0100
0001
0000
0000
0001
1000
,
0000
0000
1000
0010
0000
0010
0100
0002
,
0000
0103
0000
0200
0000
0310
0000
0020
,
0000
1030
0000
2000
0000
3001
0000
0001
,
0100
0000
0100
0010
0000
0010
1000
0010
,
0000
0110
0000
1001
0000
2000
0000
3010
,
0000
0200
0000
0301
0000
0020
0000
0130
,
0000
2000
0000
3001
0100
0000
0100
0001
,
0100
0000
0010
1000
0010
0000
1000
0100
,
1000
0000
0001
0010
0001
0000
1000
0010
,
1000
0000
0001
0100
0001
0000
0100
1000
,
0100
0000
0010
0001
0010
0000
1001
0000
,
0010
0000
0010
1000
0000
1000
0001
0100
,
0000
0100
0001
0010
0000
0010
0001
1000
,
0000
0001
1000
0010
0200
0000
0300
1001
,
0000
0010
0010
0000
0000
0000
1000
0200
,
0000
1300
0010
0000
1001
0000
0010
0002
,
0000
0103
0010
0000
1001
0000
0010
2000
,
0000
3001
0100
0000
1001
0000
0100
0020
,
0100
0000
1000
0000
0130
0000
0000
0101
,
0000
0001
0100
0001
0000
0000
0000
1010
,
0000
1000
0010
1000
0000
0000
0000
1001
,
0000
0001
0010
0001
0000
1000
0100
1000
,
0000
0010
0100
0010
0000
0000
0100
0002
,
0000
0103
0001
0000
1001
0000
0010
0200
,
0000
0310
0100
0000
1001
0000
0010
0001
,
0000
0100
0010
0100
0010
0000
1000
0200
,
1000
0000
0010
0000
1300
0000
0000
1010
,
0000
0100
0000
1010
0000
0000
0000
0101
,
0000
0010
0000
0101
0000
0001
1000
0002
,
0000
0100
0010
0103
,
0000
0000
0010
0000
1000
0000
0100
0000
1000
0000
0000
0010
0000
0000
0100
0000
,
0002
0000
0000
0100
0000
0100
0000
0100
,
0000
0000
0000
0000
,
0203
0000
0000
0010
0000
0010
0000
0010
,
0000
0000
0000
0000
,
0320
0000
0000
1000
0000
1000
0000
1000
,
0000
0000
0000
0000
,
1030
0000
0100
1000
0000
0010
1000
0001
,
0000
0001
1000
0002
0000
0000
0003
0000
,
0100
0000
0010
0100
0000
0100
0010
0000
,
1000
0001
0100
0000
,
0001
0000
0010
0001
0000
0001
1000
0000
,
0010
0100
0001
0000
,
1000
0000
0010
0100
0000
0100
0001
0000
,
0001
1000
0000
1000
0010
0000
0010
0100
,
0000
0100
0001
0000
0001
0000
0001
1000
,
0100
0000
0100
0000
0100
0000
1000
0010
,
0000
0010
1000
0000
1000
0000
1010
0000
,
0000
1001
0000
0000
0002
0200
0000
0000
,
0303
0000
0000
0000
0010
0100
0010
0000
,
1000
0000
0000
1000
0001
0000
0000
0001
,
0100
0000
0000
0100
0010
0000
0010
0000
,
1001
0000
0000
0100
0001
0000
0000
0001
,
0010
0000
0000
0010
0100
0000
1000
0000
,
1010
0000
1000
0001
0000
0100
0001
0200
,
0000
0010
0310
0000
,
1001
0000
0001
0100
0000
0010
1000
0020
,
0000
0000
0100
0000
0130
0000
0100
0001
,
0000
2000
0010
0000
0100
0000
0010
0000
,
0000
0001
0100
3001
,
0000
0100
0010
0100
0010
0000
1000
0001
,
0000
1000
0001
0000
0000
0000
0001
0200
,
0000
0310
1000
0000
1010
0000
1000
0020
,
0000
0130
0001
0000
0101
0000
0000
0200
,
0000
0310
1000
0001
0100
0000
0100
0020
,
1000
0000
0100
0000
1030
0000
0000
1001
,
0000
0010
0100
0001
0000
0000
0000
1001
,
0000
0100
0010
1000
0000
0000
0000
0110
,
0000
0001
1000
0001
0000
0010
0100
1000
,
0000
0001
0010
0100
0000
0000
1000
0200
,
0000
1300
0001
0000
0011
0000
0001
0020
,
0000
0031
0100
0000
1010
0000
0100
0020
,
0000
1030
0100
1000
0020
0000
0130
0002
,
1000
0000
0100
0000
0013
0000
0000
1001
,
0000
0100
0000
1010
0000
0000
0000
1001
,
0000
0010
0000
0101
0000
0001
0100
0000
,
1100
0000
0100
0000
0110
0000
0100
1000
,
0000
0000
1000
0000
0010
0000
0000
0000
0010
0000
0000
0100
0000
0000
0001
0000
,
0010
0001
0010
0000
0100
1000
0100
0000
,
0010
1000
0100
0000
0010
0001
0100
0002
,
0000
1000
0010
1003
,
0000
0000
1000
0000
0010
0000
0000
0000
0100
0000
0000
0001
0000
0000
0010
0000
,
0200
0000
2300
0000
,
3002
0000
0023
0000
,
0130
1000
0100
1000
0000
0010
0000
0210
,
0000
0301
0100
0001
0000
0000
2002
0000
,
3003
0000
1100
0000
1100
0000
0000
0010
,
0000
0010
1000
0100
1000
0000
0010
0000
,
1001
0000
0101
0000
0101
0000
0100
0010
,
0000
0010
0100
0000
0110
0000
0010
1000
,
0000
1000
0100
1000
0000
0001
0100
0001
,
0000
0010
0010
0010
0000
0000
0000
0000
;

//---------------dance-single - ----------------
#NOTES:
     dance-single:
     :
     Easy:
     6:
     0.301409,0.372847,0.297164,0.156011,0.000000,284.000000,244.000000,40.000000,21.000000,0.000000,0.000000,0.301409,0.372847,0.297164,0.156011,0.000000,284.000000,244.000000,40.000000,21.000000,0.000000,0.000000:
0000
0000
0000
0000
,
0000
0000
0000
0000
,
1000
0000
0000
0010
0000
0010
0000
0100
,
0000
0001
0000
0001
0000
0000
0000
1000
,
0000
0010
0010
0000
,
0100
0001
0100
0001
,
0000
0010
0010
0000
,
1000
0100
1000
0100
,
0010
0000
0000
0001
0000
0000
0000
0100
,
0000
0000
0000
0010
0000
0000
0000
0100
,
0000
0100
0000
0010
0000
0000
0000
1000
,
0000
1000
0000
0001
0000
0000
0000
0000
,
0001
0000
0100
0000
0001
0000
0000
1000
,
0000
0010
0000
1000
0000
0010
0000
0200
,
0000
0000
0000
0301
0000
0000
0000
0002
,
0000
0000
0000
1003
0000
0000
0000
0000
,
1001
0000
0100
0000
,
1001
0000
0010
0010
,
1100
0000
1000
0000
,
0101
0000
0001
0001
,
1000
0000
0000
0010
0000
0000
0000
0100
,
0000
0000
0000
0001
0000
0000
0000
1000
,
0000
0010
0010
0000
,
0100
0000
0100
0000
0000
0000
0000
0001
,
0000
0000
1001
0000
1000
0000
0000
1000
,
0000
0000
1010
0000
0010
0000
0000
0100
,
0000
0101
0001
0100
,
0010
0000
0100
0000
0001
0000
0000
0010
,
0000
0000
0000
1100
0000
0000
0000
0100
,
0000
0000
0000
0011
0000
0000
0000
1001
,
0000
0000
0000
1001
0000
0000
0000
0010
,
0000
0010
0000
0010
0000
0000
0000
1000
,
0000
0000
1001
0000
0001
0000
0000
0100
,
0000
0000
1010
0000
0010
0000
0000
0100
,
0000
0000
0101
0000
0001
0000
0000
0220
,
0000
0000
0000
0000
0330
0000
0000
1000
,
0000
0010
0000
1000
0000
0000
0000
0001
,
0000
0100
0000
0001
0000
0100
0000
0020
,
0000
0100
0100
0130
,
0000
0000
1000
0001
,
2000
0000
0000
0000
,
0000
0000
0000
3000
,
0010
0000
0010
0000
,
0100
0100
0100
0000
,
0001
0000
0001
0000
,
1000
1000
1000
0000
,
0010
0000
0000
0100
0000
0000
0000
0001
,
0000
1000
0000
0001
0000
0000
0000
0000
,
0200
0000
0000
0000
,
0310
0000
0010
0000
,
2000
0000
0000
0000
,
3100
0000
0100
0000
,
0002
0000
0013
0020
,
0000
0000
0130
0000
0200
0000
0000
1300
,
0000
1000
0010
0010
,
1001
0000
0000
0000
0000
0000
0000
0110
,
0000
0000
0000
1001
,
0000
1001
0000
0000
2002
0000
0000
0000
,
3003
0000
0000
0000
,
0110
0000
0001
0000
,
0110
0000
1000
1000
,
0101
0000
0001
0000
,
1010
0000
1000
1000
,
0010
0000
0000
0010
0000
0000
0000
0200
,
0000
0000
0000
0300
,
0001
0000
0000
0001
0000
0000
0000
2000
,
0000
0000
3010
0000
,
1001
0000
0000
0000
,
1001
0000
0000
0000
,
0010
0000
0000
0000
0100
0000
0000
0001
,
0000
0000
1000
0000
0000
0000
0000
1000
,
0000
0000
1001
0000
0001
0000
0000
0001
,
0000
0000
0101
0000
0100
0000
0000
0010
,
0000
1010
1000
0010
,
0100
0000
0010
0000
1000
0000
0000
0100
,
0000
0000
0000
0011
0000
0000
0000
0010
,
0000
0000
0000
1100
0000
0000
0000
1001
,
0000
0000
0000
1001
0000
0000
0000
0100
,
0000
0100
0000
0100
0000
0000
0000
0001
,
0000
0000
1001
0000
1000
0000
0000
0010
,
0000
0000
0101
0000
0100
0000
0000
0010
,
0000
0000
1010
0000
1000
0000
0000
0220
,
0000
0000
0000
0000
0330
0000
0000
0001
,
0000
0100
0000
0001
0000
0000
0000
1000
,
0000
0010
0000
1000
0000
0010
0000
0000
,
0100
0100
0100
0000
,
0001
0001
0001
0000
,
1000
0010
1000
0010
,
0100
0001
0100
0001
,
2000
0000
0010
0010
,
3010
0000
0001
1000
,
0002
0000
0000
0000
,
0000
0000
0000
0003
,
0100
0000
0000
0010
0000
0010
0000
1000
,
0000
1000
0000
0001
0000
0000
0000
0001
,
0000
0100
0100
0000
,
0010
1000
0010
1000
,
0000
0100
0100
0000
,
0010
0000
0001
0000
0010
0000
0000
1001
,
0000
0000
0000
0110
0000
0000
0000
2002
,
0000
0003
0000
3000
0000
0000
0000
0000
;

//---------------dance-single - ----------------
#NOTES:
     dance-single:
     :
     Beginner:
     2:
     0.144337,0.223708,0.118865,0.208015,0.000000,136.000000,120.000000,16.000000,28.000000,0.000000,0.000000,0.144337,0.223708,0.118865,0.208015,0.000000,136.000000,120.000000,16.000000,28.000000,0.000000,0.000000:
// measure 0
0000
0000
0000
0000
,  // measure 1
0000
0000
0000
0000
,  // measure 2
1000
0000
0000
0000
0000
0000
0000
0001
,  // measure 3
0000
0000
0000
0000
0000
0000
0000
1001
,  // measure 4
0000
0000
0000
0000
,  // measure 5
0100
0000
0100
0000
,  // measure 6
1001
0000
0000
0000
,  // measure 7
0010
0000
0010
0000
,  // measure 8
1000
0000
0000
0000
0000
0000
0000
0010
,  // measure 9
0000
0000
0000
0000
0000
0000
0000
0100
,  // measure 10
0000
0000
0000
0000
0000
0000
0000
0001
,  // measure 11
0000
0000
0000
0000
,  // measure 12
0010
0000
0000
0000
0000
0000
0000
0001
,  // measure 13
0000
0000
0000
0000
0000
0000
0000
1000
,  // measure 14
0000
0000
0000
0000
0000
0000
0000
0100
,  // measure 15
0000
0000
0000
0000
,  // measure 16
1001
0000
0000
0000
,  // measure 17
0110
0000
0000
0000
,  // measure 18
1001
0000
0000
0000
,  // measure 19
0110
0000
0000
0000
,  // measure 20
0001
0000
0000
0000
0000
0000
0000
1000
,  // measure 21
0000
0000
0000
0000
0000
0000
0000
0001
,  // measure 22
0000
0000
0000
0000
0000
0000
0000
2000
,  // measure 23
0000
0000
3000
0000
0000
0000
0000
0010
,  // measure 24
0000
0000
0100
0000
,  // measure 25
0010
0000
0100
0000
,  // measure 26
0002
0000
0003
0000
,  // measure 27
2000
0000
0000
0000
3000
0000
0000
0001
,  // measure 28
0000
0000
0000
0100
0000
0000
0000
0010
,  // measure 29
0000
0000
0000
1000
0000
0000
0000
0010
,  // measure 30
0000
0000
0000
0100
0000
0000
0000
0002
,  // measure 31
0000
0000
0000
0003
0000
0000
0000
1000
,  // measure 32
0000
0000
0001
0000
,  // measure 33
1000
0000
0001
0000
,  // measure 34
0200
0000
0300
0000
,  // measure 35
0020
0000
0000
0000
0030
0000
0000
1000
,  // measure 36
0000
0000
0000
0100
0000
0000
0000
0010
,  // measure 37
0000
0000
0000
0001
0000
0000
0000
2002
,  // measure 38
0000
0000
0000
0000
,  // measure 39
3003
0000
0000
0000
,  // measure 40
0220
0000
0000
0000
,  // measure 41
0000
0000
0000
0330
,  // measure 42
0000
0000
0000
0000
,  // measure 43
0000
0000
0000
0000
,  // measure 44
1000
0000
0000
0000
,  // measure 45
1000
0000
0000
0000
,  // measure 46
0001
0000
0000
0000
,  // measure 47
0001
0000
0000
0000
,  // measure 48
0200
0000
0000
0000
,  // measure 49
0300
0000
0100
0000
,  // measure 50
0020
0000
0000
0000
,  // measure 51
0030
0000
0010
0000
,  // measure 52
2000
0000
0000
0000
,  // measure 53
3000
0000
1000
0000
,  // measure 54
0002
0000
0000
0000
,  // measure 55
0003
0000
0000
0000
0001
0000
0000
0100
,  // measure 56
0000
0000
0000
0010
,  // measure 57
0000
0100
0000
0000
1001
0000
0000
0000
,  // measure 58
0000
0000
0000
0000
,  // measure 59
0001
0000
0000
0000
,  // measure 60
0100
0000
0000
0000
,  // measure 61
0010
0000
0000
0000
,  // measure 62
0100
0000
0000
0000
,  // measure 63
0002
0000
0000
0003
0000
0000
0000
0200
,  // measure 64
0000
0000
0300
0000
,  // measure 65
0020
0000
0000
0030
0000
0000
0000
2000
,  // measure 66
0000
0000
3000
0000
,  // measure 67
0002
0000
0000
0000
,  // measure 68
2000
0000
0000
0000
,  // measure 69
3003
0000
0000
0000
0000
0000
0000
0110
,  // measure 70
0000
0000
0000
0000
0000
0000
0000
1000
,  // measure 71
0000
0000
0010
0000
,  // measure 72
0100
0000
0001
0000
,  // measure 73
2000
0000
3000
0000
,  // measure 74
0020
0000
0000
0000
0030
0000
0000
0100
,  // measure 75
0000
0000
0000
0100
0000
0000
0000
0001
,  // measure 76
0000
0000
0000
0001
0000
0000
0000
1001
,  // measure 77
0000
0000
0000
0000
0000
0000
0000
0110
,  // measure 78
0000
0000
0000
0000
0000
0000
0000
0001
,  // measure 79
0000
0000
0100
0000
,  // measure 80
0010
0000
1000
0000
,  // measure 81
0002
0000
0003
0000
,  // measure 82
0200
0000
0000
0000
0300
0000
0000
0010
,  // measure 83
0000
0000
0000
0010
0000
0000
0000
1000
,  // measure 84
0000
0000
0000
1000
0000
0000
0000
0000
,  // measure 85
0010
0000
0100
0000
,  // measure 86
0001
0000
1000
0000
,  // measure 87
0001
0000
1000
0000
,  // measure 88
0010
0000
0100
0000
,  // measure 89
2002
0000
0000
0000
,  // measure 90
3003
0000
0000
0000
,  // measure 91
0220
0000
0000
0000
,  // measure 92
0000
0000
0000
0000
,  // measure 93
0330
0000
0000
0000
0000
0000
0000
1000
,  // measure 94
0000
0000
0000
0001
0000
0000
0000
1001
,  // measure 95
0000
0000
0000
0000
,  // measure 96
0010
0000
0010
0000
,  // measure 97
1001
0000
0000
0000
,  // measure 98
0100
0000
0000
0000
0100
0000
0000
0001
,  // measure 99
0000
0000
0000
1000
0000
0000
0000
0001
,  // measure 100
0000
0000
0000
1000
0000
0000
0000
0000
;
