#TITLE:みらくりえーしょん;
#SUBTITLE:;
#ARTIST:みらくらぱーく!;
#TITLETRANSLIT:Mira-Creation;
#SUBTITLETRANSLIT:;
#ARTISTTRANSLIT:Mira-Cra Park!;
#MUSIC:Mira-Creation.ogg;
#BANNER:Mira-Creation-BN.png;
#BACKGROUND:Mira-Creation-BG.png;
#LYRICSPATH:;
#CDTITLE:cdtitle.png;
#SAMPLESTART:42.502;
#SAMPLELENGTH:10.105;
#OFFSET:-0.463;
#BPMS:0.000000=190.000000,
44.000000=380.000000,
48.000000=190.000000,
116.000000=380.000000,
120.000000=190.000000,
159.500000=380.000000,
160.000000=190.000000,
251.000000=380.000000,
255.000000=190.000000
;
#STOPS:44.000000=0.105000,
44.666667=0.105000,
45.333333=0.105000,
46.000000=0.105000,
46.666667=0.105000,
47.333333=0.105000,
116.000000=0.105000,
116.666667=0.105000,
117.333333=0.105000,
118.000000=0.105000,
118.666667=0.105000,
119.333333=0.105000,
131.500000=0.316000,
159.500000=0.026000,
159.666667=0.026000,
159.833333=0.026000,
251.000000=0.105000,
251.666667=0.105000,
252.333333=0.105000,
253.000000=0.105000,
253.666667=0.105000,
254.333333=0.105000
;
#TIMESIGNATURES:;
#BGCHANGES:-2=Mira-Creation-BGA.avi=1.000=0=0=0=StretchNoLoop==CrossFade_Fastest==,
99999=-nosongbg-=1.000000=0=0=0=StretchNoLoop====
;
#FGCHANGES:;
#ATTACKS:;
#SPEEDS:;
#SCROLLS:;

//---------------dance-single - tomori---------------
#NOTES:
     dance-single:
     tomori:
     Challenge:
     18:
     0,0,0,0,0,0,0,0,0,0,0,0,0,0,0,0,0,0,0,0,0,0:
// measure 0
0000
0000
0000
0000
,  // measure 1
0000
0000
0000
0000
,  // measure 2
0000
0000
0000
0000
,  // measure 3
0000
0000
0000
0000
,  // measure 4
1000
0000
0010
0000
0100
0001
0100
0000
0010
0000
1000
0000
0001
0100
0001
0000
,  // measure 5
0001
0000
0100
0000
0010
1000
0010
0000
0100
0000
0001
0000
1000
0010
1000
0000
,  // measure 6
1000
0010
0100
0001
0020
0000
0000
0000
0031
0100
0010
1000
0200
0000
0000
0000
,  // measure 7
1300
0000
0010
1000
0100
0000
0010
0001
0101
0000
1010
0000
0101
0000
0000
0000
,  // measure 8
1000
0001
1000
0000
0100
1000
0100
0000
0010
0100
0010
0000
0001
0010
0002
0000
,  // measure 9
0000
0000
0103
0000
0100
0001
1000
0000
1010
0000
1000
0000
0101
0000
0001
0000
,  // measure 10
1001
0000
0001
0100
0010
0100
0001
0010
0100
1000
0010
0100
0010
1000
0100
0010
,  // measure 11
0011
0000
1100
0000
0101
0000
1010
0000
0101
0000
1100
0000
,  // measure 12
0011
0000
0001
0100
0001
0000
0100
0000
0100
0001
0100
0000
0010
0000
0010
1000
,  // measure 13
0010
0000
1000
0000
1000
0010
1000
0000
0010
0100
0001
1000
0020
0000
0200
0000
,  // measure 14
2332
0000
0000
3000
2023
0000
0000
0030
3202
0300
2203
0300
3202
0300
0003
0000
,  // measure 15
1000
0010
0100
0001
0101
0000
0101
0000
1010
0000
1010
0000
0220
0000
0000
0330
,  // measure 16
1100
0000
1000
0100
1000
0000
0100
0000
0100
0010
0100
0000
0010
0000
0010
0001
,  // measure 17
0010
0000
0001
0000
0001
0000
0001
0000
0100
0010
1000
0100
2000
0000
0000
3000
,  // measure 18
2002
3003
2002
3003
2020
0000
3M3M
0000
2002
3003
2002
3003
0202
0000
M3M3
0000
,  // measure 19
1000
0100
0001
0100
1000
0000
1000
0001
0100
0010
0100
0001
1000
0010
0100
0001
,  // measure 20
0020
0000
0000
0030
0210
0000
2301
0000
0000
0000
3120
0000
0000
0000
0231
0000
,  // measure 21
0000
0000
0310
1000
0100
0000
0010
0001
0100
0000
0010
0100
0001
0000
0010
1000
,  // measure 22
0200
0000
0000
0300
0102
0000
2103
0000
0000
0000
3202
0000
0000
0000
1010
0000
,  // measure 23
0000
0303
0220
0000
0000
0000
1331
0000
0000
0000
0011
0000
1000
0100
1000
0100
,  // measure 24
1000
0000
0010
0000
0100
0001
0100
0000
0010
0000
1000
0000
0100
1000
0100
0000
,  // measure 25
1000
0000
0100
0000
0001
0000
0010
0001
0100
0010
1000
0100
2000
0000
0000
3000
,  // measure 26
1000
0010
0100
0010
1000
0100
1000
0010
0100
0001
0010
0001
0100
0010
0100
0010
,  // measure 27
0100
0001
1000
0010
0100
0001
1000
0010
0100
0010
1000
0010
0100
0000
0202
0000
,  // measure 28
0000
0000
0313
1000
1010
0000
0100
0001
0101
0000
0001
0100
1000
0100
0001
0010
,  // measure 29
0001
0000
0011
0000
0101
0000
1100
0000
1010
0000
1001
0000
,  // measure 30
1000
0000
0100
0000
1000
0000
0010
0000
0100
0000
0001
0000
0010
0001
0010
0000
,  // measure 31
0001
0000
0100
0000
0010
0000
0100
0001
0100
0000
0010
0000
1000
0010
1000
0000
,  // measure 32
0100
0000
0001
0000
0100
0000
1000
0010
0100
0010
1000
0001
0010
0001
M100
0000
,  // measure 33
0000
0000
02M2
0000
0000
0000
0313
1000
0010
0000
0100
0000
0110
0000
1000
0000
,  // measure 34
0010
0100
0010
0000
0100
0000
0001
0000
0100
0010
0100
0000
0101
0000
0001
0000
,  // measure 35
1000
0010
1000
0000
0010
0000
0100
0000
0001
0100
0001
0000
0100
0000
0100
0010
,  // measure 36
1000
0000
1000
0001
0100
0000
0100
0010
1000
0000
1000
0001
0010
0001
1000
0000
,  // measure 37
0010
0000
0110
0000
0001
0100
0001
0000
1000
0000
1010
0000
0001
0010
0001
0000
,  // measure 38
0100
0010
0100
0000
1000
0100
1000
0000
0010
0100
0010
0000
0001
0100
0001
0000
,  // measure 39
1000
0000
0000
0010
0000
0000
1000
0000
0000
0000
0000
0000
0001
0000
0000
0100
0000
0000
0010
0000
0000
1000
0000
0000
0010
0000
0000
0100
0000
0000
0001
0000
0000
0010
0000
0000
1100
0000
0000
0000
0000
0000
1000
0000
0100
0000
1000
0000
,  // measure 40
0100
0000
101M
011M
0000
MM21
0000
0031
,  // measure 41
0100
0000
0010
0000
1000
0100
1000
0001
0100
0001
1000
0010
1000
0000
0001
0100
,  // measure 42
0001
0000
0100
0000
0110
0000
1000
0010
1000
0000
0010
0000
0110
0000
0001
0010
,  // measure 43
0001
0000
0000
0000
0000
0000
0100
0000
0000
0000
0000
0000
0110
0000
0000
0000
0000
0000
1000
0000
0000
0100
0000
0000
1000
0000
0000
0000
0000
0000
0001
0000
0000
0100
0000
0000
0010
0000
0000
0000
1000
0000
0000
0000
0100
0000
0000
0000
,  // measure 44
0001
0100
1000
0010
0001
0010
1000
0010
0100
0001
0010
0100
,  // measure 45
1000
0000
0001
0000
0100
0000
0010
0000
1000
0000
0100
0000
0010
0000
0000
0011
0000
0000
1002
0000
0000
0100
0000
0000
,  // measure 46
1003
0010
0200
0001
0301
2000
0000
3010
,  // measure 47
0100
0001
M101
0000
101M
0000
1000
1000
,  // measure 48
0010
0001
0010
0100
0100
0020
0000
0031
,  // measure 49
0010
0000
1000
0100
1000
0000
0010
0000
0010
0000
1000
0000
1100
0000
0001
0010
,  // measure 50
0001
0000
0010
0001
0010
0000
0100
0010
0100
0000
0010
0100
0010
0000
1000
0100
,  // measure 51
1000
0000
0100
1000
0100
0000
1000
0010
0100
0001
0010
0001
0100
0000
0010
1000
,  // measure 52
0100
0000
0010
0001
0100
0000
0100
0001
0010
0000
0100
1000
0010
0000
0100
0001
,  // measure 53
1000
0000
0000
0010
0000
0000
0100
0000
0000
0001
0000
0000
1000
0000
0000
0000
0100
0000
0000
0000
0001
0000
0000
0000
0100
0000
0000
0000
1000
0000
0000
0000
0010
0000
0000
0000
1010
0000
0000
0000
0000
0000
0100
0000
1000
0000
0100
0000
,  // measure 54
1000
0000
0000
0000
0000
0000
1001
0000
0000
0000
0000
0000
0010
0000
0001
0000
0010
0000
0001
0000
0000
0000
0000
0000
0100
0000
0000
0010
0000
0000
1000
0000
0000
0001
0000
0000
1001
0000
0000
0000
0000
0000
00M0
0000
0000
0000
0000
0000
,  // measure 55
0M00
0000
0000
0000
0000
0000
00M0
0000
0000
0000
0000
0000
0M00
0000
0000
0000
0000
0000
00M1
0000
1000
0000
0001
0000
1M00
0000
0000
0000
0000
0000
00M0
0000
0000
0000
0000
0000
0100
0000
0000
0001
0000
0000
0010
0000
0000
0001
0000
0000
,  // measure 56
0100
0010
1000
0100
1000
0010
0100
0010
1000
0100
0010
0001
0010
0001
0100
0001
,  // measure 57
0010
0001
0010
0100
1000
0100
0010
0001
1000
0000
0100
0000
0010
0001
0010
0001
,  // measure 58
0022
0000
0033
0000
0100
1000
0100
1000
2200
0000
3300
0000
0010
0000
0010
1000
,  // measure 59
0100
0000
0100
0010
1001
0000
0110
0000
1001
0000
0000
0000
0010
1000
0100
1000
,  // measure 60
0010
0100
0001
0010
0001
0100
0010
0100
0001
0100
0010
1000
0100
1000
0010
0100
,  // measure 61
0001
0010
0001
0010
0100
1000
0100
0000
0010
0000
0100
0000
0100
0100
0100
0100
,  // measure 62
0100
0000
0000
0100
0000
0000
0100
0000
0000
0100
0000
0000
0100
0000
0000
0100
0000
0000
0100
0000
0000
0100
0000
0000
0100
0000
0000
0100
0000
0000
0100
0000
0000
0100
0000
0000
1100
0000
0000
0000
0000
0000
0000
0000
0110
0000
0000
0000
,  // measure 63
0000
0101
0000
0110
0000
1100
0000
0110
0000
1001
0000
0000
;

//---------------dance-single - ---------------
#NOTES:
     dance-single:
     :
     Beginner:
     2:
     0,0,0,0,0:
// measure 0
0000
0000
0000
0000
,  // measure 1
0000
0000
0000
0000
,  // measure 2
0000
0000
0000
0000
,  // measure 3
0000
0000
0000
0000
,  // measure 4
1000
0000
1000
0000
,  // measure 5
0001
0000
0001
0000
,  // measure 6
0200
0000
0300
0000
,  // measure 7
0020
0000
0030
0000
,  // measure 8
0100
0000
0100
0000
,  // measure 9
0010
0000
0010
0000
,  // measure 10
2000
0000
0000
0000
,  // measure 11
3002
0000
0000
0000
,  // measure 12
0103
0000
0000
0000
,  // measure 13
0010
0000
0000
0000
,  // measure 14
1000
0000
0001
0000
,  // measure 15
1000
0000
0001
0000
,  // measure 16
1000
0000
0000
0000
,  // measure 17
0010
0000
0000
0000
,  // measure 18
0100
0000
0001
0000
,  // measure 19
0100
0000
0001
0000
,  // measure 20
0010
0000
0000
0000
0000
0000
0000
0100
,  // measure 21
0000
0000
0000
0000
,  // measure 22
1000
0000
0000
0000
0000
0000
0000
0010
,  // measure 23
0000
0000
0000
0000
,  // measure 24
0001
0000
0010
0000
,  // measure 25
0100
0000
1000
0000
,  // measure 26
0002
0000
0000
0000
,  // measure 27
0000
0000
0000
0000
0003
0000
0000
2000
,  // measure 28
0000
0000
0000
0000
,  // measure 29
3010
0000
0010
0000
,  // measure 30
0010
0000
0000
0000
,  // measure 31
0100
0000
0000
0000
,  // measure 32
0001
0000
0000
0000
0000
0000
0000
1000
,  // measure 33
0000
0000
0000
0001
,  // measure 34
0000
0010
0000
0001
,  // measure 35
0000
0000
0000
0100
,  // measure 36
0000
0001
0000
0100
,  // measure 37
0000
0000
0000
0010
,  // measure 38
0000
1000
0000
0010
,  // measure 39
0000
0000
0000
2000
,  // measure 40
3000
0000
0100
0000
0000
1000
0000
0000
,  // measure 41
0000
0010
0010
0010
,  // measure 42
0000
0100
0100
0100
,  // measure 43
0000
0001
0001
0001
,  // measure 44
0000
1000
1000
2000
,  // measure 45
0000
0000
0000
3010
,  // measure 46
0000
0000
0000
0001
,  // measure 47
0000
0000
0000
1000
,  // measure 48
0000
0000
0000
0010
,  // measure 49
0000
0000
0000
0100
,  // measure 50
0000
0100
0000
0010
,  // measure 51
0000
0010
0000
1000
,  // measure 52
0000
1000
0000
0001
,  // measure 53
0000
0001
0000
0200
,  // measure 54
0000
0020
0000
0330
,  // measure 55
0000
0000
0000
1000
,  // measure 56
0000
0010
0000
0100
,  // measure 57
0000
0001
0000
2000
,  // measure 58
3000
0020
0030
0200
,  // measure 59
0300
0002
0003
0001
,  // measure 60
0000
0010
0000
0100
,  // measure 61
0000
1000
0000
2000
,  // measure 62
0000
0000
0000
3020
,  // measure 63
0000
0000
0000
0000
0000
0000
0000
0030
0000
1001
0000
0000
;

//---------------dance-single - ---------------
#NOTES:
     dance-single:
     :
     Easy:
     6:
     0,0,0,0,0:
// measure 0
0000
0000
0000
0000
,  // measure 1
0000
0000
0000
0000
,  // measure 2
0000
0000
0000
0000
,  // measure 3
0000
0000
0000
0000
,  // measure 4
1000
1000
1000
0000
,  // measure 5
0010
0010
0010
0000
,  // measure 6
0200
0300
0200
0300
,  // measure 7
0002
0003
0002
0003
,  // measure 8
0100
0100
0100
0000
,  // measure 9
0001
0001
0001
0000
,  // measure 10
2000
0000
0000
0000
,  // measure 11
3010
0000
0010
0000
,  // measure 12
0010
0000
0100
0000
,  // measure 13
0010
0000
0100
0000
,  // measure 14
0001
0001
1000
1000
,  // measure 15
0010
0100
0001
1000
,  // measure 16
0001
0000
0100
0000
,  // measure 17
0010
0000
1000
0000
,  // measure 18
1000
1000
0010
0010
,  // measure 19
0100
0001
1000
0010
,  // measure 20
0200
0000
0000
0010
0000
0010
0000
0320
,  // measure 21
0000
1000
1000
1030
,  // measure 22
0001
0000
0000
0100
0000
0100
0000
0100
,  // measure 23
0000
0010
0000
0010
0000
0010
0000
0000
,  // measure 24
1000
0000
0100
0000
,  // measure 25
0010
0000
0001
0000
,  // measure 26
0001
1000
0001
1000
,  // measure 27
0001
0000
1000
0000
0020
0000
0000
0100
,  // measure 28
0000
0000
0000
0000
0000
0000
0000
0030
,  // measure 29
1000
0000
0001
0000
,  // measure 30
1000
0000
1000
0000
,  // measure 31
0100
0000
0100
0000
,  // measure 32
0010
0000
0000
0000
0010
0000
0000
1001
,  // measure 33
0000
0000
0000
0010
,  // measure 34
1000
0010
0000
0100
,  // measure 35
0001
0100
0000
1000
,  // measure 36
1000
1000
0000
0001
,  // measure 37
0001
0001
0000
0100
,  // measure 38
0010
0100
0010
1000
,  // measure 39
0001
1000
0001
2000
,  // measure 40
3000
0000
0010
0000
0000
0110
0000
0000
,  // measure 41
0000
0001
0100
0010
,  // measure 42
0000
1000
0010
0100
,  // measure 43
0000
0001
0010
0200
,  // measure 44
0000
2300
0000
3100
,  // measure 45
0010
0001
1000
1000
,  // measure 46
0000
0000
0010
0000
0000
0100
0000
0000
,  // measure 47
0001
0001
0000
0100
,  // measure 48
0000
0000
0010
0000
0000
1000
0000
0000
,  // measure 49
0100
0100
1000
1000
,  // measure 50
0010
1000
0000
0001
,  // measure 51
0010
0001
0000
0100
,  // measure 52
1000
0100
0000
0010
,  // measure 53
0001
0010
0000
2002
,  // measure 54
0000
0000
0000
3003
,  // measure 55
0000
0000
0000
0010
,  // measure 56
0010
0010
0000
1000
,  // measure 57
1000
1000
0000
0002
,  // measure 58
0003
0200
0300
0020
,  // measure 59
0030
2000
3000
0001
,  // measure 60
0001
0001
0000
0100
,  // measure 61
0100
0100
0000
0020
,  // measure 62
0000
0000
0000
1030
,  // measure 63
0000
0001
0000
1001
;

//---------------dance-single - ---------------
#NOTES:
     dance-single:
     :
     Medium:
     10:
     0,0,0,0,0:
// measure 0
0000
0000
0000
0000
,  // measure 1
0000
0000
0000
0000
,  // measure 2
0000
0000
0000
0000
,  // measure 3
0000
0000
0000
0000
,  // measure 4
0010
1000
0010
0000
0101
0000
0000
0000
,  // measure 5
0100
0001
0100
0000
1010
0000
0000
0000
,  // measure 6
1000
0100
0100
0000
0010
0001
0001
0000
,  // measure 7
0010
0100
1000
0000
0001
0010
0100
0000
,  // measure 8
0100
1000
0100
0000
0010
0001
0010
0000
,  // measure 9
0001
1000
0110
1001
,  // measure 10
0210
0000
0000
0000
,  // measure 11
0302
0000
2003
0000
,  // measure 12
3010
0000
0010
0000
,  // measure 13
0100
0000
0100
0000
,  // measure 14
0201
0000
0301
0000
0001
1000
0010
0000
,  // measure 15
1200
0000
1300
0000
0001
0100
0010
0000
,  // measure 16
1000
0000
0100
0000
,  // measure 17
0001
0000
0010
0000
,  // measure 18
1020
0000
0130
0000
1000
0010
0100
0000
,  // measure 19
0201
0000
0310
0000
1000
0001
1000
0000
,  // measure 20
1100
0000
0000
0001
0000
0010
0000
0002
,  // measure 21
0000
1000
0100
1003
,  // measure 22
0020
0000
0130
0100
0000
0010
0000
1000
,  // measure 23
0000
0002
0000
0200
0000
0303
0000
0000
,  // measure 24
1000
0100
0010
0100
,  // measure 25
1000
0100
0001
0100
,  // measure 26
1000
0010
1000
0000
0010
1000
0010
0000
,  // measure 27
0100
0001
0100
0000
0001
0100
0001
0200
,  // measure 28
0000
0000
0000
0000
0000
0000
0000
0300
,  // measure 29
0020
0000
2030
0000
,  // measure 30
3001
0001
0100
0000
,  // measure 31
0100
0100
0010
0000
,  // measure 32
0010
0000
0010
0000
1000
0001
1000
0001
,  // measure 33
0000
0100
0000
0100
0010
0000
0010
0000
,  // measure 34
1000
0010
1000
0000
0001
0000
0100
0000
,  // measure 35
0100
0001
0100
0000
0010
0000
0100
1000
,  // measure 36
0100
0000
0010
0001
0010
0000
0100
0000
,  // measure 37
1000
0010
0001
0020
,  // measure 38
1030
2000
3100
0200
,  // measure 39
0301
0002
0013
0020
,  // measure 40
0030
0000
1000
0010
0000
2020
0000
0000
,  // measure 41
3030
0100
0000
0100
0001
0100
0001
0000
,  // measure 42
0001
1000
0010
0000
0100
0000
0010
0000
,  // measure 43
1000
0010
0100
0000
0010
0000
2000
0000
,  // measure 44
0000
3002
0000
0203
,  // measure 45
0320
2030
3002
0103
,  // measure 46
0000
0100
0001
0000
0000
0010
0000
0000
,  // measure 47
0100
1000
0010
0100
,  // measure 48
0000
0100
0001
0000
0000
1000
0000
0000
,  // measure 49
0010
0000
0001
0000
0010
0000
1000
0100
,  // measure 50
1000
0000
0010
0100
0010
0000
0001
0100
,  // measure 51
0001
0000
0100
0000
0010
0000
1000
0010
,  // measure 52
1000
0000
0100
0010
0100
0000
0001
0010
,  // measure 53
0001
0100
0010
2000
,  // measure 54
0000
0100
0000
0000
0010
0000
3001
0000
,  // measure 55
0000
0000
0000
0000
0000
0000
0001
0100
,  // measure 56
0010
0000
1100
0000
0000
0000
1000
0010
,  // measure 57
0100
0000
0011
0000
0000
0000
0100
1000
,  // measure 58
1000
0000
0001
0010
0010
0000
0100
1000
,  // measure 59
0100
0000
0010
0001
0010
0000
0001
0000
,  // measure 60
0010
0000
0100
1000
0000
1000
0000
0100
,  // measure 61
0010
0001
0001
2001
,  // measure 62
0000
0000
0000
3020
,  // measure 63
0000
0230
0000
0301
;

//---------------dance-single - ---------------
#NOTES:
     dance-single:
     :
     Hard:
     14:
     0,0,0,0,0:
// measure 0
0000
0000
0000
0000
,  // measure 1
0000
0000
0000
0000
,  // measure 2
0000
0000
0000
0000
,  // measure 3
0000
0000
0000
0000
,  // measure 4
1000
0010
0100
0010
1000
0001
0010
0001
,  // measure 5
1000
0100
0010
0001
0100
0010
1000
0100
,  // measure 6
0010
0010
0101
0000
0100
0100
1010
0000
,  // measure 7
0010
0100
0010
0100
0001
1000
1001
0000
,  // measure 8
0001
0010
0100
1000
0001
0100
0001
0010
,  // measure 9
0001
0100
0010
1000
0100
0010
0001
1000
,  // measure 10
4004
0000
0000
0000
0000
0000
0000
3000
,  // measure 11
1003
0000
0010
0000
0001
0000
0010
0000
1000
0000
0100
0000
,  // measure 12
0001
0000
0000
0000
0100
0000
0000
0000
1000
0000
0000
0100
0000
0000
1000
0000
,  // measure 13
0010
0000
0000
0000
0100
0000
0000
0000
0001
0000
0000
0010
0000
0000
0001
0000
,  // measure 14
1010
0000
1100
0000
1001
0010
0100
0000
,  // measure 15
0001
0100
0010
1000
0100
0000
0010
0000
0001
0000
0001
0000
0101
0000
0000
0000
,  // measure 16
0001
0000
0000
0000
0100
0000
0000
0000
0010
0000
0000
1000
0000
0000
0100
0000
,  // measure 17
0010
0000
0000
0000
0001
0000
0000
0000
0100
0000
0000
1000
0000
0000
0100
0000
,  // measure 18
0001
0010
0001
0000
0010
0000
0000
0000
1000
0100
1000
0000
0100
0000
0000
0000
,  // measure 19
0001
0001
0010
0010
0100
0100
1100
0000
,  // measure 20
2000
0000
3100
0020
0000
0130
0000
2020
,  // measure 21
0000
3030
0200
0000
0301
0000
0002
0000
,  // measure 22
0023
0000
0130
0020
0000
0031
0000
0110
,  // measure 23
0000
1000
0000
0110
0000
0001
0000
0000
,  // measure 24
1000
0000
1000
0010
0000
0010
0100
0001
,  // measure 25
0000
0001
0100
0010
2000
0000
3000
0000
,  // measure 26
0001
0100
0010
0100
0001
0100
1000
0100
,  // measure 27
0001
0010
1000
0010
0001
0100
0010
2000
,  // measure 28
0000
0000
3010
1000
0010
0000
0100
0001
0100
0000
0010
1000
0010
0000
0100
0000
,  // measure 29
0001
0000
0100
0000
1000
0000
0100
0000
0010
0000
1000
0000
,  // measure 30
0001
0010
0001
0000
0001
0100
0000
0100
,  // measure 31
0000
0100
0010
1000
0100
1000
0010
0100
,  // measure 32
0001
0000
0000
0000
0001
0000
1000
0010
0100
0000
0010
0000
1000
0000
0100
0000
,  // measure 33
0000
1002
0000
0103
0010
0100
0001
1000
,  // measure 34
0100
1000
0010
0100
0010
1000
0001
0100
,  // measure 35
0010
1000
0010
0100
0001
0001
1000
0010
,  // measure 36
0100
0010
1000
0001
0100
0010
0100
0001
,  // measure 37
1000
0010
0100
0001
0100
0010
1100
0000
,  // measure 38
0010
0100
0101
0000
0001
1000
1010
0000
,  // measure 39
1000
0000
0010
0000
0011
0000
0000
0000
0010
0000
0100
0000
1001
0000
1000
0001
,  // measure 40
0200
0000
0301
1020
0000
0231
0000
0310
,  // measure 41
1000
0000
0001
0000
0100
0010
0100
0010
1000
0001
1000
0001
1000
0000
0010
0000
,  // measure 42
0100
0010
1000
0100
0010
0100
0010
0001
,  // measure 43
0100
0000
0000
0001
0000
0000
0010
0000
0000
0100
0000
0000
1000
0000
0000
0010
0000
0000
0100
0000
0001
0000
0100
0000
,  // measure 44
0002
0000
0000
1003
0010
1000
0020
0000
0000
1030
0000
1000
,  // measure 45
0010
0000
0010
0100
0000
0100
0001
0000
0001
0020
0000
0000
,  // measure 46
0130
2000
0000
3010
0100
0020
0000
0130
,  // measure 47
0002
1003
0020
0130
0002
0013
2000
0000
,  // measure 48
3010
0200
0000
0301
1000
0020
0000
0130
,  // measure 49
0001
0002
0000
1003
0100
0001
0200
0000
,  // measure 50
1300
0020
0000
0130
0001
0020
0000
0130
,  // measure 51
0010
0100
1000
0001
0010
0001
0200
0000
,  // measure 52
0310
0002
0000
0013
1000
0200
0000
0310
,  // measure 53
0001
0000
0100
0000
0010
0000
1000
0000
0100
0000
1000
0000
0010
0000
0010
1000
,  // measure 54
0010
0000
0100
0000
0100
0001
0100
0000
0001
0010
0100
0010
0001
0000
0000
0000
,  // measure 55
0000
0000
0000
0000
0000
0000
0001
0100
,  // measure 56
0010
0100
0001
1000
0100
1000
0001
0010
,  // measure 57
0100
1000
0010
0100
0001
0010
0100
0100
,  // measure 58
1010
0000
0010
0010
0101
0000
0100
0010
,  // measure 59
0100
0010
1000
0001
1001
0000
1000
0100
,  // measure 60
0010
0001
1000
0010
1000
0100
1000
0010
,  // measure 61
0100
0001
0010
0100
1000
0001
4004
0000
,  // measure 62
0000
0000
0000
0000
0000
0000
0000
0000
0000
0000
0000
0000
0000
0000
0000
0003
0000
0000
3010
0000
0000
0000
0100
0000
,  // measure 63
0000
0101
0000
1000
0000
0010
0000
1010
0000
1001
0000
0000
;
