#TITLE:レディバグ;
#SUBTITLE:;
#ARTIST:DOLLCHESTRA;
#TITLETRANSLIT:Ladybug;
#SUBTITLETRANSLIT:;
#ARTISTTRANSLIT:;
#GENRE:;
#CREDIT:;
#MUSIC:Ladybug.ogg;
#BANNER:Ladybug-BN.png;
#BACKGROUND:Ladybug-BG.png;
#CDTITLE:cdtitle.png;
#SAMPLESTART:41.326;
#SAMPLELENGTH:14.769;
#SELECTABLE:YES;
#OFFSET:0.616;
#BPMS:0.000=130.000
,88.000=260.000
,90.000=130.000
;
#STOPS:88.000=0.173
,88.750=0.173
,89.500=0.115
;
#BGCHANGES:1.200=Ladybug-BGA.avi=1.000=0=0=0=StretchNoLoop==CrossFade_Fastest==,
99999.000=-nosongbg-=1.000=0=0=0=StretchNoLoop====
;
#FGCHANGES:;

//--------------- dance-single - tomori ----------------
#NOTES:
     dance-single:
     tomori:
     Beginner:
     1:
     0,0,0,0,0,0,0,0,0,0,0,0,0,0,0,0,0,0,0,0,0,0:
0000
0000
0000
0000
,
0000
0000
0000
0000
,
0000
0000
0000
0000
,
0000
0000
0000
0000
,
2000
0000
0000
3000
,
0001
0001
0001
0000
,
0100
0100
0100
0000
,
0010
0010
0010
0000
,
1000
1000
1000
0000
,
0001
0000
0000
0000
,
0001
0000
0000
0000
,
1000
0000
0000
0000
,
1000
0000
0000
0000
,
0010
0000
0000
0000
,
0100
0000
0000
0000
,
0010
0000
0000
0000
,
0100
0000
0000
0000
,
0002
0000
0000
0000
,
0003
0000
0000
0000
,
2000
0000
0000
0000
,
3000
0000
0000
0000
,
0010
0000
0010
0000
,
0200
0000
0300
0000
,
0001
0000
1000
0000
,
0001
0000
1000
0000
,
0001
0000
0010
0000
,
0100
0000
1000
0000
,
0001
0000
1000
0000
,
1000
0000
0001
0000
,
0002
0000
0000
0003
,
2000
0000
0000
3000
,
0010
0000
0010
0000
,
0100
0000
0100
0000
,
0001
0000
0001
0000
,
1000
0000
1000
0000
,
0100
0000
0000
0000
,
0010
0000
0000
0000
,
0100
0000
0000
0000
,
0010
0000
0000
0000
,
1001
0000
0000
0000
,
2000
0000
0000
0000
0000
0000
0000
0000
0000
0000
0000
0000
0000
0000
0000
0000
0000
0000
0000
0000
0000
0000
0000
0000
0000
0000
0000
0000
0000
0000
0000
0000
0000
0000
0000
0000
0000
0000
0000
0000
0000
0000
0000
0000
0000
0000
0000
0000
0000
0000
0000
0000
0000
0000
0000
0000
0000
0000
0000
0000
0000
0000
0000
3000
,
0001
0000
0000
0000
,
0001
0000
0000
0000
,
1000
0000
0000
0000
,
1000
0000
0000
0000
,
0010
0010
0010
0000
,
0100
0100
0100
0000
,
0001
0001
0001
0000
,
1000
0000
1000
0000
2000
0000
0000
3000
;

//--------------- dance-single - tomori ----------------
#NOTES:
     dance-single:
     tomori:
     Easy:
     3:
     0,0,0,0,0,0,0,0,0,0,0,0,0,0,0,0,0,0,0,0,0,0:
0000
0000
0000
0000
,
0000
0000
0000
0000
,
0000
0000
0000
0000
,
0000
0000
0000
0000
,
0002
0003
0200
0300
,
0010
0010
0010
0000
,
1000
1000
1000
0000
,
0001
0001
0001
0000
,
0100
0100
0100
0000
,
0001
0000
0001
0000
,
0010
0000
0010
0000
,
0100
1000
0100
0000
,
1000
0100
1000
0000
,
1000
0000
1000
0000
,
0010
0000
0010
0000
,
0100
0001
0100
0000
,
0001
0100
0001
0000
,
2000
0000
0000
3100
,
0200
0000
0000
0310
,
0020
0000
0000
0031
,
0002
0000
0000
1003
,
0001
0000
0100
0010
,
2002
0000
3003
0000
,
0100
0100
0100
0000
,
0010
0010
0010
0000
,
0001
1000
0001
1000
,
1001
0000
1001
0000
,
1000
0000
0100
0000
,
0001
0000
0010
0000
,
0100
0100
0100
0000
,
0010
0010
0010
0000
,
1001
0000
0110
0000
,
2000
0000
0000
0000
0001
0000
0000
3000
0010
0000
0000
0000
0000
0000
0000
0000
,
0110
0000
1001
0000
,
0020
0000
0000
0000
1000
0000
0000
0030
0100
0000
0000
0000
0000
0000
0000
0000
,
0001
0100
0010
0000
,
1000
0010
0100
0000
,
0001
0100
1000
0100
,
2002
0000
0000
0000
0000
0000
0000
3003
0000
0000
0000
0000
0000
0000
0000
0000
,
0100
0000
0000
0000
,
0010
0010
0010
0000
,
0100
0000
0100
0000
,
1000
0000
1000
0000
,
0001
0000
0001
0000
,
0010
0000
0010
0000
,
2000
0000
0000
3001
,
0002
0000
0000
0103
,
0200
0000
0000
0310
,
1000
0000
0001
0000
0200
0000
0000
0300
;

//--------------- dance-single - tomori ----------------
#NOTES:
     dance-single:
     tomori:
     Medium:
     8:
     0,0,0,0,0:
0000
0000
0000
0000
,
0000
0000
0000
0000
,
0000
0000
0000
0000
,
0000
0000
0000
0000
,
0001
0000
0000
0100
0000
0000
0010
0000
0000
0100
0000
0000
0001
0000
0000
0000
,
1010
0000
0000
0100
0000
0100
0000
0100
0000
0000
0001
0000
0010
0000
0001
0000
,
0200
0000
0000
0310
0000
0000
0020
0000
0000
1030
0000
0000
1000
0000
0100
0000
,
1000
0000
0000
0010
0000
0010
0000
0100
0000
0001
0000
0001
0000
0000
0100
0000
,
1010
0000
0000
0100
0000
0100
0000
0100
0000
0000
0001
0000
0010
0000
0100
0000
,
1000
0010
1000
0000
0010
0000
0010
0000
,
0100
0001
0100
0000
0001
0000
0001
0000
,
0010
0010
0010
0000
0001
0000
1000
0000
,
0100
0100
0100
0000
1000
0010
0100
0001
,
0020
0100
0130
0000
2000
0000
3100
0000
,
0020
0100
0130
0000
0002
0000
0103
0010
,
1000
0000
0000
0010
0000
0010
0000
0010
0000
0000
0000
0000
0100
0000
0100
0000
,
0102
0000
0000
0000
0010
0000
0000
1003
0000
0000
0000
0000
1001
0000
0000
0000
,
1000
0010
0100
0010
1000
0100
0010
0000
,
0001
1000
0100
1000
0001
0010
0001
0000
,
1000
0100
0001
0100
1000
0010
0001
0010
,
1000
0000
0000
1010
0000
0000
1001
0000
0000
0000
0000
0000
0200
0000
0000
0000
,
0310
1000
0010
1000
0001
0100
0001
0100
,
0010
0000
0000
0100
0000
0000
0001
0000
1000
0000
0000
0000
0010
0000
0100
0000
,
0002
0000
0103
0010
1000
0000
0001
0001
,
0100
0000
0100
0000
0020
0000
0000
1030
0000
0000
0000
0000
0100
0000
0100
0000
,
0020
0032
2003
3200
,
0310
0000
0001
0000
0020
0000
0000
0031
0000
0000
0000
0000
0100
0000
0001
0000
,
0020
0000
0130
1000
0010
0000
0100
0100
,
0001
0000
0001
0000
2000
0000
0000
3010
0000
0000
0000
0000
0100
0000
0001
0000
,
0100
0000
0010
1000
0010
0000
0100
0100
,
0110
0000
0000
0001
0000
1000
0000
0001
0000
0000
0000
0000
1000
0000
0100
0000
,
0020
0000
0031
0000
0100
0100
0100
0000
,
1000
0010
1000
0000
0001
0100
0001
0010
,
0200
0000
1300
0000
0010
0010
0010
0000
,
1000
0100
1000
0000
0001
0010
0001
0100
,
0020
0030
1000
0010
0200
0300
0001
1000
,
0010
0100
0010
1000
0001
0000
0100
0100
,
0100
0000
0010
0010
0010
0000
1000
0001
,
1000
0000
0000
0001
0000
1000
0000
0001
0000
0000
0000
0000
0100
0000
0000
0000
,
0100
0000
0010
0000
0010
0000
1000
0001
,
0100
0000
0000
0010
0000
1000
0000
0002
0000
0000
0000
0000
0000
0000
0003
0000
,
0101
0000
0000
0010
0000
0010
0000
0010
0000
0000
1000
0000
0100
0000
1000
0000
,
0020
0000
0000
0130
0000
0000
0200
0000
0000
0301
0000
0000
0001
0000
0010
0000
,
0001
0000
0000
0100
0000
0100
0000
0010
0000
1000
0000
1000
0000
0000
0010
0000
,
0101
0000
0000
0010
0000
0010
0000
0010
0000
0000
1000
0000
0100
0000
0010
0000
,
0001
0000
0000
1000
0000
0010
0000
0100
0000
0000
0010
0000
0010
0000
1000
0000
,
1000
0000
0000
0001
0000
0100
0000
0010
0000
0000
0100
0000
0001
0000
1000
0000
,
0010
0000
0000
1000
0000
0100
0000
0010
0000
0001
0000
0002
0000
0000
0103
0000
,
0001
0000
0000
0010
0000
0100
0000
1000
0000
0000
0010
0000
0100
0000
0001
0000
;

//--------------- dance-single - tomori ----------------
#NOTES:
     dance-single:
     tomori:
     Hard:
     13:
     0.587775,0.606972,0.345569,0.539951,0.842324,381,349,32,50,0,2,0.587775,0.606972,0.345569,0.539951,0.842324,381,349,32,50,0,2:
0000
0000
0000
0000
,
0000
0000
0000
0000
,
0000
0000
0000
0000
,
0000
0000
0000
0000
,
1100
0000
0000
1001
0000
0000
0011
0000
0000
0110
0000
0000
2002
3003
0000
0000
,
0001
1000
0000
0010
0000
0010
0000
0010
0000
0100
0001
0100
0001
0000
1000
0000
,
1010
0000
0000
0110
0000
0000
0101
0000
0000
0110
0000
0000
0010
1000
0010
0100
,
0010
1000
0000
0001
0000
0010
0000
0001
0000
0100
0000
0040
0000
0000
1030
0000
,
1000
0010
0000
0100
0000
0100
0000
0100
0000
0001
0010
0001
0010
0100
1000
0000
,
0010
0000
0100
0000
0002
0000
0000
1003
0000
1000
0001
0000
0010
0000
0001
0000
,
0100
0000
0010
0000
2000
0000
0000
3001
0000
0001
0100
0000
0010
0000
0100
0000
,
0001
0010
0000
0010
0000
0100
0000
0100
0000
1000
0000
1000
0001
0000
1000
0000
,
0001
0100
0000
0001
0000
1000
0000
0020
0000
0000
0000
0130
0001
0000
0100
0000
,
0001
0000
1000
0000
0002
0000
0000
0100
0000
0100
0003
0100
0001
0000
1000
0000
,
0010
0000
0100
0000
0020
0000
0000
1030
0000
1000
0000
1000
0001
0000
0100
0000
,
0010
0100
0000
0100
0000
0001
0000
0001
0000
1000
0000
1000
0010
0000
0010
0000
,
0200
0000
0000
0000
1000
0000
0000
0301
0000
0000
0000
0000
1001
0000
1000
0010
,
0100
0001
0000
0010
0000
0001
0000
0100
0000
0010
0000
1000
0100
0000
0100
0000
,
1000
0000
1000
0010
0000
0100
0000
0002
0000
0000
0000
0000
0003
0000
0001
0100
,
0010
1000
0000
0010
0000
0100
0000
0010
0000
1000
0000
1000
0001
0000
0001
0000
,
1001
0000
0000
0110
0000
0000
2002
0000
0000
0000
3003
0000
0020
0000
0000
0000
,
1030
0000
0100
0000
1000
0000
0100
0000
0010
0001
0010
0000
0001
0010
0001
0000
,
1010
0000
0000
0101
0000
0000
0110
0000
1001
0000
0000
0000
1000
0000
0100
0000
,
0021
0000
0000
0000
0031
0000
0100
0020
0000
0000
1030
0000
0100
0000
1000
0000
,
0010
0000
0100
0000
0001
0000
0010
0002
0000
0000
1003
0000
0010
0000
0100
0000
,
0201
0000
0010
0000
1300
0100
0001
0010
,
1100
0000
0100
1000
0000
1000
0000
1002
0000
0000
0000
0000
0103
0000
0010
0000
,
2000
0000
0000
0000
3010
0000
0100
0002
0000
0000
0003
0000
0100
0000
0100
0000
,
0010
0000
0010
0000
1000
0000
1000
0200
0000
0000
0300
0000
0010
0000
0001
0000
,
0001
0010
0000
0010
0000
0100
0000
0200
0000
0000
1300
0000
1000
0000
0010
0000
,
0100
0001
0100
0001
0000
0010
0000
0020
0000
0000
0030
0000
0001
0000
1000
0000
,
0020
0000
0230
0000
0301
0010
1000
0100
,
0010
0000
0001
0010
0000
0100
0000
2000
0000
0000
3000
0000
1000
0000
0001
0000
,
0200
0000
0320
0000
1030
0100
0001
0010
,
0100
0000
1000
0100
0000
0010
0000
0002
0000
0000
0003
0000
1000
0000
0010
0000
,
0110
0000
0000
0000
0001
0000
0100
0020
0000
0000
0030
0000
1000
0000
0100
0000
,
1000
0000
0001
0000
0010
0000
0001
0200
0000
0000
0300
0000
0010
0000
0010
0000
,
1000
0100
0000
0100
0000
0010
0000
0020
0000
0000
0031
0000
0001
0000
1000
0010
,
1000
0000
0001
0100
0000
0001
0000
0012
0000
0000
0000
0000
1003
0000
1000
0000
,
0010
0100
0000
0001
0000
0010
0000
0002
0000
0000
0103
0000
0010
0000
1000
0000
,
0001
0100
0001
0100
0000
0010
0000
2020
0000
0000
0000
0000
3030
0000
0000
0000
,
1000
0001
0000
0001
0000
0010
0000
0010
0000
0100
1000
0100
1000
0000
0001
0000
,
1001
0000
0000
0011
0000
0000
0110
0000
0000
1100
0000
0000
1001
0000
0000
0000
,
1000
0100
0000
0100
0000
0010
0000
0010
0000
0001
0000
0004
0000
0000
0103
0000
,
0010
1000
0000
0001
0100
0000
1000
0010
0000
0100
0001
0010
0001
0200
0000
0000
,
0310
1000
0000
0001
0000
0010
0000
0100
0000
0010
0001
0010
0001
0000
1000
0000
,
0010
0100
0000
0001
0010
0000
1000
0100
0000
0001
0010
0001
0200
0000
0320
0000
,
1030
0100
0000
0100
0000
0010
0000
0010
0000
0001
0000
0004
0000
0000
1003
0000
,
1000
0010
0000
0100
0000
0001
0000
1010
0000
0001
0100
0000
0011
0000
1100
0000
;
