#TITLE:KoiKyun!;
#SUBTITLE:;
#ARTIST:イルミネーションスターズ;
#ARTISTTRANSLIT:Illumination Stars;
#MUSIC:KoiKyun!.ogg;
#BANNER:KoiKyun!-BN.png;
#BACKGROUND:KoiKyun!-BG.png;
#LYRICSPATH:;
#CDTITLE:cdtitle.png;
#SAMPLESTART:46.363;
#SAMPLELENGTH:11.098;
#OFFSET:-0.626279;
#BPMS:0.000000=173.000000;
#STOPS:;
#TIMESIGNATURES:;
#BGCHANGES:-6.250=KoiKyun!-BGA.mp4=1.000=0=0=1===CrossFade_Fastest==,
99999=-nosongbg-=1.000=0=0=0 // don't automatically add -songbackground-
;
#KEYSOUNDS:;
#ATTACKS:;

//---------------dance-single - ----------------
#NOTES:
     dance-single:
     :
     Hard:
     14:
     0.702135,0.823100,0.419754,0.633448,0.228957,644.000000,589.000000,55.000000,83.000000,0.000000,8.000000,0.702135,0.823100,0.419754,0.633448,0.228957,644.000000,589.000000,55.000000,83.000000,0.000000,8.000000:
0000
0000
0000
0000
,
0000
0000
0000
0000
,
0000
0000
0000
0000
,
0000
0000
0000
0000
,
0001
0100
0001
0100
,
0010
1000
0010
1000
,
0100
1000
0010
0100
,
0001
0000
0010
0000
0001
0000
0100
0000
0010
1000
0100
1000
0010
0000
0000
0000
,
1010
0000
1000
0100
0000
0100
1000
0010
,
0000
0000
0010
0000
0100
0000
0010
1000
0010
0000
0100
0000
0001
0000
0000
0000
,
1001
0000
0000
0000
1000
0000
0010
0100
0010
0000
1000
0000
0001
0000
0100
0000
,
0000
0100
0001
1000
0010
0100
0010
1000
,
1010
0000
0010
0100
0000
0100
0001
0010
,
0000
0000
1000
0000
0010
0000
0100
0001
0100
0000
0010
0000
1000
0000
0000
0000
,
0101
0000
0000
0000
0010
0000
1000
0100
1000
0000
0010
0000
0100
0000
0002
0000
,
0000
0000
0103
0000
0010
0000
1000
0000
0010
0100
0001
0000
0001
0000
0000
0000
,
2001
0000
0000
0000
3001
0000
0100
0000
0000
0000
0100
0000
0010
0000
1000
0001
,
0100
0010
1000
0001
0000
0001
0200
0000
,
1301
0000
0000
0000
0001
0000
0100
0010
0100
0000
0001
0000
1000
0000
0000
0000
,
1000
0100
0001
0100
1000
0010
0001
0010
,
1000
0000
0000
0000
1000
0000
0010
0100
0010
0000
1000
0000
0010
0000
0100
0000
,
0002
0000
0103
0002
0000
1003
0010
0100
,
0002
0000
0000
0000
1003
0000
0020
0000
0000
0000
1030
0001
0100
0000
0020
0000
,
0000
0000
1030
0000
0100
0000
1000
0000
0010
0100
0001
0000
0010
0000
0100
0000
,
1000
0100
1000
0010
0100
0000
0100
0001
,
0020
0000
0031
0200
0000
0310
4000
3100
,
0010
0001
0100
0010
0002
0000
0023
0000
,
1030
0010
0100
0002
0000
0103
0004
0013
,
0100
0100
1000
0000
0010
0010
0100
0000
,
0100
0100
0010
0000
1000
1000
0001
0000
,
0100
0010
0100
0010
1000
0001
1000
0001
,
1000
0000
0100
0000
1000
0000
0100
0000
0010
0000
0001
0000
0010
0001
0100
0010
,
1000
1000
0001
0001
2002
0000
3003
0000
,
1020
0000
0000
0000
0130
0000
0001
0000
2100
0000
0000
0000
3010
0000
0100
0001
,
0100
0000
0010
0000
1000
0000
0010
0100
0010
0000
1000
0000
0001
0000
0100
0000
,
0102
0000
0013
0100
1200
0000
1300
0010
,
0100
0000
0001
0100
0010
0000
1000
0000
0100
0000
0010
0001
0010
0000
0001
0000
,
1000
2000
3010
0020
0130
0000
0100
0001
,
0010
0000
0020
0000
0130
0000
0200
0000
1300
0000
0010
0100
0010
0000
1000
0000
,
0001
0010
0100
0010
0100
1000
0001
1000
,
0001
0010
0001
0000
0101
0000
0100
0000
0010
1000
0010
0000
1000
0100
1000
0100
,
2000
3010
0100
0010
0200
0301
0010
0001
,
0102
0000
0000
0000
0103
0000
0210
0000
0000
0000
0310
1000
0010
0000
0100
0000
,
2001
0000
0000
0000
3010
0000
0100
0000
1020
0000
0000
0000
0130
0000
0001
0010
,
0002
0000
0000
0003
0101
0000
2100
0000
0000
0000
0020
0000
3100
0000
0031
0000
,
1000
0010
0100
0010
1000
0000
0001
0100
,
0010
0000
0100
0000
0001
0000
0100
0010
1000
0000
0100
0000
0010
0000
0001
0000
,
1002
0000
0000
0000
0200
0000
0000
0000
0313
1000
0010
0000
0100
0000
0100
0000
,
0001
0000
1000
0000
1010
0000
0000
0000
0100
0001
0100
0000
0010
1000
0001
0100
,
0020
0000
0130
2010
0000
3002
0000
0413
,
0300
0000
1400
0000
0300
0000
0140
0000
2030
0000
3002
0000
0203
0000
0000
0300
,
2100
0000
0000
0000
3010
0000
0102
0000
0000
0003
0021
0000
0000
0030
0404
0303
,
2200
0000
0000
0000
0000
3300
0022
0000
0000
0000
0000
0033
1000
0001
1000
0001
,
2000
0000
3010
0102
0000
0203
0000
1340
,
0030
0000
1200
0000
0000
0000
1320
0000
0230
0000
0302
0000
0013
0001
0010
0001
,
0020
0000
0000
0000
0130
0000
1000
0000
0001
0000
0010
0000
0100
1000
0100
1000
,
0200
0000
1000
0000
1300
0000
0020
0000
0130
0001
0010
0001
0200
0000
0000
0000
,
0300
0010
0010
1000
,
1000
0010
0100
0001
,
0020
0000
0000
0100
0230
0000
0000
1000
,
2300
0000
0000
0001
3002
0000
0000
0000
,
0103
0010
0010
1000
,
0100
0100
0010
0001
,
1000
0010
0000
0000
0100
0001
0000
0000
,
1000
0100
1000
0100
0010
0001
0010
0001
,
1010
0000
1010
0000
0101
0000
0101
0000
1000
0010
0100
0001
0100
0010
1000
0001
,
0000
1000
0010
0100
0002
0000
0103
0000
,
1000
0010
0100
0000
1100
0000
0001
0000
0012
0000
0000
0000
0103
0000
0010
1000
,
0010
0000
0100
0000
0010
0000
0100
0001
0100
0000
0001
0000
1000
0000
0010
0000
,
2010
0000
3100
0010
0021
0000
0031
0100
,
0010
0000
1000
0010
0100
0000
0001
0000
0010
0000
0001
0100
0010
0000
1000
0000
,
0001
0002
0103
0200
0310
0000
0010
1000
,
0100
0000
0200
0000
0310
0000
0020
0000
0031
0000
0100
0010
0100
0000
0001
0000
,
1000
0000
0100
0000
0010
0000
0100
0010
0001
0000
0010
0000
0100
0000
1000
0000
,
0010
0100
1000
0000
1100
0000
0001
0000
0100
0010
0100
0000
0001
1000
0001
0010
,
0002
0103
0010
0100
0020
1030
0100
1000
,
2010
0000
0000
0000
3010
0000
0120
0000
0000
0000
0130
0001
0100
0000
0010
0000
,
1002
0000
0000
0000
0103
0000
0010
0000
0201
0000
0000
0000
0310
0000
1000
0100
,
2000
0000
0000
3000
1010
0000
0012
0000
0000
0000
0200
0000
0013
0000
1300
0000
,
0001
0100
0010
0100
0001
0000
1000
0010
,
0100
0000
0010
0000
1000
0000
0010
0100
0001
0000
0010
0000
0100
0000
1000
0000
,
2001
0000
0000
0000
0020
0000
0000
0000
3130
0001
0100
0000
0010
0000
0010
0000
,
1000
0000
0001
0000
0101
0000
0000
0000
0010
1000
0010
0000
0001
0010
0100
1000
,
0002
0000
0000
0103
0010
0010
0000
1000
,
0000
1000
0000
0001
0000
0000
0000
0000
,
2000
0000
0000
3010
0100
0100
0000
0001
,
0000
0001
0000
1000
0040
0030
0000
0000
,
0101
0100
0010
1000
,
1100
0010
1000
0100
,
0011
0000
0001
0100
0010
0100
0001
1010
;

//---------------dance-single - ----------------
#NOTES:
     dance-single:
     :
     Medium:
     10:
     0.481900,0.583029,0.244221,0.587656,0.000000,442.000000,410.000000,32.000000,77.000000,0.000000,1.000000,0.481900,0.583029,0.244221,0.587656,0.000000,442.000000,410.000000,32.000000,77.000000,0.000000,1.000000:
0000
0000
0000
0000
,
0000
0000
0000
0000
,
0000
0000
0000
0000
,
0000
0000
0000
0000
,
0010
0010
0010
0010
,
1000
1000
1000
1000
,
0001
0001
0100
0100
,
0010
1000
0010
1000
0001
0100
0001
0100
,
0101
0000
0001
0100
0000
0100
0010
1000
,
0000
1000
0010
0000
0010
0100
0001
0000
,
1010
0000
1000
0010
0000
0010
0100
0001
,
0000
0001
0010
0000
0100
0010
0001
0000
,
0101
0000
0100
0001
1000
0000
1000
0100
,
0000
0010
0001
0000
0100
0010
0100
0000
,
1010
0000
0010
0100
0001
0000
0001
0100
,
0000
0010
1000
0000
0001
0100
0001
0000
,
0110
0000
1000
0001
0000
0100
0010
1000
,
0000
0010
0100
0001
0000
0001
1000
0000
,
1001
0000
0010
1000
0000
1000
0100
0100
,
0000
0010
0010
0001
0000
0001
0100
0000
,
0110
0000
0001
1000
0001
0000
0100
0010
,
0100
0000
0010
1000
0000
0001
0100
0000
,
1010
0000
1000
0010
0000
0001
0100
0001
,
0000
0100
0010
0010
1000
0001
0100
0000
,
0002
0010
0010
0100
,
1000
0000
0100
0100
0000
0000
0003
0000
,
0020
1000
1000
0001
,
0001
0000
0100
0100
0000
0000
0030
0000
,
1000
0100
2000
0000
3100
0010
0200
0000
,
0310
0000
0001
0000
0020
0000
0000
0000
0031
0000
0100
0000
0002
0000
0000
0003
,
1010
1010
0101
0101
,
1001
0000
0110
0000
0010
0100
0010
0100
,
0001
0010
0100
1000
0002
0000
1003
0000
,
2010
0000
3000
0010
0100
0000
0000
0001
,
0200
0000
0301
0020
0000
0130
0000
0010
,
0002
0000
0003
0100
0010
0000
0000
1000
,
0200
0000
1300
0020
0000
0130
0001
0000
,
0000
1000
0100
1000
0200
0000
0300
0010
,
0001
0010
0001
0020
0000
0130
0000
0100
,
1000
0000
0010
0100
0000
0001
0010
0002
,
0000
0100
0103
0000
0110
0000
1001
0000
,
0210
0000
0300
0001
0010
0000
0000
1000
,
0200
0000
0310
0002
0000
0103
0010
1000
,
0020
0000
0030
0100
0001
0000
0001
1000
,
0200
0000
1300
0002
0000
1003
0100
0010
,
0001
0100
0010
0100
0001
0000
1000
0020
,
0000
0230
0000
0302
0000
2003
0000
3010
,
2002
0000
0000
3003
,
0010
0010
0010
0000
0100
0100
0100
0000
,
0012
0000
0003
2100
0000
3020
0000
0230
,
0300
0000
0002
0000
0003
0000
0200
0000
0301
0000
0010
0000
0002
0000
0000
0003
,
0210
0000
0300
1020
0000
2030
0000
3001
,
0200
0000
0000
0020
0000
0000
0331
1000
,
0002
0000
0013
0200
0000
1300
0000
2000
,
3000
0020
0030
2000
3010
0100
0002
0000
,
0203
0000
0000
0000
0000
0000
0301
1000
,
0002
0000
0000
1000
0000
0000
0010
0000
,
0103
0001
0010
0001
,
0010
0100
1000
0100
,
2000
0000
0020
3000
,
0200
0030
0002
0300
,
0003
0100
0100
0010
,
0010
1000
1000
0001
,
0001
0100
0000
0000
0010
1000
0000
0000
,
1001
0110
1001
0110
,
1000
0100
1000
0100
0010
0001
0010
0001
,
0000
0000
1000
0000
0100
0000
0010
0000
0002
0000
0000
0000
2003
0000
0000
3000
,
0102
0000
0003
0100
0010
0000
0010
1000
,
0020
0000
1030
0200
0000
0310
0000
0100
,
2000
0000
3000
0010
0100
0000
0100
0001
,
0020
0000
0031
0200
0000
0310
1000
0000
,
0000
0001
0010
0001
0020
0000
0030
0100
,
1000
0100
1000
0200
0000
0310
0000
0010
,
0001
0000
0100
0010
0000
1000
0100
2000
,
0000
0010
3010
0000
0110
0000
1001
0000
,
0120
0000
0030
1000
0100
0000
0000
0001
,
0020
0000
0130
2000
0000
3010
0100
0001
,
0200
0000
0300
0010
1000
0000
1000
0001
,
0020
0000
0031
2000
0000
3001
0010
0100
,
1000
0010
0100
0010
1000
0000
0001
0200
,
0000
0320
0000
2030
0000
3002
0000
0103
,
2002
0000
0000
3003
,
0100
0100
0100
0000
0010
0010
0010
0000
,
2000
0000
3000
0001
1000
0001
0000
0100
,
0000
0100
0000
0010
0000
0000
0000
0000
,
0002
0000
0003
0100
0010
0100
0000
0001
,
0000
1000
0000
0001
0000
0000
0000
0000
,
0100
0100
0100
0100
,
0001
0001
0001
0001
,
1000
0000
0010
0000
1000
0010
0100
0001
;

//---------------dance-single - ----------------
#NOTES:
     dance-single:
     :
     Easy:
     5:
     0.226776,0.308663,0.091583,0.152638,0.000000,208.000000,196.000000,12.000000,20.000000,0.000000,0.000000,0.226776,0.308663,0.091583,0.152638,0.000000,208.000000,196.000000,12.000000,20.000000,0.000000,0.000000:
0000
0000
0000
0000
,
0000
0000
0000
0000
,
0000
0000
0000
0000
,
0000
0000
0000
0000
,
1000
0000
1000
0000
,
0010
0000
0010
0000
,
0100
0000
0100
0000
,
0001
0001
0001
0000
,
1001
0000
1000
0000
,
0010
0000
0100
0000
,
0010
0000
1000
0000
,
0001
0001
0001
0000
,
1001
0000
0001
0000
,
0100
0000
1000
0000
,
0100
0000
0001
0000
,
1000
1000
1000
0000
,
0110
0000
0001
0000
,
0100
0000
0001
0000
,
0110
0000
1000
0000
,
0010
0000
1000
0000
,
0010
0010
0010
0000
,
0100
0100
0100
0000
,
0001
0000
0010
0000
,
0100
0000
1000
0000
,
1000
0000
0100
0000
,
0001
0000
0010
0000
,
1000
0000
0010
0000
,
0001
0000
0100
0000
,
1000
0000
1000
0000
,
0001
0000
0001
0000
,
0100
0000
0100
0000
,
0010
0000
0010
0000
,
1000
0001
1000
0001
,
2000
0000
3010
0000
,
0010
0010
0010
0000
,
0200
0000
0301
0000
,
0001
0001
0001
0000
,
1000
0100
1000
0000
,
0100
1000
0100
0000
,
1000
0000
0100
0000
,
0010
0000
0001
0001
,
0002
0000
0103
0000
,
0100
0100
0100
0000
,
0020
0000
1030
0000
,
1000
1000
1000
0000
,
0001
0010
0001
0000
,
0010
0001
0010
0000
,
0001
0000
0010
0000
,
0100
0000
1000
1000
,
2000
0000
0020
3000
,
0200
0030
0002
0300
,
0020
0003
0200
0030
,
2000
0000
0300
3000
0000
0000
0000
0000
,
2000
0000
0200
3000
,
0020
0300
0002
0030
,
0203
0000
0000
0000
,
0320
0000
0000
0000
,
0030
0000
0100
0000
,
0010
0000
0100
0000
,
0001
0000
1000
0000
,
0001
0000
1000
0000
,
0100
0000
1000
0000
,
0001
0000
0010
0000
,
0001
0000
1000
0000
,
0010
0010
0100
0100
,
0001
1000
0001
1000
,
0000
0000
0000
0000
,
1001
0000
0110
0000
,
1000
0010
1000
0000
,
1001
0000
0110
0000
,
0001
0100
0001
0000
,
0010
1000
0010
0000
,
0100
0001
0100
0000
,
0010
0010
0100
0100
,
0001
1000
0001
0000
,
0110
0000
1001
0000
,
0010
0001
0010
0000
,
0110
0000
1001
0000
,
0100
1000
0100
0000
,
0010
1000
0001
0000
,
0100
0001
1000
0000
,
0010
1000
0010
1000
,
0001
0100
0001
0100
,
0020
0000
0000
0000
,
0030
0000
0000
0000
,
0200
0000
0000
0000
,
0300
0000
0000
0000
,
0001
0000
0001
0000
,
0100
0000
0100
0000
,
0010
0000
0000
0000
2000
0000
0000
3000
;

//---------------dance-single - ----------------
#NOTES:
     dance-single:
     :
     Beginner:
     1:
     0.117749,0.205775,0.015264,0.106847,0.000000,108.000000,106.000000,2.000000,14.000000,0.000000,0.000000,0.117749,0.205775,0.015264,0.106847,0.000000,108.000000,106.000000,2.000000,14.000000,0.000000,0.000000:
// measure 0
0000
0000
0000
0000
,  // measure 1
0000
0000
0000
0000
,  // measure 2
0000
0000
0000
0000
,  // measure 3
0000
0000
0000
0000
,  // measure 4
0100
0000
0000
0000
,  // measure 5
0100
0000
0000
0000
,  // measure 6
0010
0000
0000
0000
,  // measure 7
0010
0000
0000
0000
,  // measure 8
1000
0000
0000
0000
,  // measure 9
0100
0000
0000
0000
,  // measure 10
1000
0000
0000
0000
,  // measure 11
0100
0000
0000
0000
,  // measure 12
0001
0000
0000
0000
,  // measure 13
0010
0000
0000
0000
,  // measure 14
0001
0000
0000
0000
,  // measure 15
0010
0000
0000
0000
,  // measure 16
2000
0000
3000
0000
,  // measure 17
1000
0000
0000
0000
,  // measure 18
0020
0000
0030
0000
,  // measure 19
0010
0000
0000
0000
,  // measure 20
0100
0000
0100
0000
,  // measure 21
0001
0000
0001
0000
,  // measure 22
1000
0000
1000
0000
,  // measure 23
0010
0000
0010
0000
,  // measure 24
2000
0000
0000
0000
,  // measure 25
3000
0000
0000
0000
,  // measure 26
0002
0000
0000
0000
,  // measure 27
0003
0000
0000
0000
,  // measure 28
0100
0000
0100
0000
,  // measure 29
0010
0000
0010
0000
,  // measure 30
1000
0000
0001
0000
,  // measure 31
1000
0000
0001
0000
,  // measure 32
1001
0000
0000
0000
,  // measure 33
0001
0000
0100
0000
,  // measure 34
0001
0000
0000
0000
,  // measure 35
1000
0000
0010
0000
,  // measure 36
1000
0000
0000
0000
,  // measure 37
0010
0000
0010
0000
,  // measure 38
0010
0000
0000
0000
,  // measure 39
0100
0000
0100
0000
,  // measure 40
0100
0000
0000
0000
,  // measure 41
0010
0000
0001
0000
,  // measure 42
0010
0000
0000
0000
,  // measure 43
0100
0000
1000
0000
,  // measure 44
0100
0000
0000
0000
,  // measure 45
0001
0000
0001
0000
,  // measure 46
0001
0000
0000
0000
,  // measure 47
1000
0000
1000
0000
,  // measure 48
1000
0000
0000
0000
,  // measure 49
0002
0000
0000
0000
,  // measure 50
0000
0000
0000
0003
,  // measure 51
0200
0000
0000
0000
,  // measure 52
0000
0000
0000
0300
,  // measure 53
0020
0000
0000
0000
,  // measure 54
0000
0000
0000
0030
,  // measure 55
2000
0000
0000
0000
,  // measure 56
0000
0000
0000
3000
,  // measure 57
0000
0000
0001
0000
,  // measure 58
0000
0000
0001
0000
,  // measure 59
0000
0000
1000
0000
,  // measure 60
0000
0000
1000
0000
,  // measure 61
0000
0000
0010
0000
,  // measure 62
0000
0000
0010
0000
,  // measure 63
0100
0000
0001
0000
,  // measure 64
1000
0000
0010
0000
,  // measure 65
2002
0000
0000
0000
0000
0000
0000
0000
0000
0000
0000
0000
0000
0000
0000
3003
,  // measure 66
0000
0000
0000
0000
,  // measure 67
0001
0000
0010
0000
,  // measure 68
0100
0000
0000
0000
,  // measure 69
1000
0000
0100
0000
,  // measure 70
0010
0000
0000
0000
,  // measure 71
0001
0000
0100
0000
,  // measure 72
1000
0000
0000
0000
,  // measure 73
1000
0000
0100
0000
,  // measure 74
0001
0000
0000
0000
,  // measure 75
1000
0000
0010
0000
,  // measure 76
0100
0000
0000
0000
,  // measure 77
0001
0000
0100
0000
,  // measure 78
0010
0000
0000
0000
,  // measure 79
1000
0000
0100
0000
,  // measure 80
0001
0000
0000
0000
,  // measure 81
0001
0000
0100
0000
,  // measure 82
1000
0000
1000
0000
,  // measure 83
2000
0000
0000
0000
,  // measure 84
3000
0000
0000
0000
,  // measure 85
0020
0000
0000
0000
,  // measure 86
0030
0000
0000
0000
,  // measure 87
0100
0000
0000
0000
0200
0000
0000
0300
,  // measure 88
0000
0000
0100
0000
,  // measure 89
0001
0000
0000
0000
0002
0000
0000
0003
;
