#TITLE:永遠のEuphoria;
#SUBTITLE:(104期 Ver.);
#ARTIST:蓮ノ空女学院スクールアイドルクラブ;
#TITLETRANSLIT:Eien no Euphoria;
#SUBTITLETRANSLIT:(104th Class Ver.);
#ARTISTTRANSLIT:Hasunosora Jogakuin School Idol Club;
#GENRE:;
#CREDIT:;
#MUSIC:Eien no Euphoria.ogg;
#BANNER:Eien no Euphoria-BN.png;
#BACKGROUND:Eien no Euphoria-BG.png;
#CDTITLE:cdtitle.png;
#SAMPLESTART:61.188;
#SAMPLELENGTH:12.000;
#SELECTABLE:YES;
#OFFSET:-0.162;
#BPMS:0.000=162.000;
#STOPS:;
#BGCHANGES:-0.600=Eien no Euphoria-BGA.avi=1.000=0=0=0=StretchNoLoop==CrossFade_Fastest==,
99999.000=-nosongbg-=1.000=0=0=0=StretchNoLoop====
;
#FGCHANGES:;

//--------------- dance-single - tomori ----------------
#NOTES:
     dance-single:
     tomori:
     Beginner:
     1:
     0,0,0,0,0:
0000
0000
0000
0000
,
0000
0000
0000
0000
,
1000
0000
0000
0000
,
1000
0000
0000
0000
,
0001
0000
0000
0000
,
0001
0000
0000
0000
,
0200
0000
0000
0000
,
0300
0000
0000
0000
,
0020
0000
0000
0000
,
0030
0000
0000
0000
,
1000
0000
0000
0000
,
0100
0000
0000
0000
,
0010
0000
0000
0000
,
0001
0000
0000
0000
,
0002
0000
0000
0003
,
0100
0000
0000
0000
,
0100
0000
0000
0000
,
0001
0000
0000
0000
,
0001
0000
0000
0000
,
0200
0000
0300
0000
,
0002
0000
0003
0000
,
1000
0000
0000
0000
,
0001
0000
0000
0000
,
1000
0000
0000
0000
,
1000
0000
0000
0000
,
0010
0000
0000
0000
,
0010
0000
0000
0000
,
2000
0000
3000
0000
,
0020
0000
0030
0000
,
1000
0000
0000
0000
,
0001
0000
0000
0000
,
0001
0000
0000
0000
,
0010
0000
0000
0000
,
0100
0000
0000
0000
,
1000
0000
0000
0000
,
1000
0000
0000
0000
,
0010
0000
0000
0000
,
0100
0000
0000
0000
,
0001
0000
0000
0000
,
0100
0000
0000
0000
,
2000
0000
0000
0000
0000
0000
0000
3000
,
0000
0000
0000
0000
,
0010
0000
0000
0000
,
0001
0000
0000
0000
,
0100
0000
0000
0000
,
0010
0000
0000
0000
,
0100
0000
0000
0000
,
0001
0000
0000
0000
,
1000
0000
1000
0000
,
1000
0000
0000
0000
,
0100
0000
0000
0000
,
0001
0000
0000
0000
,
0010
0000
0000
0000
,
0100
0000
0000
0000
,
0001
0000
0000
0000
,
1000
0000
0000
0000
,
1001
0000
0000
0000
,
0110
0000
0000
0000
,
0001
0000
0000
0000
,
0001
0000
0000
0000
,
1000
0000
0000
0000
,
1000
0000
0000
0000
,
0020
0000
0000
0000
,
0030
0000
0000
0000
,
0200
0000
0000
0000
,
0300
0000
0000
0000
,
0002
0000
0000
0000
,
0003
0000
0000
0000
,
2000
0000
0000
0000
,
3000
0000
0000
0000
0000
0000
0000
0010
,
0000
0010
0000
0010
0000
0000
0000
0000
;

//--------------- dance-single - tomori ----------------
#NOTES:
     dance-single:
     tomori:
     Easy:
     3:
     0.151498,0.226381,0.018284,0.164558,0,116,114,2,18,0,0,0.151498,0.226381,0.018284,0.164558,0,116,114,2,18,0,0:
0000
0000
0000
0000
,
0000
0000
0000
0000
,
1000
0000
1000
0000
,
0001
0000
0001
0000
,
2002
0000
0000
0000
,
3003
0000
0000
0000
,
0100
0000
0000
0000
,
0100
0000
0000
0000
,
0010
0000
0000
0000
,
0010
0000
0000
0000
,
1000
0000
0001
0000
,
1000
0000
0001
0000
,
1000
0000
0100
0000
,
0010
0000
0001
0000
,
2000
0000
0000
0000
,
3001
0000
0000
0000
,
0001
0000
0000
0000
,
0100
0000
0000
0000
,
0100
0000
0000
0000
,
0002
0000
0000
0003
,
0200
0000
0000
0300
,
0001
0000
0000
0010
0000
0010
0000
0010
,
0000
0000
0000
0100
0000
0000
1000
0000
,
1000
0000
0000
0000
,
1000
0000
0000
0000
,
0010
0000
0000
0000
,
0010
0000
0000
0000
,
2000
0000
0000
3000
,
0020
0000
0000
0030
,
1000
0000
0100
0100
,
0100
0000
0000
0010
0000
0001
0000
0000
,
0200
0000
0000
0000
,
0320
0000
0000
0000
0000
0030
0000
0000
,
2000
0000
0000
0000
,
3002
0000
0000
0000
0000
0003
0000
0000
,
0100
0100
0100
0000
,
0010
0010
0010
0000
,
1000
0000
0000
0001
0000
1000
0000
0001
,
0000
0000
0000
1000
0000
0001
0000
1000
,
0000
0000
0000
1000
0000
0100
0000
0020
,
0000
0000
0000
0000
0000
0000
0000
0031
,
0000
0000
0000
0000
,
1000
0000
0001
0000
,
1000
0000
0001
0000
,
1000
0000
0001
0000
,
1000
0000
0001
0000
,
0200
0000
0000
0000
,
0320
0000
0000
0030
0000
0000
0000
0000
,
0010
0000
0100
0000
,
0001
0000
1000
0000
,
0001
0000
1000
0000
,
0001
0000
1000
0000
,
0001
0000
1000
0000
,
0001
0000
1000
0000
,
0200
0000
0000
0000
,
0320
0000
0000
0030
0000
0000
0000
0000
,
0001
0000
0000
0000
,
1001
0000
0000
0000
,
1000
0000
0100
0000
,
0010
0000
0001
0000
,
2000
0000
0000
0100
0000
0000
0010
0000
,
3001
0000
0000
0000
,
0001
0000
0100
0000
,
0001
0000
0100
0000
,
0010
0000
1000
0000
,
0010
0000
1000
0000
,
0001
0000
1000
0000
,
0001
0000
1000
0000
,
0010
0000
0100
0000
,
0010
0000
0000
0000
0100
0000
0000
0001
,
0000
0010
0000
0200
0000
0000
0300
0000
;

//--------------- dance-single - tomori ----------------
#NOTES:
     dance-single:
     tomori:
     Medium:
     7:
     0.237695,0.291062,0.100563,0.274263,0,182,171,11,30,0,0,0.237695,0.291062,0.100563,0.274263,0,182,171,11,30,0,0:
0000
0000
0000
0000
,
0000
0000
0000
0000
,
1001
0000
1001
0000
,
2002
3003
0000
0100
,
0200
0000
0000
0010
0000
0000
0310
0000
,
0110
0000
0000
0000
0000
0000
0100
0010
,
0002
0000
0000
0000
0103
0000
0000
0010
,
0000
1000
0000
0001
0000
0000
0000
0010
,
2000
0000
0000
3010
0000
0000
0000
0100
,
0000
1000
0000
0001
0000
0000
0000
0100
,
0002
0000
0000
0000
0013
0000
0000
0100
,
0000
1000
0000
0100
0000
0000
0000
0100
,
2000
0000
0000
3100
0000
0000
0000
0010
,
0000
0000
0001
0000
0001
0000
0002
0003
,
0000
0000
0000
0000
,
1000
0000
1000
1000
,
0010
0000
0010
0010
,
0100
0000
0100
0100
,
0001
0000
0001
0001
,
2000
0000
0000
3100
0000
0000
0000
0000
,
0002
0000
0000
0103
0000
0000
0000
0000
,
0100
0000
0000
0010
0000
0010
0000
0100
,
0000
0000
0000
0001
0000
0000
2000
0000
,
3010
0000
0010
1000
,
1000
0000
1000
0100
,
0100
0000
0100
0001
,
0001
0000
0001
0010
,
0020
0000
0000
0001
0000
0000
0031
0000
,
2000
0000
0000
0100
0000
0000
3100
0000
,
0001
0000
0001
1000
,
0001
0000
0000
0100
0000
0100
0000
0000
,
0020
0100
0130
0000
,
0200
0000
0000
0001
0000
0301
0000
0000
,
0002
0100
1003
0000
,
2000
0000
0000
0010
0000
3001
0000
0000
,
0010
0100
0001
0001
,
0010
0100
1000
1000
,
0002
0000
0000
0103
0000
0100
0000
0020
,
0000
0000
0000
1030
0000
1000
0000
0000
,
1001
0000
0000
0100
0000
0010
0000
0200
,
0000
0000
0010
0000
0010
0000
0310
1001
,
0000
0000
0000
0000
,
1000
0010
1000
0001
,
0001
0100
0001
1000
,
1000
0100
1000
0001
,
0001
0010
0001
1000
,
2000
0000
0000
0010
0000
3010
0000
0000
,
0002
0000
0100
0103
,
0110
0000
0000
0000
1001
0000
0000
0110
,
0000
0010
0100
0001
,
1000
1000
0001
0100
,
0001
0001
1000
0010
,
1000
0010
0100
0100
,
0001
0100
0010
0010
,
2000
0000
0000
0000
,
3010
0000
0000
0110
0000
0000
0000
0000
,
0101
0000
0000
0000
,
1010
0000
0000
0000
,
1002
0000
0023
0000
,
0230
0000
2300
0000
,
3001
0000
0000
0100
0000
0000
0010
0000
,
1001
0000
0000
0000
0000
0000
0000
0100
,
1000
0000
1000
0000
1000
0000
0000
0010
,
0000
0010
0000
0010
0000
0000
0000
0001
,
0100
0000
0100
0000
0100
0000
0000
0001
,
0000
0001
0000
0001
0000
0000
0000
0010
,
0100
0000
0001
0000
0100
0000
0000
0010
,
0000
1000
0000
0010
0000
0000
0000
0001
,
0100
0000
0100
0001
0000
0001
1000
0200
,
0000
0000
0000
0000
0000
0000
0000
0310
,
0000
0010
0000
2002
0000
0000
3003
0000
;

//--------------- dance-single - tomori ----------------
#NOTES:
     dance-single:
     tomori:
     Hard:
     12:
     0.454493,0.485103,0.146274,0.493674,0.027426,348,332,16,54,10,0,0.454493,0.485103,0.146274,0.493674,0.027426,348,332,16,54,10,0:
0000
0000
0000
0000
,
0000
0000
0000
0000
,
0002
0000
0000
0010
0000
0000
0013
0000
0200
0000
0000
1000
0000
0000
1300
0000
,
2000
0100
3001
0010
,
0100
1000
0100
0010
0001
0010
0100
0000
,
1001
0000
0000
0000
0000
0000
0000
0000
0000
0000
0000
0000
0001
0000
0010
0001
,
0020
0000
0031
0100
0001
0000
0001
0100
,
0000
0100
0000
0010
0000
0010
0000
1000
,
0100
1000
0010
2000
0000
3001
0100
0002
,
0000
0103
0010
1000
0000
0100
0000
0010
,
0002
0000
0103
0010
1000
0000
1000
0010
,
0000
0010
0000
0100
0000
0100
0000
0001
,
0020
0000
0031
0200
0000
0310
2000
3100
,
0000
0100
1000
0010
0100
0001
0010
0002
,
0000
0000
1003
1000
0000
0010
0010
0000
,
1010
0000
1000
0000
1000
0010
1000
0000
,
0002
0000
0103
0020
0000
1030
0000
1000
,
0001
0000
0001
0000
0001
0100
0001
0000
,
2000
0000
3010
0200
0000
0301
0020
0000
,
0031
0000
0001
1000
0000
1000
0010
0000
,
0100
0000
0100
0001
0000
0001
1000
0000
,
0002
0000
0013
0100
0000
1001
0000
1001
,
0000
0000
0000
2000
0000
0000
3100
0000
,
0000
0000
0010
0001
0000
0001
0010
0001
,
0000
0000
0100
0010
0000
0010
0100
0010
,
0000
0000
1000
0100
0000
0100
1000
0100
,
2000
0000
0000
3001
0000
0001
1000
0000
,
1002
0000
0000
0100
0000
0000
0103
0000
,
2001
0000
0000
0010
0000
0000
3010
0000
,
0100
0000
1000
0001
0000
0001
1000
0000
,
0200
0000
0000
0310
0000
0001
0000
0000
,
1000
0100
1000
0000
0001
0000
0010
0000
,
0101
0000
0000
0100
0000
0100
0000
0000
,
0001
0010
0001
0000
1000
0000
0100
0000
,
1010
0000
0000
0010
0000
1000
0000
0000
,
1001
0000
1001
0000
0100
0010
0100
0000
,
0110
0000
0110
0000
0001
1000
0001
0000
,
0200
0000
0310
2000
0000
0001
0000
3001
,
0100
0000
0010
1000
0000
0001
0000
0001
,
0020
0000
0130
2000
0000
3001
0000
1001
,
0000
0M01
10M0
0M01
10M0
0M01
10M0
0010
,
0000
0100
0100
0010
,
0020
0000
1030
0010
1000
0000
1000
0010
,
0000
0100
0001
0010
0001
0000
0100
0000
,
0200
0000
0310
1000
0010
0000
0010
1000
,
0000
1000
0001
0100
0000
0010
0000
1000
,
0100
0000
0010
0001
0000
0001
0000
0001
,
0010
0000
0100
1000
0000
2000
0000
0010
,
3010
0000
0000
0000
0000
0000
0002
0000
0010
0000
0000
0010
0000
0000
0013
0000
,
0000
0200
2300
3002
,
0023
0000
0130
1000
0100
0000
0010
0001
,
0000
0001
0010
0001
0020
0000
0230
0000
,
2300
0000
3001
0100
0001
0000
0001
0200
,
0000
0310
0100
0020
0000
0130
0000
0001
,
2000
0000
3010
0200
0000
0301
0000
0001
,
0010
0000
0000
0100
0000
0000
1001
0000
0000
0000
1000
0000
0000
0000
001M
0000
,
0M10
0000
0000
0000
0000
0200
0000
M310
,
001M
0000
0000
0000
0000
0001
0000
1000
,
2000
0000
0000
0100
0000
0000
3100
0000
0020
0000
0000
0001
0000
0000
0031
0000
,
0002
0010
1003
0100
,
0010
0001
0010
0100
1000
0100
0010
0000
,
1001
0000
0000
0000
0000
0000
0000
0000
0000
0000
0000
0000
0100
0000
0001
0100
,
0002
0000
0103
0010
0100
0000
0100
0010
,
0000
1000
0000
0001
0000
0000
0000
0100
,
2000
0000
3100
0020
0000
0031
0010
0002
,
0000
0013
0200
1000
0000
1300
0000
1000
,
0020
0000
0130
0001
0100
0000
0100
0001
,
0000
1000
0000
0010
0000
0000
0000
1000
,
0100
0000
0010
0001
0000
0100
0010
2000
,
0000
3001
0100
0001
0100
0010
1000
0010
,
0000
1000
0000
2020
0000
0000
3030
0000
;

//--------------- dance-single - tomori ----------------
#NOTES:
     dance-single:
     tomori:
     Challenge:
     15:
     0.645171,0.711484,0.365684,0.758795,0.219411,494,454,40,83,25,1,0.645171,0.711484,0.365684,0.758795,0.219411,494,454,40,83,25,1:
0000
0000
0000
0000
,
0000
0000
0000
0000
,
2010
0000
0000
0010
0000
0000
3010
0000
0120
0000
0000
0100
0000
0000
0130
0000
,
0102
0000
0000
0000
0010
0000
0000
0000
0203
0000
0001
0000
0302
0000
0000
0003
,
1001
0000
0010
0000
0100
0000
1001
0000
0100
0000
0010
0000
0001
1000
0010
0000
,
M22M
0000
0000
0000
0000
0000
0000
0000
0000
0000
0000
0330
1000
0100
0010
0001
,
2000
0000
0000
0000
3010
0000
0100
0010
0100
0000
0010
0000
1000
0000
0200
0000
,
0000
0000
1300
0000
0001
0000
0010
0001
0010
0000
0001
0000
0100
0000
0001
0010
,
0001
0100
0010
2000
0000
3100
0001
0200
,
0000
0000
1300
0000
0010
0000
0200
0000
0000
0000
0320
0000
0000
0000
1030
0001
,
0200
0000
0000
0000
0310
0000
1000
0100
1000
0000
0001
0000
0100
0000
0002
0000
,
0000
0000
0023
0000
0000
0000
0230
0000
0000
0000
1300
0000
0001
0000
0100
0001
,
0100
0000
0010
0000
1000
0000
0010
0000
0100
0001
0010
0000
0001
0000
2000
0000
,
0000
3010
1010
1010
0001
0100
0101
0202
,
0000
0000
00M0
M000
0000
00M0
M303
0000
,
0001
1000
0100
1000
0000
0001
0010
0100
,
0010
0001
0100
0010
0000
1000
0010
0100
,
0001
0010
0001
0100
0000
0010
1000
0100
,
2000
0000
3010
0200
0000
0301
0010
0000
,
0102
0000
0010
0013
0000
0010
0100
0000
,
2100
0000
0000
0000
0001
0000
3001
0000
0000
0000
0100
0000
0010
1000
0010
0000
,
0100
0001
0010
0001
0000
0101
0000
2002
,
0000
0003
3001
0200
0000
0310
1010
0000
,
1000
0100
1000
0010
0000
0010
0100
0001
,
0010
0001
0100
0010
0000
0010
1000
0100
,
1000
0010
0100
0001
0000
0001
0010
0001
,
0020
0000
0000
0000
1030
0000
0020
0000
0000
0000
0031
0000
0100
0000
0000
0100
,
0001
0000
1000
0000
0010
0000
2000
0000
0000
0000
0001
0000
3001
0000
0000
0001
,
0100
0000
0010
0000
1000
0000
0002
0000
0000
0000
0100
0000
0103
0000
0000
0100
,
0010
0000
1000
0000
0100
0000
0010
0000
0100
0000
1000
0000
0001
0000
0010
0100
,
0010
0001
0100
0010
0000
2000
0M2M
3030
,
0001
0010
0100
0001
0100
0010
0001
1000
,
0020
0000
0031
0020
0000
1030
0000
0000
,
1000
0100
0001
0100
1000
0010
0001
0010
,
2000
0000
0000
0000
3001
0000
0020
0000
0000
0000
0130
0000
1000
0100
1000
0000
,
1001
0000
0000
1000
0010
0000
1000
0000
0010
0000
1000
0000
0100
0000
0010
0000
,
1001
0000
0000
0001
0100
0000
0001
0000
0100
0000
0001
0000
0010
0000
0100
0000
,
2010
0000
3010
0100
0001
0100
0010
1000
,
0102
0000
0013
0001
0100
0001
0010
0100
,
1001
0000
0010
0001
1000
0000
0110
0000
0000
0000
0110
0000
0000
0000
2001
0000
,
0000
00M1
30M2
1M00
2M03
00M1
3M10
1MM1
,
0000
0000
0000
0000
0002
0000
0000
0000
0020
0000
0003
0000
0130
1000
0100
1000
,
0100
0000
1000
0000
0010
0000
0100
0001
0010
0000
0001
0000
0100
0000
0020
0000
,
0000
1030
0100
1000
1200
0000
0020
0300
,
0031
0000
0100
0000
0001
0000
0100
0010
1000
0000
0100
0000
1000
0000
0020
0000
,
0000
0130
0010
2000
0000
3001
0001
0100
,
0200
0000
0310
0020
0000
1030
0100
0010
,
0002
0000
0103
2000
0000
3100
0001
0010
,
0022
0000
0030
0000
0003
0000
1000
0100
1000
0000
0010
0100
0000
0001
0010
0000
,
0000
0000
0100
0000
1000
0000
0001
0000
0010
0000
1000
0000
0010
0001
0010
0001
,
0010
0000
0001
0000
0100
0000
0010
1000
0010
0000
0100
0000
0010
0000
2000
0000
,
0000
3001
0100
0010
0102
0000
0020
0003
,
0100
0000
1030
0000
0010
0000
0010
1000
0010
0000
0100
0000
0100
0001
0200
0000
,
0000
0310
1000
0200
0000
0301
0100
1000
,
0020
0000
0031
0020
0000
1030
0100
0010
,
1001
0000
0000
1010
0000
0000
1100
0000
0000
0000
2000
0000
0000
0000
3M10
0000
,
0110
0000
0000
M000
0000
0000
000M
0000
M000
0000
0200
0000
0000
0000
03M1
0000
,
0011
0000
0000
0M00
0000
0000
M000
0000
0000
0000
0002
0000
0000
0000
0103
0000
,
1010
0000
0000
0100
0000
0000
0010
0000
0101
0000
0000
0010
0000
0000
0100
0000
,
2002
0000
3MM3
2000
,
3101
0000
0010
0000
0100
0000
1010
0000
0100
0000
0010
0000
0001
0010
0100
1000
,
0002
0000
0000
0000
0000
0000
0000
0000
0000
0000
0000
0000
1003
0100
0010
0001
,
2000
0000
0000
0000
3010
0000
0100
0001
0100
0000
0010
0000
0100
0000
0002
0000
,
0000
0000
0103
0000
0010
0000
1000
0100
1000
0000
0001
0000
0010
0000
0001
0100
,
0010
0000
1000
0000
0100
0000
2000
0000
0000
0000
3010
0100
0001
0000
0020
0000
,
0000
0000
0130
0000
1000
0000
0200
0000
0000
0000
0320
0000
0000
0000
0031
1000
,
0200
0000
0000
0000
1300
0000
0010
1000
0010
0000
0100
0000
0001
0000
0020
0000
,
0000
0000
0031
0000
0100
0000
2000
0000
0000
0000
3100
0000
0001
0000
0010
0001
,
0010
1000
0010
0002
0000
0103
0010
0002
,
0000
0013
1000
1000
0100
0001
0001
1100
,
0000
1001
0000
0202
0000
0000
0303
0000
;
