#TITLE:Dream Believers;
#SUBTITLE:(104期 Ver.);
#ARTIST:蓮ノ空女学院スクールアイドルクラブ;
#TITLETRANSLIT:;
#SUBTITLETRANSLIT:;
#ARTISTTRANSLIT:;
#GENRE:;
#CREDIT:;
#MUSIC:Dream Believers.ogg;
#BANNER:Dream Believers-BN.png;
#BACKGROUND:Dream Believers-BG.png;
#CDTITLE:cdtitle.png;
#SAMPLESTART:72.481000;
#SAMPLELENGTH:11.852000;
#SELECTABLE:YES;
#OFFSET:0.621000;
#BPMS:0.000000=162.000000;
#STOPS:;
#BGCHANGES:1.250000=Dream Believers-BGA.avi=1.000=0=0=0=StretchNoLoop==CrossFade_Fastest==,
370.000000=Dream Believers-BG.png=1.000000=0=0=1===CrossFade_Fastest==,
99999.000000=-nosongbg-=1.000000=0=0=0=StretchNoLoop====
;
#FGCHANGES:;

//--------------- dance-single - tomori ----------------
#NOTES:
     dance-single:
     tomori:
     Beginner:
     2:
     0,0,0,0,0:
0000
0000
0000
0000
,
0000
0000
0000
0000
,
0000
0000
0000
0000
,
0000
0000
0000
0000
,
0000
0000
0000
0000
,
0000
0000
0000
0000
,
0000
0000
0000
0000
,
0000
0000
0000
0000
,
0000
0000
0000
0000
,
0000
0000
0000
0000
,
1001
0000
0000
0000
,
0010
0000
0010
0000
,
0100
0000
0000
0000
0000
0000
0000
0100
,
0000
0000
0000
0000
,
0110
0000
0000
0000
,
1000
0000
0001
0000
,
1000
0000
0000
0000
0000
0000
0000
0001
,
0000
0000
0000
0000
,
0100
0000
0000
0000
,
0100
0000
0000
0000
,
0001
0000
0000
0000
,
0001
0000
0000
0000
,
1000
0000
0000
0000
,
1000
0000
0000
0000
,
0010
0000
0000
0000
,
0010
0000
0000
0000
,
0101
0000
0000
0000
,
0010
0000
0000
0000
,
1010
0000
0000
0000
,
0100
0000
0000
0000
,
0011
0000
0000
0000
,
1100
0000
0000
0000
,
0001
0000
0000
0100
0000
0000
0000
0001
,
0000
0000
0000
0000
,
2000
0000
0000
0000
,
3000
0000
0000
0000
,
0200
0000
0000
0000
,
0300
0000
0000
0000
,
0020
0000
0000
0000
,
0030
0000
0000
0000
,
0002
0000
0000
0003
0000
0000
0000
0000
,
0002
0000
0000
0003
0000
0000
0000
0000
,
0100
0000
0000
0010
0000
0000
0000
1000
,
0000
0000
0000
0000
,
0020
0000
0030
0000
,
0200
0000
0300
0000
,
0001
0000
0000
0000
,
1000
0000
0000
0000
,
0001
0001
0001
0000
,
0100
0100
0100
0000
,
1001
0000
0000
0000
,
0100
0000
0010
0000
,
1001
0000
0000
0000
,
0010
0000
0100
0000
,
0110
0000
0000
0000
,
1001
0000
0000
0000
,
1000
0000
0000
0001
0000
0000
0000
0000
,
0001
0000
0000
1000
0000
0000
0000
0000
,
0001
0000
0001
0000
,
0001
0000
0000
0000
,
0100
0000
0100
0000
,
0100
0000
0000
0000
,
0020
0000
1030
0000
,
2000
0000
3010
0000
,
0100
0000
0001
0000
,
1000
0000
0010
0000
,
0020
0000
0000
0000
,
0030
0000
0000
0000
,
0200
0000
0000
0000
,
0000
0000
0300
0000
,
0001
0000
0000
0000
,
0101
0000
0000
0000
,
0100
0000
0000
0000
,
0110
0000
0000
0000
,
0010
0000
0000
0000
,
1010
0000
0000
0000
,
1000
0000
0000
0000
,
1100
0000
0000
0000
,
0100
0100
0100
0000
,
0110
0000
0000
0000
,
0010
0010
0010
0000
,
0011
0000
0000
0000
,
0001
0001
0001
0000
,
1001
0000
0000
0000
,
1000
1000
1000
0000
,
1100
0000
1010
0000
,
2002
0000
0000
0000
,
0000
0000
0000
3003
,
0000
0000
0000
0000
0000
0000
0000
0010
;

//--------------- dance-single - tomori ----------------
#NOTES:
     dance-single:
     tomori:
     Easy:
     5:
     0,0,0,0,0:
0000
0000
0000
0000
,
0000
0000
0000
0000
,
0000
0000
0000
0000
,
0000
0000
0000
0000
,
0000
0000
0000
0000
,
0000
0000
0000
0000
,
0000
0000
0000
0000
,
0000
0000
0000
0000
,
0000
0000
0000
0000
,
0000
0000
0000
0000
,
1001
0001
0000
0001
,
0000
1000
0000
1000
,
0020
0000
0100
0130
,
0200
0000
0010
0310
,
1010
1000
0000
1000
,
0000
0001
0000
0001
,
0200
0000
0000
0000
0010
0000
0000
0301
,
0000
0000
0000
0000
,
1000
0000
0010
0000
,
1000
0000
0010
0000
,
0100
0000
0001
0000
,
0100
0000
0001
0000
,
0010
0000
0001
0000
,
0100
0000
0010
0000
,
1000
0000
0000
0000
0100
0000
0000
1000
,
0000
1000
0000
1000
0000
0000
0000
0000
,
2001
0000
0000
3010
0000
0000
0000
0000
,
1002
0000
0000
0103
0000
0000
0000
0000
,
2010
0000
0000
3100
0000
0000
0000
0000
,
0012
0000
0000
0103
0000
0100
0000
0100
,
0000
0000
0001
0010
,
0001
0000
1000
0100
,
1000
0000
0000
0001
0000
0000
0000
1001
,
0000
0000
0000
0000
,
2000
0000
0000
3010
,
0020
0000
0000
0130
,
0200
0000
0000
0301
,
0002
0000
1003
0000
,
2001
0000
0000
3001
,
0102
0000
0000
0103
,
0110
0000
0000
0000
,
1100
0000
0000
0000
,
0011
0000
0000
0000
0000
0000
0000
1001
,
0000
0000
0000
0000
,
1000
0100
1000
0000
,
0001
0010
0001
0000
,
2000
0000
0000
3100
0000
0000
0000
0000
,
0200
0000
0000
0310
0000
0000
0000
0000
,
0002
0000
0010
0000
0010
0000
0010
0003
,
0000
0000
0000
0000
,
1001
0000
0001
1000
,
0002
0000
0000
1003
0000
0000
0000
0000
,
0110
0000
0100
0010
,
0200
0000
0000
0310
0000
0000
0000
0000
,
1000
1000
1000
0000
,
0010
0010
0010
0100
,
0200
0000
0000
0301
0000
0000
0001
0000
,
0002
0000
0000
0103
0000
0000
0000
0000
,
1010
0000
0010
1000
,
0020
0000
0000
1030
0000
0000
0000
0000
,
0101
0000
0000
0000
0100
0000
0001
0100
,
0000
0001
0010
0100
,
1000
0000
0100
1000
,
0100
0000
0010
0001
,
0020
0000
0032
0000
,
2003
0000
3200
0000
,
0310
0000
0001
0010
,
0002
0000
0000
0000
0000
0103
0000
0000
,
0200
0000
0000
0000
,
0000
0000
0300
0000
,
0010
0010
0010
0000
,
1010
0000
0000
0000
,
1000
1000
1000
0000
,
1001
0000
0000
0000
,
0001
0001
0001
0000
,
0101
0000
0000
0000
,
0100
0100
0100
0000
,
0100
0001
1000
0010
,
2000
0000
0010
0010
,
3010
0000
0000
0000
,
0200
0000
0001
0001
,
0301
0000
0000
0000
,
0020
0000
1000
1000
,
1030
0000
0000
0000
,
0002
0000
0100
0100
,
0103
0000
0110
0000
,
2002
0000
0000
0000
,
0000
0000
0000
0000
0000
0000
0000
3003
,
0000
0000
0000
0000
0000
0000
0000
0200
,
0000
0000
0000
0000
,
0000
0000
0000
0000
,
0000
0000
0000
0000
,
0300
0000
0000
0000
;

//--------------- dance-single - tomori ----------------
#NOTES:
     dance-single:
     tomori:
     Medium:
     8:
     0,0,0,0,0:
0000
0000
0000
0000
,
0000
0000
0000
0000
,
0000
0000
0000
0000
,
0000
0000
0000
0000
,
0000
0000
0000
0000
,
0000
0000
0000
0000
,
0000
0000
0000
0000
,
0000
0000
0000
0000
,
0000
0000
0000
0000
,
0000
0000
0000
0000
,
1001
0000
0001
0001
,
0002
0000
0203
0000
,
0320
0000
0000
0000
1030
0000
0010
1000
,
0000
0000
1000
0100
,
2002
3003
1000
1000
,
2000
0000
3020
0000
,
0230
0000
0000
0000
0301
0000
0100
0001
,
0000
0000
0000
1000
,
1000
0000
0000
0010
,
0010
0000
0000
0100
,
0100
0000
0000
0100
0000
0000
0001
0000
,
0001
0000
0000
0010
0000
0100
0000
1000
,
0000
1000
0000
1000
,
0000
0001
0000
0001
,
0000
0000
0100
0000
0000
0000
0100
0010
,
0000
0010
0000
0010
0000
0000
0000
0000
,
0100
0100
0000
0001
0000
0000
0000
0000
,
0001
0001
0000
1000
0000
0000
0000
0000
,
1000
1000
0000
0010
0000
0000
0000
0000
,
0010
0010
0000
0010
0000
0100
0000
0000
,
0100
0100
0000
0101
0000
0000
0000
0000
,
0001
0001
0000
1001
0000
0000
0000
0000
,
0110
0000
0000
1001
0000
0110
0000
1001
,
0000
1000
0100
0010
,
0002
0000
0103
0100
,
0200
0000
0310
0010
,
0020
0000
1030
1000
,
2000
0000
3100
0000
,
0020
0000
0031
0010
,
0200
0000
1300
0010
,
2000
0010
0000
3010
0000
0000
0000
0000
,
0200
0001
0000
0301
0000
0000
0000
0000
,
0020
0000
0000
0100
0000
0100
0000
0130
,
0000
0001
0010
0100
,
1000
1000
1000
0000
,
0001
0001
0001
0000
,
0110
0000
0010
0100
0000
0000
0010
0000
,
1001
0000
0001
1000
0000
0000
0001
0000
,
1000
0000
0001
0000
1000
0000
0001
2000
,
0000
0010
3010
0000
0000
0000
0000
0000
,
1000
0010
1000
0010
,
2002
0000
0000
0003
0000
0000
3001
0000
0000
0000
0000
0000
0001
0000
0010
0000
,
0001
0100
0001
0100
,
2002
0000
0000
3000
0000
0000
1003
0000
0000
0000
0000
0000
0100
0000
0010
0000
,
0001
0001
0001
0000
,
1000
1000
1000
0000
,
1010
0000
0000
0110
0000
0000
0000
0000
,
0101
0000
0000
0110
0000
0000
0000
0000
,
0010
0100
0010
0100
,
0220
0000
0000
0030
0000
0000
0310
0000
0000
0000
0000
0000
0010
0000
0100
0000
,
2001
0000
0000
0000
0010
0000
0000
3001
,
0000
0000
0000
0000
0000
0000
0100
0000
0001
0000
1000
0000
,
0010
0000
0010
1000
,
0010
0000
1000
0001
,
2000
0000
3020
0000
,
0230
0000
0302
0010
,
0013
0000
0100
0100
,
1000
0000
0000
0001
0000
1000
0000
0000
,
0002
0000
0000
0000
,
0000
0000
0013
0100
,
1000
0100
1000
0100
,
2100
0000
0000
3100
0000
0000
0000
0000
,
0001
0010
0001
0010
,
0012
0000
0000
0013
0000
0000
0000
0000
,
1000
0001
1000
0001
,
1002
0000
0000
1003
0000
0000
0000
0000
,
0010
0100
0010
0100
,
0110
0110
1001
1001
,
0101
0000
0001
0100
0001
0000
0001
0100
,
0001
0010
0100
1000
,
1010
0000
1000
0010
1000
0000
1000
0010
,
1000
0100
0010
0001
,
1001
0000
0001
1000
0001
0000
1000
0001
,
1000
0001
0100
0010
,
2200
3300
0220
0330
,
0022
0033
2002
3003
,
0220
0000
0000
0000
,
0330
0000
0000
0000
,
1000
0000
0000
0000
0100
0000
0000
0002
,
0000
0000
0000
0000
,
0000
0000
0000
0000
,
0000
0000
0000
0000
,
0003
0000
0000
0000
;

//--------------- dance-single - tomori ----------------
#NOTES:
     dance-single:
     tomori:
     Hard:
     12:
     0.102016,0.145798,0.072132,0.086559,0,99,89,10,12,0,0,0.102016,0.145798,0.072132,0.086559,0,99,89,10,12,0,0:
0000
0000
0000
0000
,
0000
0000
0000
0000
,
0000
0000
0000
0000
,
0000
0000
0000
0000
,
0000
0000
0000
0000
,
0000
0000
0000
0000
,
0000
0000
0000
0000
,
0000
0000
0000
0000
,
0000
0000
0000
0000
,
0000
0000
0000
0000
,
1001
0000
0100
0000
0010
0001
0010
0000
,
2001
3010
1002
0013
,
0100
0001
0100
0000
0010
0000
1000
0020
,
0000
0100
0100
0130
,
1001
0000
0110
0000
1000
0100
1000
0000
,
0021
0130
1020
0130
,
0001
0010
0001
0000
1000
0010
1000
0020
,
0000
0130
0011
0101
,
1001
0000
1000
0000
1000
0000
1000
0010
,
0100
0000
0100
0000
0100
0000
0100
0001
,
0010
0000
0010
0000
0010
0000
0010
0100
,
0001
0001
0001
2000
,
3001
0000
0001
0000
0001
0100
0010
0000
,
1000
0000
1000
0001
0000
0001
0000
2000
,
0000
0000
0010
3000
0010
0100
0001
0200
,
0000
0301
0000
0002
0000
0013
0100
2000
,
0000
0000
3001
0100
0000
0100
0000
0010
,
1000
0000
0001
0100
0000
0100
0000
0001
,
0010
0000
0100
0010
0000
0002
0000
1003
,
0010
0000
0010
0100
0000
0100
0000
0002
,
0010
0010
0000
0103
0000
0010
0000
2000
,
0100
0100
0000
3010
0000
0100
0000
0010
,
1000
0001
0100
0002
0000
0103
0010
2000
,
0000
3100
0010
0001
,
0002
0000
0000
1000
1003
0000
0010
0000
,
0200
0000
0000
0001
0301
0000
0010
0000
,
2000
0000
0000
0100
3100
0000
1000
0000
,
0020
0000
0000
0100
0130
0000
0001
0000
,
0200
0000
0000
0001
0010
0000
0310
0000
,
0020
0000
0000
1000
0100
0000
0130
0000
,
0001
0010
0001
0010
0000
0010
0001
0000
,
1000
0100
1000
0100
0000
0100
1000
0000
,
1001
0000
0001
1000
0000
0110
0000
0110
,
0000
1000
0001
0100
0010
1000
0001
0000
,
0001
0000
0001
0100
0010
0000
0010
0000
,
1000
0000
1000
0010
0100
0000
0100
0000
,
0010
0100
0010
1000
0000
1000
0001
0000
,
0010
0001
0100
0010
0000
0010
1000
0000
,
1001
0000
0110
0000
1001
0000
0010
0200
,
0000
0010
0310
0000
0000
0000
M00M
0000
,
1001
0110
1001
0110
,
0210
0000
0000
0001
0000
0000
0310
0000
0000
0000
0010
0000
0100
0000
0100
0000
,
1001
0110
1001
0110
,
0120
0000
0000
1000
0000
0000
0130
0000
0000
0000
0010
0000
0100
0000
0100
0000
,
0001
0000
0000
0001
0000
0000
0010
0000
0010
0000
0000
0000
0000
0000
0100
0000
,
1000
0000
0000
1000
0000
0000
0001
0000
0001
0000
0000
0000
0100
0000
0000
0000
,
0010
1000
0010
1000
0000
1000
0001
0000
,
0100
0001
0100
0001
0000
0001
1000
0000
,
1001
0110
1001
0110
,
0210
0000
0000
0010
0000
0000
0310
0000
0000
0000
1000
0000
0100
0000
0010
0000
,
0001
0000
0000
0000
1001
0000
0000
1000
0001
0000
0010
0000
0100
0000
1000
0000
,
0000
0000
0000
0110
0000
0000
0000
0000
0000
0001
0000
0000
0100
0000
0000
0000
0010
0000
0000
0000
1000
0000
0000
0000
,
0002
0000
0100
0103
0000
0100
0001
0000
,
2000
0000
0010
3010
0000
0010
1000
0000
,
0100
1000
0100
0100
0010
0100
0010
0010
,
0001
0010
0001
0001
0100
0010
0100
0100
,
2000
0010
0001
3100
,
1001
0000
0000
0100
0000
0010
0000
0000
,
1001
0000
0010
0200
0000
0000
0000
0000
,
0000
0000
0000
0000
0301
1000
0001
0000
,
1010
0100
1010
0100
,
2010
0000
0000
0010
0000
0000
3010
0000
0000
0000
0010
0000
0100
0000
0000
0000
,
0101
0010
0101
0010
,
0102
0000
0000
0100
0000
0000
0103
0000
0000
0000
0100
0000
0010
0000
0000
0000
,
1100
0010
1100
0001
,
2100
0000
0000
0010
0000
0000
3001
0000
0000
0000
0001
0000
0010
0000
0000
0000
,
0011
0100
0011
1000
,
0012
0000
0000
0000
0203
0000
0000
0000
2300
0000
0000
3000
0200
0000
0300
0000
,
1001
0000
0000
0001
0000
0000
1000
0000
0010
0000
0000
0100
0000
0000
0001
0000
,
1000
0000
0000
0010
0000
0000
0100
0000
0000
0000
0100
0000
0001
0000
0000
0000
,
1001
0000
0000
0100
0000
0000
0001
0000
0100
0000
0000
0010
0000
0000
1000
0000
,
0010
0000
0000
0100
0000
0000
0001
0000
0000
0000
0001
0000
1000
0000
0000
0000
,
1001
0000
0000
0001
0000
0000
0010
0000
0100
0000
0000
1000
0000
0000
0100
0000
,
0010
0000
0000
0001
0000
0000
1000
0000
0000
0000
1000
0000
0010
0000
0000
0000
,
0110
0000
0000
0001
0000
0000
1000
0000
0010
0000
0000
0100
0000
0000
0001
0000
,
0200
0302
2003
3020
,
0230
0000
0000
0000
,
0000
0000
0000
0000
,
0300
0001
0100
0010
1000
0000
2000
0002
,
0000
0000
0000
0000
,
0000
0000
0000
0000
,
0000
0000
0000
0000
,
3003
0000
0000
0000
;

//--------------- dance-single - tomori ----------------
#NOTES:
     dance-single:
     tomori:
     Challenge:
     15:
     0.611064,0.862703,0.346235,0.728537,0.299349,593,545,48,101,9,3,0.611064,0.862703,0.346235,0.728537,0.299349,593,545,48,101,9,3:
0000
0000
0000
0000
,
0000
0000
0000
0000
,
0000
0000
0000
0000
,
0000
0000
0000
0000
,
0000
0000
0000
0000
,
0000
0000
0000
0000
,
0000
0000
0000
0000
,
0000
0000
0000
0000
,
0000
0000
0000
0000
,
0000
0000
0000
0000
,
1002
0000
0103
0000
0001
0010
0001
0100
,
0010
0000
1000
0000
0010
0000
0100
0000
0010
0000
1000
0000
,
0002
0000
0103
0000
0010
1000
0100
2100
,
0000
0000
0001
0000
3010
0100
0001
0010
,
2001
0000
3100
0000
0010
1000
0010
0100
,
0001
0000
0010
0000
0001
0000
0100
0000
0010
0000
1000
0000
,
0200
1000
1000
0000
0310
0001
0010
0002
,
0000
0100
0100
0000
0013
0100
0010
0001
,
0010
0000
0010
0000
0010
0100
0001
0000
,
1000
0000
1000
0000
1000
0010
0100
0000
,
0001
0000
0001
1000
0000
1000
0010
0000
,
0100
0000
0100
0001
0000
0001
0010
0002
,
0100
0000
0103
0000
0100
0010
1000
0000
,
0001
0000
0001
0100
0000
0100
0000
0020
,
1000
0000
1030
0001
0000
0100
0010
2000
,
0000
0001
0000
3002
0000
1003
0010
0200
,
0001
0301
0000
0101
0000
0001
0100
0020
,
1000
1030
0000
1010
0000
1000
0001
0200
,
0010
0310
0000
0110
0000
0100
0001
2000
,
0001
3001
0000
1002
0000
0100
0000
0013
,
0001
0010
0000
0011
0000
1000
0010
2000
,
0100
0000
3100
0000
0000
0000
1100
0000
0000
0000
1000
0001
1000
0000
0010
0000
,
0100
0100
0001
0010
0000
0010
0001
0200
,
0000
0000
0310
0000
1000
0000
0001
0100
0001
0000
0010
0000
0100
0000
1000
0000
,
0002
0000
0000
0100
0103
0010
1000
0000
,
2010
0000
0100
3200
0000
0320
0001
0130
,
0002
0000
0000
0000
0000
0000
1003
0010
1000
0000
0000
0000
0010
0000
0100
0000
,
0002
0000
0000
0000
0000
0000
0103
0001
0100
0000
0010
0000
1000
0000
0100
0000
,
2000
0000
0000
0010
3010
0100
0001
0000
,
0102
0203
0320
2030
,
3001
0100
0010
1010
0000
1000
0010
0100
,
0001
1000
0100
1100
0000
0010
0001
0010
,
0200
0000
0301
0101
0000
1100
0000
2002
,
0003
3010
1000
0010
0100
0001
0100
0010
,
2000
0000
0000
0010
0000
0000
0100
0000
3001
0000
0000
0000
0000
0000
0100
0000
,
0002
0000
0000
0010
0000
0000
1000
0000
0103
0000
0001
0010
0001
0000
1000
0000
,
1200
0000
0310
0021
0000
0031
0100
0010
,
0200
0001
0310
0002
0000
1000
0103
0010
,
0001
1000
0001
1000
0010
0100
0010
0200
,
0000
0310
1001
0000
0000
0000
M00M
0000
,
2010
0000
0000
3010
0100
0000
0001
0000
0102
0000
0000
0103
0010
0000
1000
0000
,
0020
0000
0000
0230
0000
0000
0302
0000
1000
0003
0010
0000
0100
0000
0010
0000
,
2100
0000
0000
3001
0100
0000
0010
0000
0210
0000
0000
0301
1000
0000
0010
0000
,
0200
0000
0000
0302
0000
0000
2003
0000
0000
0000
3010
0000
0100
0001
0100
0000
,
0010
0000
0000
0010
1000
0000
1000
0000
0001
0000
0000
0001
0100
0000
0100
0000
,
0020
0000
0000
1030
0001
0000
0001
0000
0200
0000
0000
0310
1000
0000
1000
0000
,
1010
0100
0010
0202
0000
0313
0100
0001
,
1100
0000
0010
0000
0100
0000
0012
0000
2000
0000
0000
0000
3013
0100
0001
0000
,
0201
0000
0000
0310
0100
0000
0001
0000
1020
0000
0000
0130
0001
0000
1000
0000
,
0020
0000
0000
0032
0000
0000
0023
0000
1030
0000
0100
0000
0010
0000
0001
0000
,
0101
0000
0010
0000
0101
0000
0000
0100
0001
0000
0010
0000
0100
0000
2000
0000
,
0000
0000
0000
0000
0000
0000
3010
0000
0000
0000
0000
0000
0100
0000
0000
0010
0000
0000
1000
0000
0000
0000
0000
0000
0101
0000
0000
0000
0000
0000
0000
0000
0110
0000
0000
0000
0000
0000
0000
0000
1010
0000
0000
0000
0000
0000
0000
0000
,
1001
1000
0010
0100
0010
1000
0010
0001
,
0010
0100
0001
0010
0001
0100
0001
0010
,
0200
0000
1000
1300
0020
0100
0130
0001
,
0021
0000
0001
0031
0200
0010
0310
1000
,
1002
0000
0000
0000
0103
0000
0001
0010
0001
0000
0100
0000
0010
0000
1000
0000
,
0002
0000
0103
0020
0000
0230
0000
0000
,
M32M
0000
1000
2000
0000
0000
0000
0000
,
0000
0000
0000
0000
0000
0000
0000
0000
0000
0000
0000
0000
0000
0000
0000
0000
0000
0000
0000
0000
0000
0000
0000
0000
0000
0000
0000
0000
0000
0000
0000
0000
0000
0000
0000
0000
0000
0000
0000
0000
0000
0000
0000
0000
0000
0000
0000
0000
0000
0000
0000
0000
0000
0000
0000
0000
0000
0000
0000
0000
0030
0000
0000
0000
0000
0000
0000
0000
0000
0000
0000
0000
3000
0000
0000
0000
0000
0000
0000
0000
0000
0000
0000
0000
0000
0000
0000
0000
0000
0000
0000
0000
0000
0000
0000
0000
0001
0000
0000
0000
0000
0000
0000
0000
0000
0000
0000
0000
0010
0000
0000
0000
0000
0000
0000
0000
0000
0000
0000
0000
0100
0000
0000
0000
0000
0000
0000
0000
0000
0000
0000
0000
1000
0000
0000
0000
0000
0000
0000
0000
0000
0000
0000
0000
0002
0000
0000
0000
0000
0000
0000
0000
0000
0000
0000
0000
0000
0000
0000
0000
0000
0000
0000
0000
0000
0000
0000
0000
0000
0000
0000
0000
0000
0000
0000
0000
0000
0000
0000
0000
0000
0000
0000
0000
0000
0000
0000
0000
0000
0000
0000
0003
,
0101
0000
0000
0100
0001
0000
0001
0000
1010
0000
0000
1000
0010
0000
0010
0000
,
0200
0000
0000
0001
0000
0000
0301
0000
0010
0000
0001
0000
0100
0000
0000
0000
,
1100
0000
0000
0100
1000
0000
1000
0000
0101
0000
0000
0001
0010
0000
0010
0000
,
0002
0000
0000
0100
0000
0000
0103
0000
0010
0000
1000
0000
0100
0000
0000
0000
,
1001
0000
0000
1000
0001
0000
0100
0000
0110
0000
0000
0010
0100
0000
0001
0000
,
2000
0000
0000
0010
0000
0000
3001
0000
0100
0000
1000
0000
0100
0000
0001
0000
,
0020
0000
0000
0031
0100
0000
0010
0000
2000
0000
0000
3010
0100
0001
0010
0100
,
10M0
0000
1000
0000
M1M1
0000
0001
0000
11MM
0000
1000
0010
1000
0000
0001
0000
,
0100
0010
0000
0010
1000
0000
0001
0000
0001
0100
0000
0100
0010
0000
1000
0000
,
1002
0000
0000
0103
0001
0000
0010
0000
0001
0000
0100
0000
0010
1000
0010
0000
,
0100
0001
0000
0001
0010
0000
0100
0000
1000
0100
0000
0100
1000
0000
0010
0000
,
0201
0000
0000
0310
1000
0000
0001
0000
0100
0000
0001
0000
1000
0100
1000
0000
,
0001
0100
0000
0010
1000
0000
0001
0000
0100
0010
0000
1000
0100
0000
0010
0000
,
0012
0000
0000
0013
0100
0000
1000
0000
0001
0000
0010
0000
0001
0100
0001
0100
,
0001
1000
0000
1000
0010
0000
0010
0100
0001
0010
0000
0010
0001
0000
0010
0000
,
0200
0000
1300
0001
0020
0000
0031
1000
0010
0100
0010
1000
0001
0010
0100
1000
,
0002
0003
0000
0000
0000
0000
0000
0000
0000
0000
0000
0000
0000
0000
0000
0000
0000
0000
0000
0000
0000
0000
0000
0000
0200
0300
0000
0000
0000
0000
0000
0000
0000
0000
0000
0000
0000
0000
0000
0000
0000
0000
0000
0000
0000
0000
0000
0000
0020
0030
0000
0000
0000
0000
0000
0000
0000
0000
0000
0000
0000
0000
0000
0000
0000
0000
0000
0000
0000
0000
0000
0000
2000
3000
0000
0000
0000
0000
0000
0000
0000
0000
0000
0000
0000
0000
0000
0000
0000
0000
0000
0000
0000
0000
0000
0000
0020
0030
0000
0000
0000
0000
0000
0000
0000
0000
0000
0000
0000
0000
0000
0000
0000
0000
0000
0000
0000
0000
0000
0000
0200
0300
0000
0000
0000
0000
0000
0000
0000
0000
0000
0000
0000
0000
0000
0000
0000
0000
0000
0000
0000
0000
0000
0000
0002
0003
0000
0000
0000
0000
0000
0000
0000
0000
0000
0000
0000
0000
0000
0000
0000
0000
0000
0000
0000
0000
0000
0000
0020
0030
0000
0000
0000
0000
0000
0000
0000
0000
0000
0000
0000
0000
0000
0000
0000
0000
0000
0000
0000
0000
0000
0000
,
0002
0003
0000
0000
0000
0000
0000
0000
0000
0000
0000
0000
0000
0000
0000
0000
0000
0000
0000
0000
0000
0000
0000
0000
0200
0300
0000
0000
0000
0000
0000
0000
0000
0000
0000
0000
0000
0000
0000
0000
0000
0000
0000
0000
0000
0000
0000
0000
0020
0030
0000
0000
0000
0000
0000
0000
0000
0000
0000
0000
0000
0000
0000
0000
0000
0000
0000
0000
0000
0000
0000
0000
2000
3000
0000
0000
0000
0000
0000
0000
0000
0000
0000
0000
0000
0000
0000
0000
0000
0000
0000
0000
0000
0000
0000
0000
0200
0300
0000
0000
0000
0000
0000
0000
0000
0000
0000
0000
0000
0000
0000
0000
0000
0000
0000
0000
0000
0000
0000
0000
2000
3000
0000
0000
0000
0000
0000
0000
0000
0000
0000
0000
0000
0000
0000
0000
0000
0000
0000
0000
0000
0000
0000
0000
0020
0030
0000
0000
0000
0000
0000
0000
0000
0000
0000
0000
0000
0000
0000
0000
0000
0000
0000
0000
0000
0000
0000
0000
0200
0300
0000
0000
0000
0000
0000
0000
0000
0000
0000
0000
0000
0000
0000
0000
0000
0000
0000
0000
0000
0000
0000
0000
,
0002
0100
0103
0020
1000
0000
2000
0230
,
0000
0000
0000
0000
,
0000
0000
0000
0000
,
0000
0000
0000
0000
,
3300
0000
0000
0000
;
