#TITLE:ド!ド!ド!;
#SUBTITLE:;
#ARTIST:みらくらぱーく!;
#TITLETRANSLIT:Do! Do! Do!;
#SUBTITLETRANSLIT:;
#ARTISTTRANSLIT:Mira-Cra Park!;
#GENRE:;
#CREDIT:;
#MUSIC:Do! Do! Do!.ogg;
#BANNER:Do! Do! Do!-BN.png;
#BACKGROUND:Do! Do! Do!-BG.png;
#CDTITLE:cdtitle.png;
#SAMPLESTART:55.756;
#SAMPLELENGTH:9.746;
#SELECTABLE:YES;
#OFFSET:-0.210;
#BPMS:0.000=197.000
,182.500=394.000
,184.000=197.000
;
#STOPS:182.500=0.076
,183.000=0.076
,183.500=0.076
;
#DISPLAYBPM:197.000;
#BGCHANGES:-0.925=Do! Do! Do!-BGA.avi=1.000=0=0=0=StretchNoLoop==CrossFade_Fastest==,
99999.000=-nosongbg-=1.000=0=0=0=StretchNoLoop====
;
#FGCHANGES:;

//--------------- dance-single - tomori ----------------
#NOTES:
     dance-single:
     tomori:
     Beginner:
     4:
     0.186669,0.32559,0.086392,0.313172,0,121,113,8,29,1,0,0.186669,0.32559,0.086392,0.313172,0,121,113,8,29,1,0:
0000
0000
0000
0000
,
0000
0000
0000
0000
,
0000
0000
0000
0000
,
0000
0000
0000
0000
,
0001
0000
0001
0000
,
1000
0000
1000
0000
,
0010
0000
0100
0000
,
2002
0000
3003
0000
,
0100
0000
0100
0000
,
0010
0000
0010
0000
,
1000
0000
0001
0000
,
1000
0000
0002
0000
,
0103
0000
0000
0000
,
0100
0000
0000
0000
,
0001
0000
0001
0000
,
0100
0000
0100
0000
,
0001
0000
0000
0000
,
1000
0000
0000
0000
,
0010
0000
0010
0000
,
1000
0000
1000
0000
,
0001
0001
0001
0000
,
0100
0000
0100
0000
,
0010
0010
0010
0000
,
1000
0000
1000
0000
,
0100
0100
0100
0000
,
0010
0000
0001
0000
,
0001
0000
0100
0000
0001
0000
0000
0001
,
0000
0000
0000
0200
0000
0000
0300
0000
,
0020
0000
0000
0000
,
0030
0000
0000
0000
,
0200
0000
0000
0000
,
0300
0000
0000
0000
,
0002
0000
0003
0000
,
2000
0000
3000
0000
,
0002
0000
0000
0000
,
0103
0000
0100
0000
,
0001
0001
0001
0000
,
0100
0000
0010
0000
,
1000
1000
1000
0000
,
0010
0000
0100
0000
,
0001
0001
0001
0000
,
0010
0000
0010
0000
,
0100
0100
0100
0000
,
1000
0000
1000
0000
,
0001
0000
0000
0000
0100
0000
0000
0100
,
0000
0000
0000
0002
0000
0000
0000
0000
,
1003
0000
1000
0000
,
0010
0000
0010
0000
,
0100
0000
0001
0000
,
0100
0000
0001
0000
,
1000
0010
1000
0000
,
0001
0000
0100
0000
,
0010
0010
0010
0000
,
1000
0000
1000
0000
,
0001
0000
0001
0000
,
0100
0000
0100
0000
,
0010
0000
1000
0000
,
0010
0000
1000
0000
,
0001
0100
0001
0000
,
1000
0000
0010
0000
,
0100
0100
0100
0000
,
0001
0000
0001
0000
,
1001
0000
1001
0000
,
1000
0000
1000
0000
,
0110
0000
0110
0000
,
0010
0000
0010
0000
,
0200
0000
0001
0000
,
0302
0000
1000
0000
,
2003
0000
0010
0000
,
3020
0000
0100
0000
,
0130
0000
0001
0000
,
1000
0000
0000
0010
0000
0000
1001
0000
;

//--------------- dance-single - tomori ----------------
#NOTES:
     dance-single:
     tomori:
     Easy:
     7:
     0.303915,0.406988,0.280775,0.323971,0.010799,197,171,26,30,8,0,0.303915,0.406988,0.280775,0.323971,0.010799,197,171,26,30,8,0:
0000
0000
0000
0000
,
0000
0000
0000
0000
,
0000
0000
0000
0000
,
0000
0000
0000
0000
,
1000
1000
0010
0010
,
0100
0001
0100
0001
,
0010
0010
0100
0100
,
1000
0001
1000
0001
,
2000
0000
3100
0000
,
0002
0000
0103
0000
,
0020
0000
0000
0000
2000
0000
0000
3030
,
0000
1000
0100
0010
,
0001
0000
0001
0000
,
0100
0000
0100
0000
,
0202
0000
0000
0000
0303
0000
0000
0100
,
0000
0000
0100
0001
,
1000
0000
1000
0000
,
0010
0000
0010
0000
,
2020
0000
0000
0000
3030
0000
0000
0010
,
0000
0000
0010
1000
,
0010
0000
0100
0000
,
0010
0000
0100
0000
,
0220
0000
0000
0000
0330
0000
0000
0010
,
0000
0000
0010
0100
,
0001
0000
0001
0000
,
1000
0000
1000
0000
,
0001
0000
1000
0000
0002
0000
0000
1003
,
0000
0000
0000
1001
0000
0000
0000
0000
,
1000
0000
0000
0000
0000
0000
0000
0000
0000
0000
0000
0100
,
0000
0000
0000
0000
,
0010
0000
0000
0000
0000
0000
0000
0000
0000
0000
0000
0001
,
0000
0000
0000
0000
,
1000
0000
1000
0000
,
0001
0000
0001
0000
,
0200
0000
0000
0000
,
0320
0000
0000
0000
,
1030
1000
1000
0000
,
0010
0010
0010
0000
,
0101
0000
0101
0000
,
1010
0000
1010
0000
,
0001
0001
0001
0000
,
0100
0100
0100
0000
,
0010
1000
0010
1000
,
0001
0100
0001
0100
,
0002
0000
0000
0000
1000
0000
0000
1003
,
0000
0000
0000
2002
0000
3003
0000
0000
,
0001
1000
0001
0000
,
1000
0001
1000
0000
,
0020
0100
0100
0130
,
0002
0010
0013
0000
,
1000
1000
1000
0010
,
0100
0100
0100
0000
,
1001
0000
0110
0000
,
1001
0000
0110
0000
,
0001
0100
0001
0000
,
1000
0010
1000
0000
,
0200
0010
0010
0310
,
2000
0100
3100
0000
,
0110
0000
1001
0000
,
0110
0000
1001
0000
,
0002
0100
1003
0000
,
2000
3001
0200
0301
,
0101
0000
1010
0000
,
2002
0000
3003
0000
,
1100
0000
0011
0000
,
0220
0000
0330
0000
,
0001
1000
0001
1000
,
0010
0100
0010
0100
,
0001
0001
0100
0100
,
0010
0010
1000
1000
,
1001
0000
0000
0000
0110
0000
0000
0200
,
0000
0000
0000
0310
0000
0000
1001
0000
;

//--------------- dance-single - tomori ----------------
#NOTES:
     dance-single:
     tomori:
     Medium:
     11:
     0.566177,0.732579,0.356368,0.701936,0.043196,367,334,33,65,5,0,0.566177,0.732579,0.356368,0.701936,0.043196,367,334,33,65,5,0:
0000
0000
0000
0000
,
0000
0000
0000
0000
,
0000
0000
0000
0000
,
0000
0000
0000
0000
,
0010
1000
0020
0000
0130
0001
0200
0000
,
0320
2030
3002
0203
,
0301
1000
0020
0000
1030
0001
0200
0000
,
0302
0023
0230
2300
,
3001
0010
0001
0000
0012
0000
0103
0000
,
1000
0100
1000
0000
2100
0000
3001
0000
,
0100
0010
2000
0000
3001
0100
0020
0100
,
0000
0130
0001
0000
1000
0001
1000
0001
,
1000
0010
1000
0001
,
0100
0001
0100
0010
,
1010
0000
0001
0100
0001
0100
0000
0020
,
0000
1030
0010
1000
0020
0000
0230
0000
,
0301
0100
0010
0100
,
0001
0010
0100
1000
,
1001
0000
0010
1000
0001
0100
0000
0002
,
0000
0103
0010
1000
0200
0000
2300
0000
,
3001
0100
1000
0100
,
0001
0010
1000
0010
,
0011
0000
1000
0001
0100
0100
0000
0002
,
0000
1003
0010
0010
0200
0000
0302
0000
,
1003
0100
0001
0001
,
0100
0000
1000
0000
0010
0100
0010
0100
,
0010
0000
0100
0000
0001
0001
0000
2000
,
0000
3000
0000
2002
0000
0000
3003
0000
,
0010
0000
0000
0100
0000
0000
0001
0000
0010
0000
0000
0002
,
0000
0003
1000
1000
,
0010
0000
0000
0100
0000
0000
0001
0000
0100
0000
0000
0020
,
0000
0030
0100
0100
,
0001
0000
0000
0010
0000
0000
0001
0000
1000
0000
0000
0010
,
0000
0000
0000
0100
0000
0000
0010
0000
1000
0000
0000
0002
,
0000
0100
0100
0103
,
0001
1000
0001
1000
0010
0100
0010
0100
,
0002
0000
1003
0000
1000
0010
0000
0100
,
0002
0103
0200
0310
,
1000
0010
1000
0000
0001
0100
0001
0000
,
1000
0010
0100
0000
0001
1000
0010
0000
,
0101
0102
0010
1003
,
1010
2001
0100
3010
,
0001
0010
0002
0003
0100
0001
0200
0300
,
0010
1000
0020
0030
1000
0100
2000
3000
,
0001
0000
0001
0000
1000
0001
0000
1001
,
0000
0000
0000
0000
0000
0000
0000
0000
0000
0000
0000
0000
0000
0000
0000
0000
0000
0000
0000
0000
0000
0000
0000
0000
0000
0000
0000
0000
0000
0000
0000
0000
0000
0000
0000
0000
0000
0000
0000
0000
0000
0000
0000
0000
0000
0000
0000
0000
0000
0000
0000
0000
0000
0000
0000
0000
0000
0000
0000
0000
0000
0000
0000
0000
0000
0000
0000
0000
0000
0000
0000
0000
0210
0000
0000
0000
0000
0000
0000
0000
0000
0000
0000
0000
0000
0000
0000
0000
0000
0000
0000
0000
0000
0000
0000
0000
0000
0000
0000
0000
0000
0000
0000
0000
0000
0000
0000
0000
0000
0000
0000
0000
0000
0000
0000
0000
0000
0000
0000
0300
0001
0000
0000
0000
0000
0000
0000
0000
0000
0000
0000
0000
0000
0000
0000
0000
0000
0000
0000
0000
0000
0000
0000
0000
1000
0000
0000
0000
0000
0000
0000
0000
0000
0000
0000
0000
0000
0000
0000
0000
0000
0000
0000
0000
0000
0000
0000
0000
0001
0000
0000
0000
0000
0000
0000
0000
0000
0000
0000
0000
0000
0000
0000
0000
0000
0000
0000
0000
0000
0000
0000
0000
,
2000
0000
3010
0200
0000
0301
0010
0002
,
0000
1003
0010
1000
0010
0000
1010
0000
,
0001
0100
0001
0200
0000
0310
0000
0102
,
0000
0103
0000
0010
0200
0000
0301
0000
,
1000
0100
1000
0100
1000
0100
1000
0001
,
1000
0000
1001
0000
1001
0000
0100
0010
,
0200
0000
0310
0000
1000
0020
0000
0130
,
0000
0001
0200
0000
0301
0000
0101
0000
,
0002
0000
0103
0020
0000
1030
0100
2000
,
0000
3001
0100
0001
0100
0000
0101
0000
,
0002
0000
1003
0020
0000
0230
0000
0302
,
0000
1003
0000
1000
0001
0000
0100
0000
,
0001
0010
0001
0010
0001
0010
0001
1000
,
0001
0000
1001
0000
1001
0000
1000
0100
,
0020
0000
0032
0000
0103
0020
0000
2030
,
0000
3001
0100
0000
0010
0000
0010
0100
,
0010
0000
0000
0100
0010
0000
0000
1000
,
0001
1000
0001
1000
0010
0000
0100
0010
,
0100
0000
0000
0010
0100
0000
0000
0001
,
1000
0001
1000
0001
0100
0000
0010
0000
,
1001
1010
1100
1010
,
1001
0101
0011
0101
,
1001
0110
1001
0110
,
1000
0001
1000
0001
2000
0000
3002
0000
,
0103
0000
0000
0010
1000
0000
0000
0010
,
0100
0001
1000
0010
0000
0000
1001
0000
;

//--------------- dance-single - tomori ----------------
#NOTES:
     dance-single:
     tomori:
     Hard:
     15:
     0.803756,1.01747,0.44276,1.587456,0.345569,521,480,41,147,30,4,0.803756,1.01747,0.44276,1.587456,0.345569,521,480,41,147,30,4:
0000
0000
0000
0000
,
0000
0000
0000
0000
,
0000
0000
0000
0000
,
0000
0000
0000
0000
,
0001
0000
0100
0001
0100
0000
0010
0000
1000
0000
0010
0000
0100
0000
0001
0000
,
0020
0000
0000
0000
0230
0000
0000
0000
1300
0000
0001
1000
0002
0000
0000
0000
,
1003
0000
0010
1000
0010
0000
0100
0000
0001
0000
1000
0000
0010
0000
0100
0000
,
0002
0000
0000
0000
0203
0000
0000
0000
0310
0000
1000
0010
2000
0000
0000
0000
,
3010
0000
0100
0001
0100
0000
0010
0000
1000
0000
0001
0100
0001
0000
1000
0000
,
0010
0000
1000
0010
1000
0000
0001
0000
0100
0000
0010
1000
0010
0000
0100
0000
,
0001
0000
1000
0100
1000
0000
0001
0010
0001
0000
1000
0100
1000
0000
0002
0000
,
0000
0013
0001
0001
0100
0010
1000
1000
,
1010
0010
0100
0001
0010
0010
0000
0002
,
0000
0103
0010
1000
0001
0010
0001
0010
,
0110
0000
0000
0000
0000
0000
0000
0000
0002
0003
0000
0000
0002
0003
0000
0000
0200
0300
0000
0000
0020
0030
0000
0000
0000
0000
0000
0000
2000
0000
0000
0000
,
0000
0000
0000
0000
3020
0030
0000
0000
0200
0300
0000
0000
0020
0030
0000
0000
2002
0000
0000
0000
3003
0000
0000
0000
2002
0000
0000
0000
3013
0000
0001
0000
,
1000
0020
0000
0130
0001
0020
0000
0230
,
0000
0000
0310
0000
0001
0000
1000
0000
0010
0000
0100
0000
0001
0000
0010
0001
,
0200
0000
0000
0000
0300
0000
0000
0000
2020
3000
0000
0000
0030
0000
0000
0000
0202
0303
0000
0000
0002
0003
0000
0000
0000
0000
0000
0000
2000
0000
0000
0000
,
0000
0000
0000
0000
3020
0030
0000
0000
0200
0300
0000
0000
0020
0030
0000
0000
2020
0000
0000
0000
3030
0000
0000
0000
0022
0000
0000
0000
0033
0000
0000
0000
,
1001
0010
0100
0001
0010
0001
0000
1100
,
0000
0101
0000
1010
0000
0001
0010
0100
,
2002
0000
0000
0000
3003
0000
0000
0000
0020
0030
0000
0000
0020
0030
0000
0000
0200
0300
0000
0000
0200
0300
0000
0000
0000
0000
0000
0000
0202
0300
0000
0000
,
0000
0000
0000
0000
2003
3000
0000
0000
0200
0300
0000
0000
0020
0030
0000
0000
2002
0000
0000
0000
3003
0000
0000
0000
2002
0000
0000
0000
3003
0000
0000
0000
,
1010
0100
0001
0100
0010
1000
0000
0012
,
0000
0203
0000
1300
0010
0100
0001
0010
,
0220
0330
0000
0000
0000
0000
0000
0000
2200
3300
0000
0000
0000
0000
0000
0000
0022
0033
0000
0000
0022
0033
0000
0000
0000
0000
0000
0000
0200
0300
0000
0000
,
0000
0000
0000
0000
1000
0000
0000
0000
1000
0000
0000
0000
2002
0003
0000
0000
0000
0000
0000
0000
3010
0000
0000
0000
0010
0000
0000
0000
0000
0000
0000
0000
,
0200
0000
0000
0302
0000
0000
1003
0000
0010
0000
0000
0100
,
0001
0000
0001
0100
0000
0100
0010
0000
0010
1000
0000
1000
,
0002
0000
0000
0203
0000
0000
0310
0000
0100
0000
0000
0001
,
1000
0000
1000
0010
0000
0010
0100
0000
0100
0001
0000
0001
,
0020
0000
0000
0230
0000
0000
2300
0000
3010
0000
0000
0200
,
0000
0000
0000
0301
0000
0000
0020
0000
0031
0000
0000
0200
,
0000
0010
1000
0310
,
1000
0100
1000
0000
0010
1000
0010
0000
0100
0001
0100
0000
0001
0010
0001
0010
,
0001
0100
0010
1000
0100
1000
0010
0100
,
0002
0000
0023
0000
0001
0000
0031
0000
0100
0000
0010
0000
1000
0100
1000
0100
,
2000
0010
3010
0000
0002
0100
0103
0000
,
0010
1000
0001
0100
0001
0010
0100
1000
,
0202
0303
0000
0000
0202
0303
0000
0000
1000
0000
0100
0000
0001
0000
0100
0000
,
2200
3300
0000
0000
2200
3300
0000
0000
0001
0000
0100
0000
1000
0000
0100
0000
,
0001
0010
1000
0010
0001
0010
0100
1000
,
0010
0001
0010
1000
0100
0001
0100
1000
,
2002
3003
2002
3003
0110
0110
0000
2020
,
3030
0001
0100
0202
0000
1300
1000
1003
,
1001
0010
0100
0002
0000
1003
0010
0200
,
0000
0000
0301
1000
0010
0000
0100
0000
0001
0000
1000
0000
0010
0000
0000
0000
,
0100
0001
1000
0200
0000
0310
0001
0002
,
0000
0000
1003
0000
0010
0000
1000
0001
0100
0000
0010
0000
1000
0000
0000
0000
,
00M1
0001
M100
0100
001M
0010
1M00
1000
,
1002
0000
0000
0000
0103
0000
0010
0000
0110
0000
0000
0000
0001
0000
0001
1000
,
0002
0000
0000
0000
0103
0000
0010
1000
0010
0000
0100
0000
0000
0000
0101
0000
,
0000
0000
1000
0000
1010
0000
0000
0000
0100
0000
0100
0001
0100
0000
0010
1000
,
0010
0100
0001
0002
0000
0103
0010
2000
,
0000
0000
3010
0100
0010
0000
0100
0010
0100
0000
0001
0000
0001
0000
0000
0000
,
1000
0010
0100
0001
0000
0100
0010
1000
,
0000
0000
0001
1000
0010
0000
0100
0000
0001
0000
1000
0000
0001
0000
0000
0000
,
1M00
1000
001M
0010
M100
0100
00M1
0001
,
2001
0000
0000
0000
3010
0000
0100
0000
0120
0000
0000
0000
1030
0000
1000
0001
,
0200
0000
0320
0000
1030
0001
0000
0101
,
0000
0010
2010
0000
3100
0000
0011
1000
,
0100
0000
MMMM
0001
0010
0000
MMMM
1000
,
0001
0000
1000
0010
1000
0000
0001
0000
0200
0000
0000
0000
0301
0000
0001
0000
,
0010
0000
MMMM
1000
0100
0000
MMMM
0001
,
1000
0000
0001
0100
0001
0000
1000
0000
0020
0000
0000
0000
0130
0000
0000
0000
,
0001
1000
0001
0000
1000
0010
1000
0000
0100
1000
0100
0000
1000
0010
1000
0000
,
0001
0010
0001
0000
0100
0001
0100
0000
0010
0100
0010
0000
1000
0010
1000
0000
,
0001
0100
0020
0000
1030
0010
0200
0000
0310
1000
0002
0000
0103
0010
2000
0000
,
3001
0000
1000
0000
0001
0000
1000
0000
0001
1000
0001
1000
0001
1000
0001
1000
,
0002
0000
0000
0103
0200
0000
0000
031M
,
1M00
00M1
M100
0020
0000
M13M
1001
0000
;

//--------------- dance-single - tomori ----------------
#NOTES:
     dance-single:
     tomori:
     Challenge:
     17:
     1.016651,1.343061,1.036706,2.051814,0.534552,659,563,96,190,69,9,1.016651,1.343061,1.036706,2.051814,0.534552,659,563,96,190,69,9:
0000
0000
0000
0000
,
0000
0000
0000
0000
,
0000
0000
0000
0000
,
0000
0000
0000
0000
,
1010
0000
1000
0010
1000
0000
0001
0000
0101
0000
0010
0000
1001
0000
0100
0000
,
0012
0000
0000
0000
2103
0000
0000
0000
3110
0000
1000
0001
2000
0000
0000
3000
,
1001
0000
0001
0100
0001
0000
0010
0000
0101
0000
1000
0000
0011
0000
0100
0000
,
1020
0000
0000
0000
0231
0000
0000
0000
1301
0000
0010
0100
0002
0000
0000
0003
,
1001
0000
0010
0100
0010
0000
1000
0000
0110
0000
1000
0001
1000
0000
0010
0000
,
1001
0000
0001
0100
0010
0000
1000
0000
0101
0000
0010
1000
0100
0000
0010
0000
,
0101
0000
1000
0100
1000
0000
0010
1000
0010
0000
0100
0001
0100
0000
0012
0000
,
0000
1003
0001
0001
0100
0100
1010
1010
,
1001
0100
0010
0100
0001
1000
0010
0100
,
0001
0010
0100
0010
0100
1000
0010
0010
,
0202
0000
0000
0000
0303
0000
0000
0000
2200
3300
0000
0000
2200
3300
0000
0000
0022
0033
0000
0000
0202
0303
0000
0000
0000
0000
0000
0000
1020
0000
0000
0000
,
0000
0000
0000
0000
0230
0300
0000
0000
0002
0003
0000
0000
0020
0030
0000
0000
0202
0000
0303
0000
0002
0003
0000
0000
2000
3000
0000
0000
1010
0000
0001
0000
,
0100
0010
1000
0010
0100
0001
0010
0001
,
1000
0000
0100
0000
0010
0000
0100
0000
0010
0000
0001
0000
0100
0000
0100
0010
,
0002
0000
0000
0000
0000
0000
0003
0000
0020
0030
0000
0000
2000
3000
0000
0000
0202
0303
0000
0000
2010
0000
0000
0000
3000
0000
0000
0000
1002
0000
0000
0000
,
0000
0000
0000
0000
0203
0300
0000
0000
0020
0030
0000
0000
0002
0003
0000
0000
0020
0030
0000
0000
2200
0000
3300
0000
0022
0000
0000
0000
0000
0000
0033
0000
,
1000
0010
0100
0001
0010
0001
0100
0010
,
1000
0100
0010
0001
1000
0010
0100
0010
,
2100
0000
0000
0000
0000
0000
0000
0000
3020
0030
0000
0000
0200
0300
0000
0000
0022
0033
0000
0000
0022
0033
0000
0000
2000
3000
0000
0000
0102
0000
0000
0000
,
0000
0000
0000
0000
2003
3000
0000
0000
0002
0003
0000
0000
0020
0030
0000
0000
0202
0003
0000
0000
0302
0003
0000
0000
2020
0000
0000
0000
0000
0000
0030
0000
,
3001
0100
1000
0100
0001
0010
1000
0010
,
0001
0000
0100
0000
0010
0000
1000
0100
1000
0000
0010
0000
0100
0000
0001
0000
,
0202
0000
0303
0000
0000
0000
0000
0000
2020
0000
3030
0000
0000
0000
0000
0000
2200
3300
0000
0000
2020
3030
0000
0000
0000
0000
0000
0000
M022
0000
0000
0000
,
0033
0100
0100
2MM2
0000
0013
0010
3000
,
0002
0000
0000
0203
0000
0000
0310
0000
0010
1000
0000
1000
,
0001
0000
0001
0100
0000
0100
0010
0000
0010
1000
0000
1000
,
0020
0000
0000
0230
0000
0000
0301
0000
1000
0100
0000
0010
,
0001
0000
1000
0010
0000
0100
0001
0000
0001
0100
0000
0010
,
1000
0000
1000
0002
0000
0000
0103
0000
0100
0020
0000
0000
,
1030
0000
0001
0200
0000
0000
0310
0000
1000
0002
0000
1000
,
2000
0003
0000
3020
0000
0000
0032
0000
0000
0023
0000
0000
,
1030
0100
1000
0100
0010
0001
0010
0001
1000
0010
0100
0010
1000
0001
0010
0001
,
0100
0010
1000
0100
1000
0010
0100
0001
,
0020
0030
0000
0000
0002
0003
0000
0000
2000
3000
0000
0000
0020
0030
0000
0000
0200
0300
0000
0000
0002
0003
0000
0000
1000
0000
0100
0000
0010
0000
0001
0000
,
2000
0010
3010
0100
0002
0010
0013
0100
,
1001
0100
0010
1001
0010
0001
1000
0010
,
2020
3030
0000
0000
0202
0303
0000
0000
0011
0000
1100
0000
0011
0000
1000
0000
,
0202
0303
0000
0000
2020
3030
0000
0000
1100
0000
0011
0000
1100
0000
0010
0000
,
0200
0300
0000
0000
0002
0003
0000
0000
0020
0030
0000
0000
2000
3000
0000
0000
0020
0030
0000
0000
0002
0003
0000
0000
0200
0300
0000
0000
2000
3000
0000
0000
,
0200
0300
0000
0000
0020
0030
0000
0000
2000
3000
0000
0000
0200
0300
0000
0000
0002
0003
0000
0000
0200
0300
0000
0000
0020
0030
0000
0000
0002
0003
0000
0000
,
1010
0000
0101
0000
1100
0110
0000
M1M1
,
0000
0000
0000
0000
0000
0000
0000
0000
0000
0000
0000
0000
0000
0000
0000
0000
0000
0000
0000
0000
0000
0000
0000
0000
M001
0000
0000
0000
0000
0000
0000
0000
0000
0000
0000
0000
0000
0000
0000
0000
0000
0000
0000
0000
0000
0000
0000
0000
00M1
0000
0000
0000
0000
0000
0000
0000
0000
0000
0000
0000
0000
0000
0000
0000
0000
0000
0000
0000
0000
0000
0000
0000
2002
0000
0000
0000
0000
0000
0000
0000
0000
0000
0000
0000
0000
0000
0000
0000
0000
0000
0000
0000
0000
0000
0000
0000
0000
0000
0000
0000
0000
0000
0000
0000
0000
0000
0000
0000
0000
0000
0000
0000
0000
0000
0000
0000
0000
0000
0000
3003
M11M
0000
0000
0000
0000
0000
0000
0000
0000
0000
0000
0000
0000
0000
0000
0000
0000
0000
0000
0000
0000
0000
0000
0000
M11M
0000
0000
0000
0000
0000
0000
0000
0000
0000
0000
0000
0000
0000
0000
0000
0000
0000
0000
0000
0000
0000
0000
0000
M11M
0000
0000
0000
0000
0000
0000
0000
0000
0000
0000
0000
0000
0000
0000
0000
0000
0000
0000
0000
0000
0000
0000
0000
,
1001
0000
0100
0000
0002
0000
0013
0000
0001
0000
1000
0010
0100
0000
0020
0000
,
1030
0000
0200
0000
0301
0000
0100
1000
0100
0000
0020
0000
0031
0000
0100
0000
,
0020
0000
1030
0000
0100
0000
0001
0100
0001
0000
0100
0000
1000
0000
0020
0000
,
0130
0000
0002
0000
0013
0000
0100
0000
1100
0000
1000
0001
2000
0000
0000
0000
,
3011
0010
0110
0100
1100
1000
1001
0100
,
0020
0000
0000
0000
0000
0000
0000
0000
0000
0000
0000
0000
0031
0000
0000
0000
0000
0000
1000
0000
0000
0000
0000
0000
0100
0000
0000
0000
0000
0000
0000
0000
0000
0000
0000
0000
0010
0000
0000
0000
0000
0000
0001
0000
0000
0000
0000
0000
1000
0000
0000
0000
0000
0000
0000
0000
0000
0000
0000
0000
0010
0000
0000
0000
0000
0000
0000
0000
0000
0000
0000
0000
2000
3000
0000
0000
0000
0000
0020
0030
0000
0000
0000
0000
0200
0300
0000
0000
0000
0000
0002
0003
0000
0000
0000
0000
,
0020
0000
0000
0000
0031
0000
1000
0010
0100
0000
0001
0000
0100
0000
0012
0000
,
0000
0000
1003
0010
1000
0000
0100
0000
0001
0000
0100
1000
0100
0000
0010
0001
,
0021
0000
0130
0000
1000
0000
0010
0100
0001
0000
0010
0000
0001
0000
2000
0000
,
3010
0000
0200
0000
0301
0000
0010
0001
0100
0000
0010
0000
1000
0000
0100
0000
,
2000
0000
0100
0000
3100
0000
0020
0000
0001
0000
0031
0000
1000
0010
0200
0000
,
0000
0000
0310
0000
1000
0000
0001
0000
0100
0000
0010
1000
0010
0000
0100
0001
,
1100
0100
0110
0010
0011
0001
1001
0010
,
0200
0000
0000
0000
0000
0000
0000
0000
0000
0000
0000
0000
0310
0000
0000
0000
0000
0000
1000
0000
0000
0000
0000
0000
0010
0000
0000
0000
0000
0000
0000
0000
0000
0000
0000
0000
1000
0000
0000
0000
0000
0000
0001
0000
0000
0000
0000
0000
0200
0000
0000
0000
0000
0000
0000
0000
0000
0000
0000
0000
0301
0000
0000
0000
0000
0000
0000
0000
0000
0000
0000
0000
0002
0003
0000
0000
0000
0000
0200
0300
0000
0000
0000
0000
0020
0030
0000
0000
0000
0000
2000
3000
0000
0000
0000
0000
,
0200
0000
1000
0000
1300
0000
0010
0100
0010
0000
0100
0000
0001
0000
0012
0000
,
0000
0003
0101
0000
0210
0000
0000
0300
0102
0000
0000
0003
2002
0000
3103
0001
,
0100
0000
0010
0000
MMMM
0000
0001
1000
0010
0000
0100
0000
MMMM
0000
0001
0000
,
1000
0000
0010
0010
0010
0000
0100
0000
0202
0000
0303
0000
1010
0000
1000
0010
,
1000
0000
0001
0000
MMMM
0000
0001
0100
0001
0000
1000
0000
MMMM
0000
0010
0000
,
1000
0000
0100
0100
0100
0000
0010
0000
0022
0000
0033
0000
1100
0000
0000
0000
,
0001
0100
0010
0100
0001
1000
0001
0100
0001
0010
0100
0010
0001
0100
0010
1000
,
0100
1000
0100
0010
0100
0010
0001
0010
0001
1000
0001
1000
0010
0100
0010
0100
,
0010
1000
0100
1000
0010
0100
0001
0010
0001
0100
0010
1000
0100
1000
0100
0010
,
0002
0000
0013
0000
0002
0000
1000
0000
1003
0010
0100
0001
0010
0001
0010
0100
,
100M
0000
MMMM
0011
0101
0000
MMMM
1010
,
0101
0000
0000
0000
0000
0000
0000
0000
0000
0000
0000
0000
0000
0000
0000
0000
0000
0000
0000
0000
0000
0000
0000
0000
1100
0000
0000
0000
0000
0000
0000
0000
0000
0000
0000
0000
0000
0000
0000
0000
0000
0000
0000
0000
0000
0000
0000
0000
0011
0000
0000
0000
0000
0000
0000
0000
0000
0000
0000
0000
0000
0000
0000
0000
0000
0000
0000
0000
0000
0000
0000
0000
0120
0000
0000
0000
0000
0000
0000
0000
0000
0000
0000
0000
0000
0000
0000
0000
0000
0000
0000
0000
0000
0000
0000
0000
0000
0000
0000
0000
0000
0000
0000
0000
0000
0000
0000
0000
0000
0000
0000
0000
0000
0000
0000
0000
0000
0000
0000
0030
01M0
0000
0000
0000
0000
0000
0000
0000
0000
0000
0000
0000
0000
0000
0000
0000
0000
0000
0000
0000
0000
0000
0000
0000
1001
0000
0000
0000
0000
0000
0000
0000
0000
0000
0000
0000
0000
0000
0000
0000
0000
0000
0000
0000
0000
0000
0000
0000
0000
0000
0000
0000
0000
0000
0000
0000
0000
0000
0000
0000
0000
0000
0000
0000
0000
0000
0000
0000
0000
0000
0000
0000
;
