#TITLE:アオクハルカ;
#SUBTITLE:;
#ARTIST:スリーズブーケ;
#TITLETRANSLIT:Aoku Haruka;
#SUBTITLETRANSLIT:;
#ARTISTTRANSLIT:Cerise Bouquet;
#GENRE:;
#CREDIT:;
#MUSIC:Aoku Haruka.ogg;
#BANNER:Aoku Haruka-BN.png;
#BACKGROUND:Aoku Haruka-BG.png;
#CDTITLE:cdtitle.png;
#SAMPLESTART:49.382;
#SAMPLELENGTH:13.241;
#SELECTABLE:YES;
#OFFSET:-0.399;
#BPMS:0.000=145.000;
#STOPS:;
#BGCHANGES:-1.000=Aoku Haruka-BGA.mp4=1.000=0=0=0=StretchNoLoop==CrossFade_Fastest==,
99999=-nosongbg-=1.000=0=0=0 // don't automatically add -songbackground-
;
#FGCHANGES:;

//--------------- dance-single - tomori ----------------
#NOTES:
     dance-single:
     tomori:
     Beginner:
     3:
     0,0,0,0,0:
0000
0000
0000
0000
,
0000
0000
0000
0000
,
0000
0000
0000
0000
,
0000
0000
0000
0000
,
0000
0000
0000
0000
0010
0000
0000
1000
,
0000
1000
0000
1000
,
0000
0010
0000
0010
,
0000
0001
0000
0001
,
0000
0000
0100
0000
0000
0100
0000
0001
,
0000
0001
0010
0000
,
0000
0000
1000
0000
0100
0000
0000
1000
,
0000
0000
0000
0010
0000
0000
0000
0200
,
0000
0000
0000
0000
0000
0000
0000
0300
,
0000
0000
0000
0000
,
0001
0000
0000
0001
0000
0000
0000
0000
,
0010
0000
0000
0010
0000
0000
0000
0000
,
0100
0000
0000
0100
0000
0000
0000
0000
,
1000
0000
0020
0000
,
0030
0000
2000
0000
,
3000
0000
0002
0000
,
0003
0000
0000
0100
0000
0000
0000
0100
,
0000
0010
0000
0000
,
2000
0000
3100
0000
,
0200
0000
0310
0000
,
0020
0000
0031
0000
,
0002
0000
1003
0000
,
1000
0000
1000
0000
,
1000
0001
1000
0000
,
0011
0000
0000
0011
0000
0000
0000
0001
,
0000
0100
0000
0000
0000
0001
0000
0001
,
0000
0000
0000
0100
0000
0000
0000
0010
,
0000
0000
0000
1000
0000
0000
0000
0100
,
0000
0000
0010
0000
0010
0000
0000
0001
,
0000
0000
1000
0000
1000
0000
0000
0020
,
0000
0000
0100
0000
0130
0000
0000
0002
,
0000
0000
0010
0000
0013
0000
0000
1001
,
0000
0000
0000
0100
0000
0000
0000
1001
,
0000
0000
0000
0010
0000
0000
0000
1000
,
0000
0000
0000
0100
0000
0000
0000
0001
,
0000
0000
0000
0010
0000
0000
0000
0100
,
0000
0000
0010
0000
0010
0000
0000
2000
,
0000
3000
0000
0000
0000
0000
0000
0001
,
0000
0000
0000
0000
0000
0000
0000
0100
,
0000
0000
0000
0000
0000
0000
0000
0010
,
0000
0000
0000
0000
0000
0000
0000
1000
,
0000
0000
0000
0000
,
0010
0000
0010
0000
,
0100
0000
0100
0000
,
0001
0000
0001
0000
,
1000
0000
1000
0000
,
0001
0000
0000
0000
,
0010
0000
0000
0000
,
0100
0000
0000
1000
,
0000
0000
0000
0000
,
0020
0000
0000
0000
0000
0000
0000
0000
0000
0000
0000
0000
0000
0000
0000
0030
;

//--------------- dance-single - tomori ----------------
#NOTES:
     dance-single:
     tomori:
     Easy:
     6:
     0,0,0,0,0:
0000
0000
0000
0000
,
0000
0000
0000
0000
,
0000
0000
0000
0000
,
0000
0000
0000
0000
,
0000
0000
0000
0000
0100
0100
0000
0202
,
0000
0303
0010
0000
1000
0000
0001
0000
,
0100
0000
0100
0000
0010
0010
0000
2020
,
0000
3030
0001
0000
0010
0000
0100
0000
,
1000
0000
0010
0000
0100
0000
0001
0001
,
0000
0000
0100
0000
0010
0000
1000
1000
,
0000
0000
0100
0000
0010
0000
0001
0001
,
0000
0100
0000
0010
0000
1000
0000
0002
,
0000
0000
0100
0000
0100
0000
0100
0003
,
0000
0000
0000
0000
0000
0000
0000
1000
,
1000
0000
0000
0010
0000
0010
0000
0100
,
0100
0000
0000
0001
0000
0001
0000
0010
,
0010
0000
0000
0100
0000
1000
0000
0001
,
0001
0001
0100
0001
,
0101
0000
1000
0010
,
1010
0000
0100
0010
,
1001
0000
0000
0010
0000
0100
0000
0110
,
0000
0001
0010
0100
,
2000
0000
3010
0100
,
0002
0000
0013
0001
,
0200
0000
0301
1000
,
0020
0000
0130
0001
,
1010
0000
0000
0000
1010
0000
0000
0100
,
0000
0100
0100
0000
0010
0000
1000
0000
,
0101
0000
0000
0101
0000
0010
0000
0010
,
0000
0100
0010
0000
0000
0010
0000
1000
,
0000
0001
0000
0001
0000
0100
0000
0010
,
0000
1000
0000
1000
0000
0001
0000
0020
,
0000
0000
0130
0000
0110
0000
0001
0200
,
0000
0000
0310
0000
0110
0000
1000
1000
,
0000
0000
0010
0000
0010
0000
0100
0100
,
0000
0000
0001
0000
0001
0000
0000
1100
,
0000
0000
0000
0110
0000
0000
0000
0022
,
0000
0000
0033
0000
0000
0001
0000
0100
,
0000
0010
0000
0100
0000
0001
0000
1000
,
0000
0010
0000
0100
0000
0010
0000
2000
,
0000
0000
3100
0000
0010
0000
0001
0001
,
0000
2000
0000
3000
0000
0010
0000
0010
,
0000
0100
0000
0100
0000
0001
0000
0001
,
0000
1000
2000
0000
3000
0010
0000
0010
,
0000
0100
0000
0100
0000
0001
1000
0001
,
0000
0000
0000
0000
,
0100
0100
0100
0000
,
0001
0000
0001
0000
0002
0003
0000
0000
,
1000
1000
1000
0000
,
0010
0010
0010
0000
,
0200
0000
0000
0001
0000
0301
0000
0000
,
2000
0000
0000
0010
0000
3010
0000
0000
,
0011
0000
0000
0110
0000
0000
1100
0000
,
0000
0000
0000
0000
,
0020
0000
0000
0000
0000
0000
0200
0000
0000
0000
0000
0000
0000
0000
0000
0330
;

//--------------- dance-single - tomori ----------------
#NOTES:
     dance-single:
     tomori:
     Medium:
     9:
     0,0,0,0,0:
0000
0000
0000
0000
,
0000
0000
0000
0000
,
0000
0000
0000
0000
,
0000
0000
0000
0000
,
0000
0000
0000
0000
0001
0010
0000
0020
,
0000
0000
0031
0000
1000
0100
0000
0200
,
0000
0000
1300
0000
0000
0001
0100
0001
,
0000
1000
0010
1000
0000
0010
0000
0100
,
0000
0001
0000
1001
0000
0010
0100
0010
,
0000
0100
0000
0101
0000
1000
0010
1000
,
0000
0010
0000
1010
0000
0000
0001
0100
,
0000
0100
0010
0000
0010
1000
0000
2002
,
0000
0000
0000
0000
0000
0000
0000
3003
,
0000
0000
0000
0000
0000
0000
0000
0010
,
0100
0000
0000
0100
0000
0000
0010
0000
0000
0000
1000
0000
0000
0000
1000
0000
,
0001
0000
0000
0001
0000
0000
1000
0000
0000
0000
0010
0000
0000
0000
0010
0000
,
1000
0000
0000
1000
0000
0000
0010
0000
0000
0000
0100
0000
0000
0000
0001
0000
,
0002
0000
0103
0000
0010
0010
0010
0000
,
1010
0000
0000
0000
0100
0100
0100
0000
,
0101
0000
0000
0000
0001
1000
0001
0000
,
1000
1100
0000
1010
0000
0101
0000
0012
,
0000
0010
0100
1003
,
2000
0000
0000
0010
3010
0000
0100
0000
,
0002
0000
0000
0100
0103
0000
0010
0000
,
2000
0000
0000
0010
3020
0000
0130
0200
,
0000
0300
0000
0001
0010
0001
0010
0000
,
1001
1000
0000
0000
1001
0001
0000
0100
,
0000
0010
0100
0010
0000
1000
0010
0100
,
0001
1001
0000
0110
0000
1001
0000
0220
,
0000
0030
0300
0000
0000
1000
0010
1000
,
0000
0010
0100
0010
0000
0100
0001
0100
,
0000
0001
0010
0001
0000
1000
1000
0020
,
0000
0130
0101
0000
0101
0000
0010
0200
,
0000
0310
1010
0000
1010
0000
0100
0020
,
0000
0031
0010
0001
0010
0000
0100
2000
,
0000
3100
1000
0100
1000
0000
0000
1010
,
0000
0100
0010
0100
0000
0010
0000
0101
,
0000
0010
0100
0010
0000
1000
0010
0100
,
0000
0100
0001
0010
0000
0010
0001
0100
,
0000
0100
0010
1000
0000
1000
0100
0020
,
0000
0031
0200
0000
0310
0000
0010
1010
,
0000
0101
0000
0000
0000
0001
0001
0100
,
0000
0100
0100
0010
0000
0010
0010
1000
,
0000
1000
1000
0000
0001
0100
0010
1000
,
0000
1000
0100
0010
0000
0001
0010
0100
,
0000
M000
M000
M000
0000
000M
000M
0000
,
0001
0001
0100
0100
,
0010
1000
0001
0100
,
0010
0010
1000
1000
,
0001
0100
0010
1000
,
0002
0010
1000
0100
,
2003
0100
0001
0010
,
3100
0100
0000
1010
0000
0100
0001
0000
,
0000
00M0
M000
00M0
0000
M000
M000
0000
,
2000
0000
0000
0000
3002
0000
0203
0000
0000
0000
0320
0000
0000
0000
0000
0030
;

//--------------- dance-single - tomori ----------------
#NOTES:
     dance-single:
     tomori:
     Hard:
     13:
     0,0,0,0,0,0,0,0,0,0,0,0,0,0,0,0,0,0,0,0,0,0:
0000
0000
0000
0000
,
0000
0000
0000
0000
,
0000
0000
0000
0000
,
0000
0000
0000
0000
,
0000
0000
0000
0000
1000
0010
0100
0002
,
0000
0103
0010
1000
0000
1000
0100
0002
,
0000
0103
1000
0010
0000
0100
0001
0020
,
0000
0031
0010
0001
0010
0100
1000
0200
,
0000
2300
0000
3020
0000
0130
0001
0010
,
0000
0010
0001
1000
0100
1000
0001
0200
,
0000
0000
0310
0000
0100
0000
0002
0000
0000
0000
0013
0000
0001
0100
0002
0000
,
0000
0103
0010
1000
0100
0001
0100
2000
,
0000
0000
0000
0000
0000
0000
0000
0000
0000
0000
0000
0000
0000
0000
0000
0000
0000
0000
0000
0000
0000
0000
0000
0000
3010
0000
0000
0000
0000
0000
0000
0000
0000
0000
0000
0000
0000
0000
0000
0000
0000
0000
0000
0000
0000
0000
0000
0000
0101
0000
0000
0000
0000
0000
0000
0000
0000
0000
0000
0000
0000
0000
0000
0000
0000
0000
0000
0000
0000
0000
0000
0000
0000
0000
0000
0000
0000
0000
0000
0000
0000
0000
0000
0000
0000
0000
0000
0000
0000
0000
0000
0000
0000
0000
0000
0000
0110
0000
0000
0000
0000
0000
0000
0000
0000
0000
0000
0000
0000
0000
0000
0000
0000
0000
0000
0000
0000
0000
0000
0000
0000
0000
0000
0000
0000
0000
0000
0000
0000
0000
0000
0000
0000
0000
0000
0000
0000
0000
0000
0000
0000
0000
0000
0000
1010
0000
0000
0000
0000
0000
0000
0000
0000
0000
0000
0000
0000
0000
0000
0000
0000
0000
0000
0000
0000
0000
0000
0000
0000
0000
0000
0000
0000
0000
0000
0000
0000
0000
0000
0000
0000
0000
0000
0000
0000
0000
0000
0000
0000
0000
0000
1000
,
0000
0000
0000
0000
0000
0000
0000
0000
0000
0000
0000
0010
0000
0000
0000
0000
0000
0000
0000
0000
0000
0000
0000
0400
0000
0000
0000
0000
0000
0000
0000
0000
0000
0000
0000
0000
0000
0000
0000
0000
0000
0000
0000
0000
0000
0000
0000
0300
0000
0000
0000
0000
0000
0000
0000
0000
0000
0000
0000
0000
0000
0000
0000
0000
0000
0000
0000
0000
0000
0000
0000
0001
0000
0000
0000
0000
0000
0000
0000
0000
0000
0000
0000
0100
0000
0000
0000
0000
0000
0000
0000
0000
0000
0000
0000
0040
0000
0000
0000
0000
0000
0000
0000
0000
0000
0000
0000
0000
0000
0000
0000
0000
0000
0000
0000
0000
0000
0000
0000
0000
0030
0000
0000
0000
0000
0000
0000
0000
0000
0000
0000
0000
0000
0000
0000
0000
0000
0000
0000
0000
0000
0000
0000
0000
0000
0000
0000
0000
0000
0000
0000
0000
0000
0000
0000
0000
0000
0000
0000
0000
0000
0000
0000
0000
0000
0000
0000
0000
0001
0000
0000
0000
0000
0000
0000
0000
0000
0000
0000
0000
0000
0000
0000
0000
0000
0000
0000
0000
0000
0000
0000
0000
,
0100
0000
0000
0010
0000
0000
0100
0000
0000
0000
0001
0000
0000
0000
0100
0000
,
0010
0000
0000
1000
0000
0000
0010
0000
0000
0000
0100
0000
0000
0000
0001
0000
,
1000
0000
0000
0100
0000
0000
1000
0000
0000
0000
0001
0000
0000
0000
1000
0000
,
0010
0100
0001
0000
0001
0001
0100
0100
,
0010
1000
0000
1000
1000
0010
0010
0100
,
0001
0100
0000
0001
0100
1000
0100
0001
,
0101
0101
0000
1010
0000
1100
0000
2000
,
0000
0000
3001
0000
0010
0000
0100
0000
1000
0000
0100
0000
0010
0001
0010
0000
,
0002
0000
1003
0200
0000
0310
0020
0001
,
0030
0001
0010
0001
0010
0100
1000
0100
,
2000
0000
0000
3100
0020
0000
0031
0200
,
0000
0310
0010
1000
0010
0100
0001
0100
,
0101
0101
0000
0000
1010
1010
0000
0200
,
0000
0301
0100
0010
0000
1000
0100
0010
,
1001
1001
0000
1100
0000
0011
0000
0220
,
0000
0000
1330
0000
0001
0000
0100
0001
1000
0000
0100
0000
0010
0000
1002
0000
,
0000
0013
0100
2001
0000
3001
1000
0120
,
0000
1030
0001
0210
0000
0310
0001
0020
,
0000
0130
1100
0000
0101
0000
1000
1200
,
0000
0310
0011
0000
1010
0000
0100
0220
,
0000
0000
0331
0000
0100
0000
0010
0000
1000
0100
1000
0000
0001
0000
2002
0000
,
0000
0000
3103
0000
0010
0000
1000
0000
0001
0010
0001
0000
0010
0000
1200
0000
,
0000
1300
0010
0120
0000
0130
0001
0012
,
0000
0000
0013
0000
0100
1000
0200
0000
0000
0000
0310
0001
0010
0000
0012
0000
,
0000
0103
0010
2100
0000
3010
0100
0201
,
0000
0310
1000
1020
0000
0130
0001
2000
,
0000
3010
0200
0000
0302
0000
0103
0220
,
0000
0000
1332
0000
0000
0000
1003
0010
1000
0000
0001
0100
0001
0000
0200
0000
,
0000
0310
0010
2000
0000
3100
0100
0002
,
0000
0103
1000
0001
0010
0001
1000
0200
,
0000
0310
0100
0002
0000
0103
0010
1001
,
0000
00M0
0M00
00M0
0000
M000
000M
0000
,
0010
0100
0000
0100
0001
0000
0001
1000
,
0000
0000
0000
0000
0000
0000
0000
0000
0000
0000
0000
0000
0000
0000
0000
0000
0000
0000
0000
0000
0000
0000
0000
0000
1000
0000
0000
0000
0000
0000
0000
0000
0000
0000
0000
0000
0000
0000
0000
0000
0000
0000
0000
0000
0000
0000
0000
0000
0020
0030
0000
0000
0000
0000
0000
0000
0000
0000
0000
0000
0000
0000
0000
0000
0000
0000
0000
0000
0000
0000
0000
0000
0000
0000
0000
0000
0000
0000
0000
0000
0000
0000
0000
0000
0000
0000
0000
0000
0000
0000
0000
0000
0000
0000
0000
0000
0020
0030
0000
0000
0000
0000
0000
0000
0000
0000
0000
0000
0000
0000
0000
0000
0000
0000
0000
0000
0000
0000
0000
0000
0200
0300
0000
0000
0000
0000
0000
0000
0000
0000
0000
0000
0000
0000
0000
0000
0000
0000
0000
0000
0000
0000
0000
0000
0000
0000
0000
0000
0000
0000
0000
0000
0000
0000
0000
0000
0000
0000
0000
0000
0000
0000
0000
0000
0000
0000
0000
0000
0100
0000
0000
0000
0000
0000
0000
0000
0000
0000
0000
0000
0000
0000
0000
0000
0000
0000
0000
0000
0000
0000
0000
0000
,
0001
1000
0010
0000
0010
1000
0000
1000
,
0010
0000
0000
0000
0000
0000
0000
0000
0000
0000
0000
0000
0000
0000
0000
0000
0000
0000
0000
0000
0000
0000
0000
0000
0200
0300
0000
0000
0000
0000
0000
0000
0000
0000
0000
0000
0000
0000
0000
0000
0000
0000
0000
0000
0000
0000
0000
0000
0002
0003
0000
0000
0000
0000
0000
0000
0000
0000
0000
0000
0000
0000
0000
0000
0000
0000
0000
0000
0000
0000
0000
0000
0020
0030
0000
0000
0000
0000
0000
0000
0000
0000
0000
0000
0000
0000
0000
0000
0000
0000
0000
0000
0000
0000
0000
0000
0000
0000
0000
0000
0000
0000
0000
0000
0000
0000
0000
0000
0000
0000
0000
0000
0000
0000
0000
0000
0000
0000
0000
0000
0010
0000
0000
0000
0000
0000
0000
0000
0000
0000
0000
0000
0000
0000
0000
0000
0000
0000
0000
0000
0000
0000
0000
0000
0001
0000
0000
0000
0000
0000
0000
0000
0000
0000
0000
0000
0100
0000
0000
0000
0000
0000
0000
0000
0000
0000
0000
0000
0001
0000
0000
0000
0000
0000
0000
0000
0000
0000
0000
0000
0000
0000
0000
0000
0000
0000
0000
0000
0000
0000
0000
0000
,
1000
0000
0100
0000
0010
0000
0001
0000
0010
0000
0001
0000
0100
0010
0100
0000
,
0001
0000
0000
0000
0000
0000
0000
0000
0000
0000
0000
0000
0000
0000
0000
0000
0000
0000
0000
0000
0000
0000
0000
0000
0010
0000
0000
0000
0000
0000
0000
0000
0000
0000
0000
0000
0000
0000
0000
0000
0000
0000
0000
0000
0000
0000
0000
0000
0200
0300
0000
0000
0000
0000
0000
0000
0000
0000
0000
0000
0000
0000
0000
0000
0000
0000
0000
0000
0000
0000
0000
0000
1000
0000
0000
0000
0000
0000
0000
0000
0000
0000
0000
0000
0000
0000
0000
0000
0000
0000
0000
0000
0000
0000
0000
0000
0200
0300
0000
0000
0000
0000
0000
0000
0000
0000
0000
0000
0000
0000
0000
0000
0000
0000
0000
0000
0000
0000
0000
0000
2000
3000
0000
0000
0000
0000
0000
0000
0000
0000
0000
0000
0000
0000
0000
0000
0000
0000
0000
0000
0000
0000
0000
0000
0010
0000
0000
0000
0000
0000
0000
0000
0000
0000
0000
0000
0100
0000
0000
0000
0000
0000
0000
0000
0000
0000
0000
0000
0020
0030
0000
0000
0000
0000
0000
0000
0000
0000
0000
0000
0000
0000
0000
0000
0000
0000
0000
0000
0000
0000
0000
0000
,
1000
0000
0000
0000
0000
0000
0000
0000
0000
0000
0000
0000
0000
0000
0000
0000
0000
0000
0000
0000
0000
0000
0000
0000
0002
0003
0000
0000
0000
0000
0000
0000
0000
0000
0000
0000
0000
0000
0000
0000
0000
0000
0000
0000
0000
0000
0000
0000
0010
0000
0000
0000
0000
0000
0000
0000
0000
0000
0000
0000
0000
0000
0000
0000
0000
0000
0000
0000
0000
0000
0000
0000
0201
0300
0000
0000
0000
0000
0000
0000
0000
0000
0000
0000
0000
0000
0000
0000
0000
0000
0000
0000
0000
0000
0000
0000
0010
0000
0000
0000
0000
0000
0000
0000
0000
0000
0000
0000
0000
0000
0000
0000
0000
0000
0000
0000
0000
0000
0000
0000
0200
0300
0000
0000
0000
0000
0000
0000
0000
0000
0000
0000
0000
0000
0000
0000
0000
0000
0000
0000
0000
0000
0000
0000
1020
0030
0000
0000
0000
0000
0000
0000
0000
0000
0000
0000
0000
0000
0000
0000
0000
0000
0000
0000
0000
0000
0000
0000
0000
0000
0000
0000
0000
0000
0000
0000
0000
0000
0000
0000
0000
0000
0000
0000
0000
0000
0000
0000
0000
0000
0000
0000
,
0000
0000
0000
0000
0000
0000
0000
0000
0000
0000
0000
0000
0000
0000
0000
0000
0000
0000
0000
0000
0000
0000
0000
0000
0M00
0000
0000
0000
0000
0000
0000
0000
0000
0000
0000
0000
0000
0000
0000
0000
0000
0000
0000
0000
0000
0000
0000
0000
000M
0000
0000
0000
0000
0000
0000
0000
0000
0000
0000
0000
0000
0000
0000
0000
0000
0000
0000
0000
0000
0000
0000
0000
0M00
0000
0000
0000
0000
0000
0000
0000
0000
0000
0000
0000
0000
0000
0000
0000
0000
0000
0000
0000
0000
0000
0000
0000
0000
0000
0000
0000
0000
0000
0000
0000
0000
0000
0000
0000
0000
0000
0000
0000
0000
0000
0000
0000
0000
0000
0000
0000
0M00
0000
0000
0000
0000
0000
0000
0000
0000
0000
0000
0000
0000
0000
0000
0000
0000
0000
0000
0000
0000
0000
0000
0000
000M
0000
0000
0000
0000
0000
0000
0000
0000
0000
0000
0000
0000
0000
0000
0000
0000
0000
0000
0000
0000
0000
0000
0000
0000
0000
0000
0000
0000
0000
0000
0000
0000
0000
0000
0000
0000
0000
0000
0000
0000
0000
0000
0000
0000
0000
0000
1000
,
0000
0000
0000
0000
0000
0000
0000
0000
0000
0000
0000
0010
0000
0000
0000
0000
0000
0000
0000
0000
0000
0000
0000
0100
0000
0000
0000
0000
0000
0000
0000
0000
0000
0000
0000
0000
0000
0000
0000
0000
0000
0000
0000
0000
0000
0000
0000
0010
0000
0000
0000
0000
0000
0000
0000
0000
0000
0000
0000
0000
0000
0000
0000
0000
0000
0000
0000
0000
0000
0000
0000
0010
0000
0000
0000
0000
0000
0000
0000
0000
0000
0000
0000
0100
0000
0000
0000
0000
0000
0000
0000
0000
0000
0000
0000
0001
0000
0000
0000
0000
0000
0000
0000
0000
0000
0000
0000
0000
0000
0000
0000
0000
0000
0000
0000
0000
0000
0000
0000
0400
0000
0000
0000
0000
0000
0000
0000
0000
0000
0000
0000
0000
0000
0000
0000
0000
0000
0000
0000
0000
0000
0000
0000
0000
0000
0000
0000
0000
0000
0000
0000
0000
0000
0000
0000
0000
0000
0000
0000
0000
0000
0000
0000
0000
0000
0000
0000
0000
0000
0000
0000
0000
0000
0000
0000
0000
0000
0000
0000
0000
0300
0000
0000
0000
0000
0000
0000
0000
0000
0000
0000
0000
;
