#TITLE:愛♡スクリ~ム!;
#SUBTITLE:;
#ARTIST:AiScReam;
#TITLETRANSLIT:Ai♡Scream!;
#SUBTITLETRANSLIT:;
#ARTISTTRANSLIT:AiScReam;
#MUSIC:Ai Scream.ogg;
#BANNER:;
#BACKGROUND:Ai Scream-BG.png;
#LYRICSPATH:;
#CDTITLE:cdtitle.png;
#SAMPLESTART:91.150002;
#SAMPLELENGTH:14.545000;
#OFFSET:-0.695;
#BPMS:0.000000=132.000000,
124.000000=66.000000,
126.000000=132.000000
;
#STOPS:;
#TIMESIGNATURES:;
#BGCHANGES:-2=Ai Scream-BGA.mp4=1.000=0=0=0=StretchNoLoop==CrossFade_Fastest==,
99999=-nosongbg-=1.000000=0=0=0=StretchNoLoop====
;
#FGCHANGES:;
#ATTACKS:;
#SPEEDS:96.000000=0.800000=8.000000=0,
112.000000=0.850000=4.000000=0,
116.000000=0.900000=4.000000=0,
120.000000=1.000000=4.000000=0
;
#SCROLLS:;

//---------------dance-single - ---------------
#NOTES:
     dance-single:
     :
     Medium:
     11:
     0,0,0,0,0:
// measure 0
0000
0000
0000
0000
,  // measure 1
0000
0000
0000
0000
,  // measure 2
0000
0000
0000
0000
,  // measure 3
0000
0000
0000
0000
,  // measure 4
2000
0010
0000
3010
,  // measure 5
0200
0001
0000
0301
,  // measure 6
0020
0000
1000
0000
0000
0000
0130
0001
,  // measure 7
0000
0001
0100
0000
0010
0000
1000
0000
,  // measure 8
1000
0100
1000
0000
0010
0000
0010
0000
,  // measure 9
0001
0100
0001
0000
0010
0000
0010
0000
,  // measure 10
0100
0100
0000
1000
0100
1000
0100
0000
,  // measure 11
0010
0010
0000
0001
0100
0001
0100
0000
,  // measure 12
0001
0000
0001
0000
1000
0010
1000
0000
,  // measure 13
0100
0000
0100
0000
0001
0010
0001
0000
,  // measure 14
0010
0010
0000
1000
0010
1000
0010
0000
,  // measure 15
0100
0100
0000
0001
0010
0001
0010
0000
,  // measure 16
0100
0000
1000
0000
0100
0010
0001
0000
,  // measure 17
0100
0000
0010
0000
1000
0100
0010
0000
,  // measure 18
0001
0000
0101
0000
0100
0000
0110
1000
,  // measure 19
0000
0001
0110
0000
0010
0000
1010
0000
,  // measure 20
1000
1000
1000
0000
0010
0100
0010
0000
,  // measure 21
0001
0001
0001
0000
0100
0010
0100
0000
,  // measure 22
0001
0010
0001
0000
1000
0100
1000
0000
,  // measure 23
0220
0330
0220
0330
0001
0100
0010
1000
,  // measure 24
0020
0000
0000
0130
0001
0000
0100
0001
,  // measure 25
0000
0000
0001
0000
0200
0000
0000
0000
0010
0000
0000
0010
0000
0000
0310
0000
,  // measure 26
2000
0000
0000
3010
1000
0000
0010
1000
,  // measure 27
0000
1000
0002
0000
0010
0000
0013
0000
,  // measure 28
2002
0000
3003
1000
0010
0000
0001
0100
,  // measure 29
0000
0100
0020
0000
0030
0100
0000
0002
,  // measure 30
0010
0100
1000
0100
,  // measure 31
0013
0000
0010
0001
0100
0001
0010
0000
2200
0000
3300
0000
0022
0000
0033
0000
,  // measure 32
2200
3300
0001
0010
0001
0000
0100
0001
,  // measure 33
0100
0000
0010
0000
2020
3030
0202
0303
,  // measure 34
2020
3030
1000
0100
1000
0000
0010
1000
,  // measure 35
0010
0000
0100
0000
0220
0330
2002
3003
,  // measure 36
0220
0330
0001
0100
0010
0000
0010
1000
,  // measure 37
0100
0000
0010
0000
0002
0000
0103
0010
,  // measure 38
2000
0000
3000
0000
0020
0000
1030
0001
,  // measure 39
0200
0300
1100
0101
,  // measure 40
1100
0101
1010
0011
,  // measure 41
1010
0000
0011
0000
1001
0000
1000
0100
,  // measure 42
0020
0000
0030
0101
0000
0101
0000
2000
,  // measure 43
0020
3000
0030
0000
0011
0000
1010
0000
,  // measure 44
0011
1010
0101
1100
,  // measure 45
0101
0000
1100
0000
0110
0000
0001
0010
,  // measure 46
0200
0000
0300
1010
0000
1010
0000
0200
,  // measure 47
0002
0300
0003
0000
1001
0000
00M0
0000
,  // measure 48
00M0
00M0
0M00
0M00
,  // measure 49
0M01
1000
0010
0100
0002
0000
0003
0000
,  // measure 50
2002
0000
3003
0000
1000
0100
0010
0100
,  // measure 51
2000
0000
3000
0000
0010
0010
0200
0000
,  // measure 52
0301
0000
0001
0100
0010
0000
1100
0000
,  // measure 53
0011
0000
0010
0100
2000
0000
3000
0000
,  // measure 54
2002
0000
3003
0000
0001
0010
0100
0010
,  // measure 55
0002
0000
0003
0000
0100
0001
0100
0000
,  // measure 56
0010
1000
0010
0100
0001
0000
0101
0000
,  // measure 57
1010
0000
0001
0100
0002
0000
0003
0000
,  // measure 58
2002
0000
3003
0000
1000
0100
0001
0100
,  // measure 59
2000
0000
3000
0000
0001
0001
0100
0100
,  // measure 60
0020
0000
0000
1030
0000
0000
1000
0000
0010
0000
0000
0000
1001
0000
0000
0000
,  // measure 61
0110
0000
0001
1000
0020
0000
0030
0000
,  // measure 62
2002
0000
0000
0000
0000
3003
0000
0000
1000
0000
0010
0000
0100
0000
0001
0000
,  // measure 63
0200
0000
0300
0000
0010
0010
0010
0000
,  // measure 64
1000
1000
1000
0000
0001
0001
0100
0100
,  // measure 65
0010
0100
0001
1000
0020
0000
0100
0000
,  // measure 66
0100
0100
1000
1000
,  // measure 67
1000
0100
0030
0200
,  // measure 68
0001
0010
1000
0010
,  // measure 69
0001
0301
0000
0000
;

//---------------dance-single - ---------------
#NOTES:
     dance-single:
     :
     Hard:
     14:
     0.571789,0.728039,0.458075,0.795999,0.401754,533,472,61,106,16,3,0.571789,0.728039,0.458075,0.795999,0.401754,533,472,61,106,16,3:
// measure 0
0000
0000
0000
0000
,  // measure 1
0000
0000
0000
0000
,  // measure 2
0000
0000
0000
0000
,  // measure 3
0000
0000
0000
0000
,  // measure 4
0002
0000
0000
0000
0000
0000
1000
0000
0000
0000
0000
0000
0000
0000
0000
0100
0000
0000
1003
0000
0000
0000
0000
1000
,  // measure 5
0020
0100
0000
0000
0000
0100
1030
0000
,  // measure 6
0210
0000
0001
0000
0000
0010
0301
0000
,  // measure 7
1100
0000
0000
0000
1100
0000
0000
0000
0000
0000
0011
0000
0000
0000
0001
0010
,  // measure 8
0001
0000
0000
0001
0100
0000
0000
0000
0100
0000
0010
0000
1000
0000
0000
1000
,  // measure 9
0010
0000
0000
0010
0000
0000
0100
0000
0000
0100
0000
0000
0001
0000
0001
1000
0000
0000
1000
0000
0000
0000
0000
0000
,  // measure 10
1010
1010
0000
0002
0023
0230
2300
3000
,  // measure 11
0011
0011
0000
2000
3200
0320
0032
1003
,  // measure 12
1010
0000
0000
0010
1000
0000
0000
0000
1000
0000
0100
0000
0001
0000
0000
0100
,  // measure 13
1000
0000
0000
0010
0000
0000
0100
0000
0000
0001
0000
0000
0010
0000
0010
0002
0000
0000
1003
0000
0000
0000
0000
0000
,  // measure 14
1100
1100
0000
0002
0203
0320
2030
3000
,  // measure 15
0101
0101
0000
2000
3020
0230
0302
0003
,  // measure 16
0200
0000
0310
1000
0100
1000
0010
0000
,  // measure 17
2000
0000
0000
3010
0100
0000
0001
0000
0010
0000
0001
0000
0100
0000
0000
0000
,  // measure 18
0002
0000
0000
0103
0010
0000
0100
0000
0001
0000
0010
0000
1000
0000
0020
0000
,  // measure 19
0000
0000
0000
0031
0000
0000
0200
0000
0000
0000
0000
0000
0310
0000
0010
1000
0000
0000
0001
0000
0000
0100
0000
0000
,  // measure 20
0001
0010
0001
0000
1000
0000
0100
0000
1000
0000
0000
1000
0020
0000
0000
0030
,  // measure 21
0100
0010
0100
0000
0001
0000
1000
0000
0020
0000
0000
0130
0001
0000
0000
0000
,  // measure 22
0010
0100
0101
0000
0100
0010
1010
0000
,  // measure 23
2002
0000
3003
0000
2002
0000
3003
0000
0100
0000
0010
0000
1000
0010
0100
0001
,  // measure 24
0020
0001
0130
0010
1000
0100
0100
0020
,  // measure 25
0000
0000
0130
0000
0002
0000
0000
0000
0010
0000
0000
0100
0000
0000
1003
0000
,  // measure 26
2020
0000
0030
3010
0100
0001
0100
0020
,  // measure 27
0000
0130
0002
0000
0403
0000
0000
0000
,  // measure 28
13M1
1000
0100
1000
0010
0100
0010
0100
,  // measure 29
0001
0010
0001
0010
0100
1000
0010
0100
,  // measure 30
0001
0010
0001
0100
0010
1000
0100
1000
0010
0100
0001
0010
0001
0100
0010
1000
,  // measure 31
0100
0000
0100
1000
0010
0100
0002
0003
2020
0000
3030
0000
0202
0000
0303
0000
,  // measure 32
2020
0000
3030
0100
0001
0000
0001
0100
0010
0000
1000
0000
0100
0000
1000
0000
,  // measure 33
0010
0100
0000
0100
0001
0000
0001
0000
2200
0000
3300
0000
0202
0000
0303
0000
,  // measure 34
2200
0000
3300
0001
0010
0000
0100
0000
1000
0000
0010
1000
0010
0000
0100
0001
,  // measure 35
0100
0000
0010
1000
0010
0000
0100
0000
0022
0000
0033
0000
2020
0000
3030
0000
,  // measure 36
0022
0000
0033
1000
0100
0000
0100
1000
0010
0000
0100
0000
0001
0000
0100
0000
,  // measure 37
0010
1000
0000
1000
0001
0000
0001
0100
0020
0000
1000
0000
0130
0000
0000
0000
,  // measure 38
0201
0010
1300
0000
1002
0010
0103
0010
,  // measure 39
1000
0100
1000
0000
0001
0010
0100
0010
0001
0000
0001
0000
1001
0000
1000
0000
,  // measure 40
1020
0000
0030
0010
0100
0000
0100
0000
0102
0000
0003
0001
0010
0000
0010
0000
,  // measure 41
0210
0000
0300
0100
1000
0000
0010
0000
1010
0000
0000
1000
0010
0000
0100
0000
,  // measure 42
0202
0000
0000
0313
1M0M
0000
1010
0000
0000
0000
0110
0000
0000
0000
0101
0000
,  // measure 43
0202
0000
0300
0000
0003
0000
1000
0010
0100
0000
0100
0000
0101
0000
0001
0000
,  // measure 44
0021
0000
0030
0010
0100
0000
0100
0000
2100
0000
3000
1000
0001
0000
0001
0000
,  // measure 45
0201
0000
0300
0100
0010
0000
0100
0000
1001
0000
0000
0000
2000
0000
3020
0000
,  // measure 46
0230
0000
0000
0301
0100
0000
0020
0000
0000
0000
1030
0000
0200
0000
0000
0000
,  // measure 47
0301
1000
0010
0000
0100
0001
1000
0010
0100
0000
000M
0000
0000
M000
0000
M000
,  // measure 48
000M
0000
000M
M000
0000
M000
000M
M000
0000
000M
M000
0000
M000
000M
0000
0000
,  // measure 49
0001
0000
0000
0000
0001
0000
1000
0000
0000
0000
0000
0000
1000
0000
0000
0010
0000
0000
0100
0000
0000
0000
0000
0000
0102
0000
0000
0000
0000
0000
0000
0000
0000
0000
0000
0000
0013
0000
0000
0000
0000
0000
0000
0000
0000
0000
0000
0000
,  // measure 50
2010
0000
0100
0000
0010
3000
0000
0000
0010
0000
0100
0000
0020
0000
0000
0130
,  // measure 51
0001
0000
0100
0000
0010
0000
1000
0100
1000
0000
0100
0000
0002
0000
0000
0000
,  // measure 52
1103
0000
0000
0000
0000
0001
0010
0001
0200
0000
0300
0000
0120
0000
0030
0000
,  // measure 53
2002
0000
3003
0000
0000
1000
0010
0100
0002
0000
0000
0000
0103
0000
0000
0000
,  // measure 54
2010
0000
0001
0000
3010
0000
0000
0000
0100
0000
0010
0000
1000
0000
0010
0100
,  // measure 55
0002
0000
0100
0000
0010
0003
0000
0000
0100
1000
0100
0010
0002
0000
0010
0000
,  // measure 56
0203
0000
0000
1300
0000
1000
0010
0100
0002
0000
0003
0000
2010
0000
3000
0000
,  // measure 57
0202
0000
0000
0303
0000
0000
0010
1000
0020
0000
0000
0130
0000
0100
0001
0000
,  // measure 58
0002
1000
0000
1003
0000
1000
0001
0010
0002
0000
0103
0000
0200
0000
0310
1000
,  // measure 59
0200
0010
1300
0000
0011
0100
0010
0100
,  // measure 60
1100
1000
0000
0100
0000
0010
0001
1000
0200
0000
0310
0001
0200
0000
0310
1000
,  // measure 61
0200
0000
0300
0000
0000
0000
0001
0100
0020
1000
0000
1030
0000
0100
0001
0000
,  // measure 62
0200
1000
0000
1000
0300
0100
1000
0000
0010
0001
0100
0010
1000
0100
1000
0010
,  // measure 63
0100
0001
0010
0001
0100
0000
0000
0000
0020
0000
1030
0000
1010
0000
0000
0000
,  // measure 64
0200
0301
0101
0000
0011
0000
1100
0000
,  // measure 65
1001
0000
1001
0000
0100
0010
1000
0001
0200
0000
0000
0000
0010
0000
0000
0000
,  // measure 66
1000
0010
0001
0001
,  // measure 67
1000
0010
0300
0020
,  // measure 68
0100
0000
1000
0100
0000
0100
1000
0000
,  // measure 69
0001
0031
0000
0000
;

//---------------dance-single - ---------------
#NOTES:
     dance-single:
     :
     Easy:
     6:
     0,0,0,0,0:
// measure 0
0000
0000
0000
0000
,  // measure 1
0000
0000
0000
0000
,  // measure 2
0000
0000
0000
0000
,  // measure 3
0000
0000
0000
0000
,  // measure 4
0002
0000
0000
0103
,  // measure 5
0200
0000
0000
0310
,  // measure 6
0020
0000
0000
1030
,  // measure 7
1000
0100
0010
0001
,  // measure 8
0001
0000
0001
0000
,  // measure 9
0100
0100
0100
0000
,  // measure 10
1000
0000
0010
0010
,  // measure 11
1000
0000
0010
0010
,  // measure 12
1000
0000
1000
0000
,  // measure 13
0010
0010
0010
0000
,  // measure 14
0001
0000
0100
0100
,  // measure 15
0001
0000
0100
0100
,  // measure 16
0001
1000
0001
0000
,  // measure 17
1000
0001
1000
0000
,  // measure 18
0010
0010
0010
0000
,  // measure 19
0010
0010
0010
0000
,  // measure 20
1000
0001
1000
0000
,  // measure 21
0001
1000
0001
0000
,  // measure 22
0100
0100
0100
0000
,  // measure 23
0100
0100
0100
0000
,  // measure 24
0002
0000
0000
0000
,  // measure 25
0000
0000
0000
0000
0000
0000
0000
0003
,  // measure 26
2000
0000
0000
0000
,  // measure 27
0000
0000
0000
0000
0000
0000
0000
3000
,  // measure 28
0010
0000
0010
0000
,  // measure 29
0100
0000
0100
0000
,  // measure 30
0001
0010
1000
0100
,  // measure 31
0001
0001
0001
0001
1000
0000
0010
0000
,  // measure 32
1000
0000
0100
0100
,  // measure 33
0100
0000
0001
0100
,  // measure 34
0001
0000
0010
0010
,  // measure 35
0010
0000
1000
0100
,  // measure 36
0010
0000
0001
0001
,  // measure 37
0001
0000
0001
0010
,  // measure 38
0100
0000
1000
1000
,  // measure 39
1000
0000
1001
0000
,  // measure 40
1001
0000
0110
0000
,  // measure 41
0110
0000
0000
0001
,  // measure 42
0002
0000
0003
1000
0000
1000
0000
2000
,  // measure 43
0000
3000
0000
0000
0110
0000
0000
0000
,  // measure 44
0110
0000
1001
0000
,  // measure 45
1001
0000
0000
1000
,  // measure 46
2000
0000
3000
0001
0000
0001
0000
0002
,  // measure 47
0000
0003
0000
0000
1001
0000
0000
0000
,  // measure 48
0000
0000
0000
0000
,  // measure 49
0000
0000
0020
0030
,  // measure 50
0200
0300
0001
1000
,  // measure 51
0001
0000
1000
0000
,  // measure 52
1000
0000
0001
0001
,  // measure 53
0001
0000
0200
0300
,  // measure 54
0020
0030
1000
0001
,  // measure 55
1000
0000
0010
0000
,  // measure 56
0010
0000
0100
0100
,  // measure 57
0100
0000
2000
3000
,  // measure 58
0002
0003
0100
0010
,  // measure 59
0100
0000
0001
0000
,  // measure 60
1000
0000
0001
0010
,  // measure 61
0100
0000
0002
0003
,  // measure 62
2000
3000
0010
0100
,  // measure 63
0010
0000
1000
0100
,  // measure 64
0010
0001
0010
0100
,  // measure 65
2000
3000
0002
0000
,  // measure 66
0000
0000
0000
0000
,  // measure 67
0000
0003
0000
0200
,  // measure 68
0000
0000
0000
0000
,  // measure 69
0000
0300
0000
0000
;

//---------------dance-single - ---------------
#NOTES:
     dance-single:
     :
     Beginner:
     1:
     0,0,0,0,0:
// measure 0
0000
0000
0000
0000
,  // measure 1
0000
0000
0000
0000
,  // measure 2
0000
0000
0000
0000
,  // measure 3
0000
0000
0000
0000
,  // measure 4
0100
0000
0000
0000
,  // measure 5
0010
0000
0000
0000
,  // measure 6
1000
0000
0000
0000
,  // measure 7
0001
0000
0000
0000
,  // measure 8
1001
0000
0000
0000
,  // measure 9
1000
0000
1000
0000
,  // measure 10
0010
0000
0000
0000
,  // measure 11
0010
0000
0000
0000
,  // measure 12
1000
0000
0000
0000
,  // measure 13
0001
0000
0001
0000
,  // measure 14
0100
0000
0000
0000
,  // measure 15
0100
0000
0000
0000
,  // measure 16
0001
0000
0010
0000
,  // measure 17
0001
0000
0000
0000
,  // measure 18
0100
0000
0010
0000
,  // measure 19
0100
0000
0000
0000
,  // measure 20
0010
0000
1000
0000
,  // measure 21
0010
0000
0000
0000
,  // measure 22
1000
0000
0100
0000
,  // measure 23
1000
0000
0000
0000
,  // measure 24
2000
0000
0000
0000
,  // measure 25
0000
0000
0000
0000
,  // measure 26
3020
0000
0000
0000
,  // measure 27
0000
0000
0000
0000
,  // measure 28
0230
0000
0000
0000
,  // measure 29
0000
0000
0000
0000
,  // measure 30
0302
0000
0000
0000
,  // measure 31
1003
1000
0010
0000
,  // measure 32
0010
0000
0010
0000
,  // measure 33
0000
0000
0100
0000
,  // measure 34
0100
0000
0100
0000
,  // measure 35
0000
0000
0001
0000
,  // measure 36
0001
0000
0001
0000
,  // measure 37
0000
0000
1000
0000
,  // measure 38
1000
0000
1000
0000
,  // measure 39
0000
0000
0001
0000
,  // measure 40
0010
0000
0100
0000
,  // measure 41
1000
0000
0000
0000
,  // measure 42
1000
0000
0010
0000
,  // measure 43
0100
0000
0001
0000
,  // measure 44
0010
0000
0100
0000
,  // measure 45
1000
0000
0000
0000
,  // measure 46
1000
0000
0010
0000
,  // measure 47
1000
0000
0010
0000
,  // measure 48
0000
0000
0000
0000
,  // measure 49
0000
0000
1000
0000
,  // measure 50
0020
0000
0000
0030
0000
0000
0000
0000
,  // measure 51
0000
0000
0100
0000
,  // measure 52
0100
0000
0010
0000
,  // measure 53
0010
0000
0100
0000
,  // measure 54
0020
0000
0000
0000
0000
0030
0000
0000
0000
0000
0000
0000
0000
0000
0000
0000
,  // measure 55
0000
0000
0001
0000
,  // measure 56
0001
0000
1000
0000
,  // measure 57
1000
0000
0001
0000
,  // measure 58
0020
0030
0000
0000
,  // measure 59
0000
0000
0100
0000
,  // measure 60
0010
0000
1000
0000
,  // measure 61
0001
0000
0010
0000
,  // measure 62
2002
0000
0000
0000
0000
3003
0000
0000
0000
0000
0000
0000
0000
0000
0000
0000
,  // measure 63
0000
0000
0001
0000
,  // measure 64
1000
0000
0010
0000
,  // measure 65
0100
0000
0000
0000
;
