#TITLE:AWOKE;
#SUBTITLE:;
#ARTIST:DOLLCHESTRA;
#TITLETRANSLIT:;
#SUBTITLETRANSLIT:;
#ARTISTTRANSLIT:;
#GENRE:;
#CREDIT:;
#MUSIC:AWOKE.ogg;
#BANNER:AWOKE-BN.png;
#BACKGROUND:AWOKE-BG.png;
#CDTITLE:cdtitle.png;
#SAMPLESTART:78.069;
#SAMPLELENGTH:13.500;
#SELECTABLE:YES;
#OFFSET:0.231;
#BPMS:0.000=150.000
,30.000=300.000
,32.000=150.000
,79.000=75.000
,86.000=150.000
,126.000=300.000
,133.500=150.000
,138.000=300.000
,144.000=150.000
,152.000=75.000
,166.000=37.500
,168.000=150.000
,180.000=300.000
,180.500=150.000
,180.750=75.000
,181.000=300.000
,181.500=150.000
,181.750=75.000
,182.000=300.000
,182.500=150.000
,182.750=75.000
,183.000=300.000
,183.500=150.000
,183.750=75.000
,184.000=150.000
,216.000=300.000
,225.000=150.000
,228.000=300.000
,234.000=75.000
,236.000=150.000
,254.000=300.000
,256.000=150.000
,268.000=75.000
,269.500=18.750
,269.625=150.000
;
#STOPS:30.000=0.150
,30.750=0.150
,31.500=0.100
,62.250=0.200
,62.750=0.200
,84.750=0.800
,126.000=0.300
,127.500=0.300
,129.000=0.300
,130.500=0.300
,132.000=0.300
,138.000=0.300
,139.500=0.300
,141.000=0.300
,142.500=0.300
,216.000=0.300
,217.500=0.300
,219.000=0.300
,220.500=0.300
,222.000=0.300
,223.500=0.300
,228.000=0.300
,229.500=0.300
,231.000=0.300
,232.500=0.300
,254.000=0.150
,254.750=0.150
,255.500=0.100
;
#DISPLAYBPM:75.000:300.000;
#BGCHANGES:0.000=AWOKE-BGA.avi=1.000=0=0=0=StretchNoLoop==CrossFade_Fastest==,
99999.000=-nosongbg-=1.000=0=0=0=StretchNoLoop====
;
#FGCHANGES:;

//--------------- dance-single - tomori ----------------
#NOTES:
     dance-single:
     tomori:
     Beginner:
     2:
     0.159288,0.217852,0,0.088878,0,138,138,0,11,0,0,0.159288,0.217852,0,0.088878,0,138,138,0,11,0,0:
0000
0000
0000
0000
,
0000
0000
0000
0000
,
0000
0000
0000
0000
,
0000
0000
0000
0000
,
1000
0000
0001
0001
,
0001
0000
0100
0000
,
0010
0010
0010
0000
,
1000
0000
0001
0000
,
1000
0000
0100
0000
,
0010
0000
0001
0000
,
0010
0000
0100
0000
,
1000
0000
2000
0000
,
3010
0000
0000
0000
,
0100
0000
0001
0000
,
0100
0000
0000
0000
,
0010
0000
1000
0200
,
0000
0300
0000
0020
,
0000
0030
0000
0001
,
0000
1000
0000
0010
,
0100
0010
0000
1000
,
0000
0001
0000
2000
,
0002
3003
1000
0000
,
1000
0000
0010
0010
,
0010
0000
0100
0000
,
0001
0000
1000
1000
,
1000
0000
0100
0000
,
0010
0000
0100
0000
,
1000
0000
0001
0001
,
0001
0000
0010
0000
,
0100
0000
0020
0000
,
0030
0000
0100
0100
,
0100
0000
1000
0000
,
0000
0010
0000
0000
,
0100
0000
0000
0001
,
0000
0000
0010
0000
,
0000
0100
0000
0000
,
2000
0000
0000
0000
,
3000
0000
0000
0000
,
0001
0000
0001
0000
,
0100
0000
0100
0000
,
0010
0000
0010
0000
,
1000
1000
1000
0000
,
0002
0000
0103
0000
,
0010
0010
0010
0000
,
0100
0100
0100
0000
,
0001
0001
0001
0000
,
1000
1000
1000
0000
,
0001
0100
0001
0000
,
1000
0010
1000
0000
,
0010
0100
0010
0000
,
0100
0010
0100
0000
,
0001
0010
0001
0000
,
2000
0000
3100
0000
,
1000
0100
1000
0000
,
0001
0000
0000
0010
,
0000
0000
0100
0000
,
0000
1000
0000
0000
,
0100
0000
0000
0010
,
0000
0000
0002
0000
,
0003
0000
0000
0000
,
1000
0000
0100
1000
,
0100
0000
0010
0001
,
0010
0000
0001
0000
,
1000
0100
0010
0000
,
0001
0000
0001
1000
,
0001
0000
1000
0010
,
1000
0000
1000
0100
,
1000
0000
0000
0000
0000
0000
0000
0000
0010
0000
0000
0000
0020
0030
0000
0000
0000
0000
0000
0000
0000
0000
0000
0000
0000
0000
0000
0000
0000
0000
0000
0000
;

//--------------- dance-single - tomori ----------------
#NOTES:
     dance-single:
     tomori:
     Easy:
     4:
     0.242395,0.272315,0.064639,0.169676,0,210,202,8,21,0,0,0.242395,0.272315,0.064639,0.169676,0,210,202,8,21,0,0:
0000
0000
0000
0000
,
0000
0000
0000
0000
,
0000
0000
0000
0000
,
0000
0000
0000
0000
,
0001
0010
0001
0010
,
0100
0100
0100
0000
,
1000
0010
1000
0010
,
0100
0100
0100
0000
,
0001
1000
0001
1000
,
0010
0010
0020
0030
,
0100
0001
0100
0000
,
0010
1000
0010
0000
,
0100
0000
0010
0000
,
1000
0001
0100
0000
,
0001
0000
1000
0000
,
0010
0100
0002
1003
,
0100
0010
0000
0001
,
0010
0100
0000
1001
,
0000
0110
0000
1000
,
0001
0100
0010
2000
,
3200
0000
0320
0000
0032
0000
0013
0100
,
2000
0000
0000
3000
0000
0000
0000
0000
0020
0000
0000
0000
0100
0000
0000
0000
,
0130
0000
1000
0010
,
0010
0000
0001
0010
,
1000
0100
0001
0001
,
1000
1000
0002
0100
,
0103
0010
2000
0001
,
3001
0000
0100
0100
,
0001
0001
1000
1000
,
0010
0010
0200
0000
,
0310
0000
1000
0001
,
1000
0000
0001
0000
,
0000
0100
0000
0000
,
0010
0000
0000
1000
,
0100
0010
0001
0000
,
0000
1000
0000
0000
,
0020
0000
0100
0100
,
1030
0001
1000
0001
,
2000
3100
0010
0100
,
0020
0000
0031
0000
0100
0000
0001
0010
,
0001
1000
0010
1000
,
0100
1000
0002
0000
,
0103
0001
0010
0000
,
0100
1000
0010
0000
,
0100
0010
0100
0010
,
1000
0100
0010
0001
,
0100
0001
1000
0000
,
0010
0100
0001
0000
,
0001
0010
0100
1000
,
0001
0010
0001
0010
,
0002
0000
0103
0000
,
0020
0000
1030
0000
,
0100
0010
0100
0010
,
0001
1000
0002
0003
,
1001
0000
0000
0110
,
0000
0000
1001
0000
,
0000
0001
1000
0001
,
1001
0000
0000
0110
,
0000
0000
1001
0000
,
0010
1000
0010
1000
,
0200
0000
0010
0310
,
0002
1000
1000
1003
,
0001
0100
0010
1000
,
0010
0100
0001
0000
,
1000
0001
0100
0010
,
1000
0001
0100
0010
,
1000
0001
1000
0001
,
0200
0000
0000
0000
0000
0000
0000
0000
0310
0000
0000
0000
2000
3000
0000
0000
0000
0000
0000
0000
0000
0000
0000
0000
0000
0000
0000
0000
0000
0000
0000
0000
;

//--------------- dance-single - tomori ----------------
#NOTES:
     dance-single:
     tomori:
     Medium:
     9:
     0.436311,0.490168,0.266634,0.355512,0.068679,378,345,33,44,0,3,0.436311,0.490168,0.266634,0.355512,0.068679,378,345,33,44,0,3:
0000
0000
0000
0000
,
0000
0000
0000
0000
,
0000
0000
0000
0000
,
0000
0000
0000
0000
,
0001
0000
0000
0100
0001
0000
0100
0000
0010
0000
0000
0000
1000
0000
0100
0000
,
1000
0000
0010
0100
0010
0000
0100
0001
,
0200
0300
0101
0000
0002
0003
0011
0000
,
0001
0000
0100
0000
0010
0000
1000
0000
1000
0000
0000
0100
0000
0000
0100
0000
,
2000
0000
3001
0100
0001
0010
0001
0000
,
0020
0000
0130
1000
0002
0000
0013
0000
,
1001
0000
0000
0010
0000
0000
0100
0000
0001
0000
0010
0000
0001
0000
1000
0000
,
0020
0000
0000
0100
0000
0000
0100
0000
1030
0000
0000
0000
0200
0000
0000
0000
,
1300
0000
0001
0100
0000
0001
0100
0010
,
1000
0000
1000
0010
0100
0000
0100
0001
,
0010
0000
0001
0010
0000
0100
1000
0100
,
2000
0000
3010
0100
0010
0100
0002
0000
,
0103
0010
1000
0100
1000
0000
2000
0000
,
3001
0100
0010
0100
0001
0010
0001
0000
,
1000
0010
1000
0000
0100
0010
0200
0000
,
0310
0001
2000
0000
3001
0100
0020
0000
,
2130
0000
0000
0000
3102
0000
0000
0000
0213
0000
0000
0000
1300
0100
1000
0000
,
0001
0100
0001
0010
0000
0000
0000
0000
1002
0000
0000
0000
1003
0000
0000
0000
,
0001
0100
0010
0100
0001
1000
0010
0100
,
0020
0000
1030
0000
0100
1000
0100
0000
,
0010
0001
0010
0000
1001
0000
1100
0000
,
1001
0000
0011
0000
1000
0010
1000
0000
,
0001
0100
0001
0000
1000
0010
0100
0001
,
0020
0000
0031
0000
0001
1000
0010
0100
,
0010
0000
1000
0100
0010
0000
0001
0000
,
0100
0000
0010
1000
0002
0000
0000
0000
,
1003
0000
0010
0100
0001
0010
0001
1000
,
0100
0000
0000
0000
1001
0000
0000
0010
,
0000
0000
1001
0000
0000
0100
0000
0000
,
1010
0000
0000
0101
0000
0000
1000
0100
,
1000
0001
1000
0000
0101
0000
0000
0010
,
0000
0000
1100
0000
0000
0010
0000
0000
,
2002
0000
0000
0000
0000
0000
0000
3003
,
1000
0001
1000
0001
0100
0010
0100
0010
,
2000
0000
3100
0100
0020
0000
0031
0100
,
2000
0000
0000
0000
3010
0000
0100
0000
0002
0000
0000
0000
0103
0010
0100
0000
,
2000
0000
0000
0000
3001
0100
0001
0000
0020
0000
0000
0000
0031
1000
0001
0000
,
0200
0000
0000
0000
0001
0000
0010
0310
0000
0000
0000
0000
0000
0000
1000
0100
,
2000
0000
3001
0000
0100
0001
0100
0001
,
1000
0010
1000
0010
0200
0000
0301
0000
,
1000
0010
0000
0010
1000
0000
0001
0010
,
0011
1001
1010
1001
,
0020
0000
0130
0001
0100
0000
0010
1000
,
0010
0100
0010
1000
0100
0000
0000
1000
,
0001
0000
0001
1000
0001
0000
0100
0001
,
0010
0000
0100
1000
0100
0000
0101
0000
,
0010
0000
0000
0000
0010
0000
0000
0000
1000
0000
0000
1000
0000
0000
0002
0000
,
0000
0000
0103
0000
0010
0000
1000
0000
0001
0000
0000
0010
0000
0000
0000
0000
,
2000
0000
0100
0000
3100
0000
0010
0100
,
0001
0001
1000
1000
0010
0000
0000
0000
,
0110
0000
0000
1000
0000
0000
0110
0000
,
0000
0001
0000
0000
0011
0000
0000
1100
,
0000
0000
0001
0010
0001
0100
0010
0000
,
1010
0000
0000
0001
0000
0000
0011
0000
,
0000
0000
1000
0000
0000
0000
0000
0000
0220
0000
0000
0000
0000
0000
0000
0330
,
1000
0001
1000
0001
0100
0010
0100
0010
,
0200
0000
0310
1000
0010
0000
0100
0001
,
0100
0000
0010
1000
0002
0000
0000
0000
,
0103
1100
0010
0011
,
1000
0000
0001
0000
0100
0000
0010
0000
1000
0000
0000
0100
0000
0000
0001
0000
,
0100
1000
0020
0000
0230
0000
0301
0010
,
0001
1000
0020
0000
0032
0000
0013
0000
,
1000
0100
1000
0000
0001
0010
0001
0010
,
0001
0000
0000
0100
0000
0000
0100
0000
0010
0000
0000
0000
2002
3003
0000
0000
0000
0000
0000
0000
0000
0000
0000
0000
0000
0000
0000
0000
0000
0000
0000
0000
;

//--------------- dance-single - tomori ----------------
#NOTES:
     dance-single:
     tomori:
     Hard:
     15:
     0.721413,0.95443,0.525189,0.573668,0.706985,625,560,65,71,54,3,0.721413,0.95443,0.525189,0.573668,0.706985,625,560,65,71,54,3:
0000
0000
0000
0000
,
0000
0000
0000
0000
,
0000
0000
0000
0000
,
0000
0000
0000
0000
,
2010
0000
0000
3001
0100
0000
0010
0000
0100
0000
0001
0000
0001
0100
0001
0000
,
1000
0010
1000
0000
0100
0000
1000
0000
0010
0000
0100
0000
0011
0000
0100
1000
,
0100
0000
0010
0001
0010
0000
1000
0100
1000
0000
0001
0010
0001
0000
1000
0100
,
1000
0010
0100
0001
0010
0001
0010
0100
1000
0000
0000
0010
0000
0000
1010
0000
,
1002
0000
0000
0103
0010
0000
1000
0000
0001
0000
0010
0000
0100
1000
0100
0000
,
0010
0100
0010
0000
2001
0000
0010
0000
3200
0000
1000
0000
0310
0000
0000
0000
,
0011
0000
0001
0100
0001
0000
1000
0000
0110
0000
0001
1000
0010
0010
0100
0000
,
1001
0000
0000
0000
0000
0000
0000
0000
0000
0000
0000
0000
00M1
0000
0000
0000
0000
0000
0000
0000
0000
0000
0000
0000
00M1
0000
0000
0000
0000
0000
0000
0000
01M0
0000
0000
0000
0000
0000
0000
0000
0000
0000
0000
0000
0000
0000
0000
0000
0020
0000
0000
0000
0000
0000
0000
0000
0000
0000
0000
0000
0000
0000
0000
0030
,
1100
0000
0000
0001
0100
0000
0100
0000
0000
0000
0010
0000
1000
0100
1000
0000
,
0001
0010
0001
0000
0010
0000
0100
0000
1000
0000
0000
1000
0001
0000
0001
1000
,
0100
0000
0000
0100
0010
0000
0001
0000
0000
0000
0100
0010
1000
0100
0010
0000
,
1000
0000
0001
0000
1000
0000
0001
0010
0100
0100
0010
0010
2001
0000
0000
3010
,
0100
0000
0001
0000
1000
0000
0100
0000
0010
0001
0010
0000
0102
0000
0000
1003
,
0100
0000
0010
0000
0001
0000
0010
0000
0100
0000
1000
0010
2000
0000
0000
3100
,
1000
0000
0010
0000
0002
0000
0000
0013
0100
0000
0010
0000
1000
0010
1000
0010
,
0000
0100
0001
0100
0001
1000
0010
0100
0001
0010
0001
0100
0020
0100
0100
0100
,
2030
0000
0010
0000
0010
0000
0010
0000
3002
0000
0100
0000
0100
0000
0103
0000
2000
0000
0010
0000
0010
0000
0010
3000
0001
0000
0100
0000
0001
0000
1000
0000
,
0010
1000
0010
0110
0012
0000
1103
0000
1002
0000
0000
0103
0010
0000
1000
0000
,
0001
0100
0001
0000
0010
0000
1000
0000
0010
0000
0001
0000
0100
1000
0100
0000
,
0200
0000
0000
0000
0301
0000
0010
0000
0001
0010
0100
0010
0001
0000
1000
0000
,
0010
0000
0100
0000
0010
0000
1000
0000
0210
0000
0000
0300
2001
0000
0000
3000
,
0120
0000
0000
0030
1002
0000
0000
0003
1000
0100
0000
0100
1000
0000
0010
0000
,
0100
0001
0000
0001
0100
0000
0001
0000
0010
0100
0000
0100
0010
0000
0100
0000
,
1000
0001
0000
0001
1000
0000
0010
0000
1000
0100
1000
0100
0010
0000
0100
0000
,
0001
0000
0100
0000
1000
0000
0010
0000
0001
0000
0000
0010
0100
0000
0010
0000
,
1000
0001
0010
0100
0010
0001
1000
0010
0200
0000
0000
0000
0010
0000
1300
0100
,
1000
0000
0000
0000
0001
0100
0010
1000
0001
0000
0001
0000
1000
0000
1000
0000
,
0202
0000
0300
0003
11MM
0000
0000
M1M1
,
0000
0000
M11M
0000
0000
1M1M
0000
0000
,
MM11
0000
0000
0000
0000
0000
1MM1
0000
0000
0000
0001
0010
0100
0000
0010
0000
,
0001
0100
1000
0000
MM11
0000
0000
1M1M
,
0000
0000
M11M
0000
0000
M1M1
0000
0000
,
22MM
0000
0000
0000
,
3301
0100
0001
0100
0010
1000
0010
1000
0001
0100
0010
1000
0100
0010
0001
0000
,
M2M0
0000
0000
0001
0000
0000
0001
0000
0000
0001
0000
0000
0001
0000
0000
0000
M3M2
0000
0000
1000
0000
0000
1000
0000
0100
0000
0000
0100
0000
0000
0100
0000
,
2MM3
0000
0000
0010
0000
0000
0010
0000
0000
0010
0000
0000
0010
0000
0000
0000
3M2M
0000
0000
0100
0000
0000
0100
0000
1030
0000
0001
0100
0010
0000
0000
0000
,
1000
0100
1000
0000
0001
0010
0100
0010
0001
0000
0100
0010
1000
0100
1000
0001
,
1000
0100
1000
0000
0010
0001
0010
0000
0100
1000
0100
0000
0001
0010
0002
0000
0000
0000
0000
0000
0000
0000
0000
0000
0000
0000
0000
0000
0013
0000
0100
0000
,
1001
0000
0000
1000
0010
0000
0100
0000
0001
0000
0010
0001
1000
0000
0010
0000
,
0100
0000
0001
0000
1000
0000
0100
0000
0012
0000
0000
0010
0103
0000
1000
0000
,
0010
0100
0001
1000
0100
0000
0010
0000
0100
0000
1000
0010
0100
0001
1000
0100
,
2000
3000
0201
0300
1020
0030
0012
0003
,
1000
0010
0000
0010
1000
0000
0100
0000
0010
0001
0000
0001
0010
0000
0100
0000
,
1000
0100
0000
0100
1000
0000
0001
0000
0210
0000
0310
0100
0001
1000
0200
0000
,
0310
0001
0010
0001
0100
0000
0010
0000
1000
0100
0000
0010
0001
0000
0100
0000
,
0012
0000
0000
2000
0000
0003
0010
3000
1000
0010
0100
0010
1000
0001
0100
0010
,
1000
0000
1000
0000
0001
0000
0001
0000
0101
0000
0000
0011
0000
0000
0201
0000
,
0000
0000
0310
0000
0001
0000
0100
0000
0001
0000
0001
0010
0001
0100
0010
1000
,
0200
0000
0000
0000
2000
0000
3000
0000
0020
0000
0330
0000
0001
1000
0100
1000
,
0010
1100
1100
0011
0011
0000
0000
0000
,
M11M
0000
0000
1MM1
0000
0000
M11M
0000
,
0000
1MM1
0000
0000
1M1M
0000
0000
M1M1
,
0000
0000
0002
0023
0230
2300
3200
0300
,
MM11
0000
0000
11MM
0000
0000
1MM1
0000
,
0000
M1M1
0000
0000
MM22
0000
0000
0000
,
0133
1000
0100
0000
1000
0010
1000
0000
0010
0100
0010
0000
0100
0001
0100
0000
,
0012
0000
0000
0013
0100
0000
0010
0000
1001
0000
0100
0000
0010
0100
0001
0000
,
1100
0000
0100
0000
0020
0000
0001
0000
0031
0000
0100
0010
1000
0000
0001
0100
,
0010
0000
1000
0100
1000
0000
0001
0100
0001
0000
1000
0010
0100
0010
1000
0000
,
0011
0000
0001
0100
0010
0100
0001
0010
0001
0000
0000
0101
0000
0000
1001
0000
,
0201
0000
0000
0310
0001
0000
0100
0000
0001
0000
0010
0000
0001
1000
0001
0000
,
0100
0001
1000
0010
0200
0000
0001
0000
0302
0000
0100
0000
1003
0000
0000
0000
,
0101
0000
0000
0100
0001
0000
1000
0000
0010
0000
0010
0000
1000
0100
0010
0001
,
0200
0000
0300
0200
0000
0300
0200
0000
0320
0030
0000
0000
2002
3003
0000
0000
M00M
0000
0000
0000
0000
0000
0000
0000
0000
0000
0000
0000
0000
0000
0000
0000
;

//--------------- dance-single - tomori ----------------
#NOTES:
     dance-single:
     tomori:
     Challenge:
     17:
     0.831068,1.145316,0.525189,0.880701,1.062497,720,655,65,109,176,7,0.831068,1.145316,0.525189,0.880701,1.062497,720,655,65,109,176,7:
0000
0000
0000
0000
,
0000
0000
0000
0000
,
0000
0000
0000
0000
,
0000
0000
0000
0000
,
0020
0000
0000
0000
0000
0000
0100
0000
0000
0031
0000
0000
1000
0000
0000
0000
0000
0000
0010
0000
0000
0000
0000
0000
1000
0000
0000
0000
0000
0000
0001
0000
0000
0010
0000
0000
0100
0000
1000
0000
0100
0000
1000
0000
0000
0000
0000
0000
,
0001
0000
0010
0000
0001
0000
0010
0000
0000
0100
0000
0000
1000
0000
0000
0000
0000
0000
0010
0000
0000
0000
0000
0000
0100
0000
0000
0000
0000
0000
0001
0000
0000
0010
0000
0000
0001
0000
0000
0000
0000
0000
0100
0000
0000
0000
0000
0000
,
0010
0000
1000
0010
1000
0000
0010
0100
0001
0000
0010
0100
1000
0100
0010
0000
,
1001
0000
1000
0010
0100
0001
0010
0001
1100
0000
0000
0011
0000
0000
1010
0000
,
0101
0000
0000
0000
0000
0000
1000
0000
0000
0100
0000
0000
0010
0000
0000
0000
0000
0000
0100
0000
0000
0000
0000
0000
0001
0000
0000
0000
0000
0000
0100
0000
0000
0000
0000
0000
1000
0000
0100
0000
1000
0000
0100
0000
0000
0000
0000
0000
,
0010
0000
0001
0000
0010
0000
0001
0000
0000
0010
0000
0000
0200
0000
0000
0000
0000
0000
1000
0000
0000
0000
0000
0000
1300
0000
0000
0000
0000
0000
0010
0000
0000
0100
0000
0000
0001
0000
0000
0000
0000
0000
0001
0000
0000
0100
0000
0000
,
0010
0000
0000
1000
0100
0000
1000
0000
0101
0000
0100
0010
1000
0100
0001
0000
,
4000
0000
0000
0000
0000
0000
0000
0000
0000
0000
0000
0000
0000
0000
0000
0000
0000
0000
0000
0000
0000
0000
0000
0000
3000
0000
0000
0000
0000
0000
0000
0000
0000
0000
0000
0000
4000
0000
0000
0000
0000
0000
0000
0000
0000
0000
0000
0000
0000
0000
0000
0000
0000
0000
0000
0000
0000
0000
0000
0000
3000
0000
0000
0000
0000
0000
0000
0000
0000
0000
0000
0000
4000
0000
0000
0000
0000
0000
0000
0000
0000
0000
0000
0000
0000
0000
0000
0000
0000
0000
0000
0000
0000
0000
0000
0000
3001
0000
0000
0000
0000
0000
0000
0000
0000
0000
0000
0000
0000
0000
0000
0000
0000
0000
0000
0000
0000
0000
0000
0000
0000
0000
0000
0000
0000
0000
0000
0000
0000
0000
0000
0000
0000
0000
0000
0000
0000
0000
0000
0000
0000
0000
0000
0020
0200
0000
0000
0000
0000
0000
0000
0000
0000
0000
0000
0000
0000
0000
0000
0000
0000
0000
0000
0000
0000
0000
0000
0000
0000
0000
0000
0000
0000
0000
0000
0000
0000
0000
0000
0000
0000
0000
0000
0000
0000
0000
0000
0000
0000
0030
0000
0000
,
2300
0000
0000
0MM0
0000
0000
0000
0000
0000
0001
0000
0000
3010
0000
0000
0000
0000
0000
0001
0000
0000
0000
0000
0000
0000
0000
0000
0000
0000
0000
0100
0000
0000
0000
0000
0000
0010
0000
1000
0000
0010
0000
1000
0000
0000
0000
0000
0000
,
0100
0000
0001
0010
0001
0000
0100
0000
0010
0000
0000
0010
1000
0000
1000
0010
,
0200
0000
0000
0000
0000
0000
0000
0000
0000
0001
0000
0000
1300
0000
0000
0000
0000
0000
1000
0000
0000
0000
0000
0000
0000
0000
0000
0000
0000
0000
0001
0000
0000
0010
0000
0000
0100
0000
0010
0000
0100
0000
0010
0000
0000
0000
0000
0000
,
0002
0000
1000
0000
1003
0000
0010
0100
0001
0011
1000
1100
0002
0000
0000
0103
,
0010
0000
0000
0000
0000
0000
1000
0000
0000
0000
0000
0000
0002
0000
0000
0000
0000
0000
0023
0000
0000
0000
0000
0000
0130
0000
1000
0000
0100
0000
1000
0000
0000
0000
0000
0000
2001
0000
0000
0000
0000
0000
0000
0000
0000
3010
0000
0000
,
1000
0000
0100
0000
2000
0000
3200
0000
0310
0000
0001
0010
0001
0000
0000
0001
,
1000
0000
0010
1000
0010
0000
0000
0010
1000
0000
1000
0000
0010
0100
0010
0100
,
0000
0000
0001
0000
1000
0000
0100
0000
0100
0000
0001
0000
0010
0000
0010
0000
1000
0000
0100
0000
0010
0000
0001
0000
2000
0000
0010
0000
0010
0000
3010
0100
,
0002
0000
1000
0000
1000
0000
1003
0010
0200
0000
0001
0000
0001
0000
0301
1000
0020
0000
0130
0001
0100
0010
1000
0000
0101
0000
1010
0000
0110
0000
1001
0000
,
2000
0000
0000
0000
0000
0000
0000
0000
0000
0000
0000
0000
0200
0000
0000
0000
0000
0000
0000
0000
0000
3000
0000
0000
0020
0000
0000
0000
0000
0000
0300
0000
0000
0000
0000
0000
0002
0000
0000
0030
0000
0000
0000
0000
0000
0003
0000
0000
2000
0100
0000
0000
0000
0000
0000
0000
0000
0000
0000
0000
0000
0000
0000
0000
0000
0000
0000
0000
0000
0000
0000
0000
0020
0000
0000
0000
0000
0000
0000
0000
0000
0000
0000
0000
3000
0000
0000
0000
0000
0000
0000
0000
0000
0000
0000
0000
0130
0000
0000
0000
0000
0000
0000
0000
0000
0000
0000
0000
0001
0000
0000
0000
0000
0000
0000
0000
0000
0000
0000
0000
0100
0000
0000
0000
0000
0000
0000
0000
0000
0000
0000
0000
0000
0000
0000
0000
0000
0000
0000
0000
0000
0000
0000
0000
0001
0000
0000
0000
0000
0000
0000
0000
0000
0000
0000
0000
0000
0000
0000
0000
0000
0000
0000
0000
0000
0000
0000
0000
0010
0000
0000
0000
0000
0000
0000
0000
0000
0000
0000
0000
0001
0000
0000
0000
0000
0000
0000
0000
0000
0000
0000
0000
,
0100
0000
0010
1000
0100
1000
0010
0000
0100
0001
1000
0000
0010
0000
0001
0000
,
0020
0000
0130
0010
0000
0010
1000
0000
0100
0010
0001
0010
0100
0000
1000
0000
,
0100
0010
0000
0010
0100
1000
0001
0100
1020
0000
0130
0000
0201
0000
0310
0000
,
0120
0000
0031
0000
0210
0000
1300
0000
0001
0010
0000
0010
0001
1000
0100
0000
,
0100
1000
0000
0010
1000
0001
0100
0000
0001
0100
0010
1000
0010
0000
0100
0000
,
0102
0000
0000
1003
0100
0000
0010
0001
0100
0010
1000
0100
1000
0000
0010
0000
,
0200
0010
0000
0310
0100
0000
0001
0000
0001
0100
0000
0100
0020
0000
1030
0000
,
0001
0100
0010
1000
0100
1000
0100
0010
0002
0000
0000
0000
0010
0000
1003
0001
,
0100
0000
0001
0100
0010
1000
0010
0100
0011
0000
0101
0000
1100
0000
1010
0000
,
0120
0000
0000
0000
0002
0030
0000
0003
1M1M
0000
0000
0000
0000
0000
M1M1
0000
,
0000
0000
1MM1
0000
0000
MM11
0000
0000
,
11MM
0000
0000
0000
0000
0000
1MM1
0000
0000
0000
0001
0010
0100
0000
1000
0000
,
0100
0001
0100
1000
M1M1
0000
0000
MM11
,
0000
0000
1M1M
0000
0000
11MM
0000
0000
,
M22M
0000
0000
M00M
0000
0000
M00M
0000
M000
0000
0000
M000
000M
0000
000M
0330
,
1000
0010
0100
0001
0010
0100
1000
0001
0100
0010
1000
0100
1000
0001
0100
0001
,
0200
0000
0000
M0M1
0000
0000
M01M
0000
0000
M01M
0000
0000
M01M
0000
0000
0000
M3M2
0000
0000
MM10
0000
0000
M1M0
0000
20M3
0000
0000
0M1M
0000
0000
01MM
0000
,
3020
0000
0000
MM01
0000
0000
MM01
0000
0000
MM01
0000
0000
1M0M
0000
1M3M
0000
0M2M
0000
0000
2M3M
0000
0000
32MM
0000
M311
0000
0001
1000
0010
0100
0000
0000
,
1000
0010
0100
0010
1000
0100
0001
0100
1000
0001
0100
0001
0010
0100
0010
0001
,
0100
0000
0000
0001
0000
0000
1000
0000
0000
0010
0000
0000
0100
0000
0000
0010
0000
0000
1000
0000
0000
0010
0000
0000
0100
0000
0000
0001
0000
0000
0010
0000
0000
0000
0000
0000
0001
0000
0000
1000
0000
0000
0200
0000
0000
0000
0000
0000
M00M
0000
0000
00M0
0000
0000
M000
0000
0000
00M0
0000
0000
000M
00M0
000M
00M0
0000
0000
M000
0000
0000
M000
0000
0000
00M0
0000
0000
M000
0000
0000
00M0
000M
00M0
000M
0000
0000
2300
0000
0000
0000
0000
0000
3011
0000
0000
0000
0000
0000
,
1000
0100
0000
0100
1000
0000
0010
0000
0100
0001
0000
0001
0100
0000
0001
0000
,
1000
0010
1000
0000
0010
0000
0001
0000
0020
0000
0000
1030
0100
0000
1000
0000
,
0100
0010
0001
0010
0100
0000
0010
0000
0001
1000
0001
0000
0100
0001
0100
0010
,
2200
0000
3300
00MM
2002
0000
3003
0MM0
0202
0000
0303
M0M0
2002
0000
3003
0MM0
,
0001
1000
0000
1000
0001
0000
0100
0001
0010
0100
0000
0100
0010
0000
0001
1000
,
0100
1000
0010
0000
0100
0001
0010
0001
2000
0000
3100
0000
1000
0010
0100
0000
,
0001
0010
0001
0010
0001
1000
0010
0100
0001
1000
0100
1000
0010
0000
0101
0000
,
1010
0000
1000
0100
0001
0000
0001
0100
1000
0100
0010
0100
1000
0010
0001
0010
,
0100
0000
0001
0000
0101
0000
1000
0000
1010
0000
0000
0010
1000
0000
0001
0100
,
0000
0010
1000
0000
0001
0100
0010
0000
1000
0001
0100
0000
0010
0010
0001
1000
,
0200
0000
0000
0300
0M02
0000
0100
1003
002M
0000
0000
0030
10M0
0001
1000
0010
,
1000
0000
0101
0000
1100
0000
0101
0000
2200
0000
0000
00M0
0000
0000
33M0
0000
,
M1M1
0000
MMM0
1M1M
0000
MM0M
1MM1
0000
,
0MMM
11MM
0000
0MMM
MM11
0000
MM0M
1MM1
,
0000
0000
2000
3020
0032
0203
2300
3000
,
010M
M11M
0000
1MM0
1MM1
0000
M01M
M11M
,
0000
0000
0000
0000
0MM1
0000
0000
0000
1MM1
0000
0000
0000
0000
0000
0000
0000
0220
0000
0000
M00M
0000
0000
M00M
0000
000M
0000
0000
000M
M000
0000
M000
0330
,
0010
1000
0001
0100
0001
0010
0001
0100
0010
1000
0100
1000
0010
0100
0001
0010
,
0200
0000
0000
0000
0000
0000
0000
0000
0000
1300
0000
0000
0100
0000
0000
0000
0000
0000
0100
0000
0000
1000
0000
0000
0010
0000
0000
0000
0000
0000
0100
0000
0000
0000
0000
0000
0001
0000
0010
0000
0001
0000
0010
0000
0000
0000
0000
0000
,
1000
0000
0100
0000
1000
0000
0100
0000
0000
0010
0000
0000
0001
0000
0000
0000
0000
0000
0010
0000
0000
0100
0000
0000
1000
0000
0000
0000
0000
0000
0011
0000
0000
0000
0000
0000
0101
0000
0000
0000
0000
0000
0010
0000
0000
1000
0000
0000
,
0010
0000
0000
0000
0000
0000
0100
0000
0000
0001
0000
0000
0100
0000
0000
0000
0000
0000
0001
0000
0000
0010
0000
0000
0100
0000
0000
0000
0000
0000
1000
0000
0000
0100
0000
0000
0010
0000
0001
0000
0010
0000
0001
0000
0000
0000
0000
0000
,
2001
0000
0000
3001
0100
0010
1000
0001
0202
0000
0303
2020
0000
3030
2200
0000
,
3311
0000
0000
0000
0000
0000
0100
0000
0000
0001
0000
0000
0100
0000
0000
0000
0000
0000
0010
0000
0000
0000
0000
0000
1000
0000
0000
0010
0000
0000
0100
0000
0000
0000
0000
0000
0010
0000
1000
0000
0010
0000
1000
0000
0000
0000
0000
0000
,
0001
0000
0100
0000
0001
0000
0100
0000
0000
0001
0000
0000
2000
0000
0000
0000
0000
0000
0001
0000
0000
0000
0000
0000
3002
0000
0000
0000
0000
0000
0010
0000
0000
0000
0000
0000
0103
0000
0000
0010
0000
0000
0000
0000
0000
0000
0000
0000
,
1001
0000
0000
0000
0000
0000
0010
0000
0000
0100
0000
0000
0010
0000
0000
0000
0000
0000
1000
0000
0000
0000
0000
0000
0010
0000
0000
0100
0000
0000
0001
0000
0000
0000
0000
0000
1000
0000
0010
0000
0100
0000
0001
0000
0000
0000
0000
0000
,
2002
3000
0000
0000
0000
0000
0000
0000
0000
0000
0000
0000
0000
0000
0000
0000
0000
0000
0020
0030
0000
0000
0000
0000
0000
0000
0000
0000
0000
0000
0000
0000
0000
0000
0000
0000
0020
0030
0000
0000
0000
0000
0000
0000
0000
0000
0000
0000
0203
0300
0000
0000
0000
0000
0000
0000
0000
0000
0000
0000
0000
0000
0000
0000
0000
0000
0000
0000
0000
0000
0000
0000
0220
0000
0000
0000
0000
0000
0000
0000
0000
0330
0000
0000
0000
0000
0000
0000
0000
0000
0000
0000
0000
0000
0000
0000
MMMM
0000
0000
0000
0000
0000
0000
0000
0000
0000
0000
0000
0000
0000
0000
0000
0000
0000
0000
0000
0000
0000
0000
0000
0000
0000
0000
0000
0000
0000
0000
0000
0000
0000
0000
0000
0000
0000
0000
0000
0000
0000
0000
0000
0000
0000
0000
0000
0000
0000
0000
0000
0000
0000
0000
0000
0000
0000
0000
0000
0000
0000
0000
0000
0000
0000
0000
0000
0000
0000
0000
0000
0000
0000
0000
0000
0000
0000
0000
0000
0000
0000
0000
0000
0000
0000
0000
0000
0000
0000
0000
0000
0000
0000
0000
0000
;
