#VERSION:0.83;
#TITLE:Drive Your Fire;
#SUBTITLE:;
#ARTIST:越田Rute隆人 & あき (A-ONE);
#TITLETRANSLIT:;
#SUBTITLETRANSLIT:;
#ARTISTTRANSLIT:Rute & Aki (A-ONE);
#GENRE:;
#ORIGIN:;
#CREDIT:;
#BANNER:Drive your Fire.png;
#BACKGROUND:Drive your Fire-bg.png;
#PREVIEWVID:;
#JACKET:Drive your Fire-jacket.png;
#CDIMAGE:;
#DISCIMAGE:;
#LYRICSPATH:;
#CDTITLE:;
#MUSIC:Drive Your Fire.ogg;
#OFFSET:-0.000000;
#SAMPLESTART:86.399002;
#SAMPLELENGTH:17.561001;
#SELECTABLE:YES;
#DISPLAYBPM:164.000000;
#BPMS:0.000=164.000,
104.000=328.000,
107.000=164.000,
392.000=328.000,
395.000=164.000;
#STOPS:104.000=0.091,
104.500=0.046,
104.750=0.091,
105.250=0.091,
105.750=0.091,
106.250=0.091,
106.750=0.046,
392.000=0.091,
392.500=0.046,
392.750=0.091,
393.250=0.091,
393.750=0.091,
394.250=0.091,
394.750=0.046;
#DELAYS:;
#WARPS:;
#TIMESIGNATURES:0.000=4=4;
#TICKCOUNTS:0.000=4;
#COMBOS:0.000=1;
#SPEEDS:72.000=0.000=0.250=0,
72.250=1.000=3.750=0;
#SCROLLS:0.000=1.000;
#FAKES:;
#LABELS:0.000=Song Start;
#BGCHANGES:;
#KEYSOUNDS:;
#ATTACKS:
;

//---------------dance-single - ----------------
#NOTEDATA:;
#CHARTNAME:;
#STEPSTYPE:dance-single;
#DESCRIPTION:;
#CHARTSTYLE:;
#DIFFICULTY:Challenge;
#METER:11;
#RADARVALUES:0.802172,1.052191,0.342712,1.245625,0.919390,852.000000,798.000000,52.000000,189.000000,61.000000,6.000000,1.000000,0.000000,0.000000,0.802172,1.052191,0.342712,1.245625,0.919390,852.000000,798.000000,52.000000,189.000000,61.000000,6.000000,1.000000,0.000000,0.000000;
#CREDIT:vlsaurus1;
#DISPLAYBPM:164.000000;
#NOTES:
// measure 0
0000
0000
0000
0000
,  // measure 1
0000
0000
0000
0000
,  // measure 2
1001
0000
0000
0000
,  // measure 3
M000
0M00
00M0
0M00
00M0
000M
M000
0M00
00M0
0M00
00M0
000M
M000
0M00
00M0
0M00
00M0
000M
M000
0M00
00M0
0M00
00M0
000M
0000
0000
0000
0000
1000
0000
0000
0000
,  // measure 4
0001
0000
0100
0001
0000
1000
0100
0000
1000
0001
0000
0010
0002
0000
2000
0000
,  // measure 5
0M00
00M0
0M00
00M0
0M00
00M0
0M00
00M0
0M00
00M0
0M00
00M0
3M03
0000
1100
0000
,  // measure 6
0011
0000
0000
0000
,  // measure 7
000M
0M00
00M0
0M00
00M0
M000
000M
0M00
00M0
0M00
00M0
M000
000M
0M00
00M0
0M00
00M0
M000
000M
0M00
00M0
0M00
00M0
M000
0000
0000
0000
0000
0000
0000
0000
0000
,  // measure 8
1000
0000
0010
1000
0100
0010
0001
0100
0010
1000
0100
0010
0001
0100
0010
1000
,  // measure 9
0101
0000
0000
1100
0000
0000
0110
0000
0000
0011
0000
0000
1001
0000
0001
1000
,  // measure 10
0001
0000
1000
0000
0001
0000
1000
0001
0010
0000
0001
0000
0010
0000
0001
1000
,  // measure 11
0100
0000
1000
0000
0100
0000
1000
0001
1000
0000
0001
0000
1000
0000
0001
0000
,  // measure 12
1000
0000
0010
1000
0000
0001
0010
0000
0001
1000
0000
0100
2000
0000
0002
0000
,  // measure 13
0000
0000
0000
0000
0000
3003
0100
0010
0100
0000
0001
1000
0000
0010
0100
0010
,  // measure 14
1000
1000
0100
0100
0010
0010
0001
0001
,  // measure 15
1000
1000
0010
0010
0100
0100
0001
0001
,  // measure 16
1000
0100
1000
0000
0100
0010
0100
0000
0010
0001
0010
0000
0001
1000
0001
0000
,  // measure 17
0010
0001
0010
0000
0001
0000
1000
0000
0100
0000
0010
0000
0100
0000
0010
0000
0001
0000
1000
0000
0010
0000
0100
0000
0001
0000
1000
0000
0100
0000
0010
0000
,  // measure 18
0001
0000
0000
0000
,  // measure 19
0011
0000
0000
0000
1100
0000
0000
0000
1000
0010
0000
1010
0000
0000
1000
0000
,  // measure 20
0010
1000
0100
0010
0001
0010
0100
1000
0010
0100
0001
0010
0100
1000
0010
0100
,  // measure 21
0001
0000
0000
0000
1001
0000
0000
0000
0001
1000
0000
1010
0000
0000
1000
0000
,  // measure 22
0001
0010
0001
0010
0100
1000
0010
0200
0000
0310
1000
0010
1000
0001
1000
0100
,  // measure 23
0010
0000
0000
0000
0011
0000
0000
0000
0001
1000
0000
1100
0000
0000
0100
0000
,  // measure 24
0010
0100
0010
0100
1000
0001
1000
0002
0000
1003
0001
0010
0100
1000
0100
0010
,  // measure 25
0001
0000
0000
0000
1001
0000
0000
0000
1000
0010
0000
0110
0000
0000
1000
0000
,  // measure 26
1001
0000
0100
0001
0000
1000
0000
0010
0000
0111
0000
1000
0020
0000
1030
0010
,  // measure 27
2000
3200
0320
0032
0023
0230
0000
2300
,  // measure 28
0000
3002
0203
0302
2003
3020
0030
0000
,  // measure 29
1000
0100
0010
0000
0100
0000
0010
0000
0001
0010
0100
0000
1000
0000
0020
0000
,  // measure 30
0000
0000
0000
0000
0000
0000
2030
0000
0000
0000
0000
0000
3002
0000
0000
0000
0000
0000
0203
0000
0000
0000
0000
0000
0320
0000
0000
0000
0000
0000
2030
0000
0000
0000
0000
3000
1010
0000
0000
0000
0000
0000
0000
0000
0000
0000
0000
0000
,  // measure 31
2000
3020
0032
0203
2300
3200
0300
0020
,  // measure 32
0030
0000
0002
0000
2003
0000
3002
0000
0000
0000
1000
0000
1003
0010
1000
0001
,  // measure 33
0100
0001
0010
0100
2000
0000
3002
0000
0023
0000
0230
0000
0000
0000
2302
0000
,  // measure 34
0000
3003
2000
0000
3020
0000
2030
0000
3001
0010
0001
0010
0100
1000
0100
1000
,  // measure 35
0020
0000
2030
0000
3002
0000
0023
0000
0032
0000
2003
0000
0000
3000
0202
0000
,  // measure 36
0000
0303
2000
0000
3200
0000
2300
0000
3002
0000
0203
0000
0301
1000
0001
0000
,  // measure 37
1000
0010
1000
0000
0010
0000
1000
0000
0100
0010
0100
0000
0010
0000
0002
0000
,  // measure 38
0003
0000
2000
0000
3020
0000
0230
0000
0302
0000
1003
0010
0100
0000
0001
0010
,  // measure 39
2000
0000
3020
0000
0032
0000
2003
0000
3020
0000
0230
0000
0000
0300
2020
0000
,  // measure 40
0000
3030
1000
0010
2000
0000
0002
0000
3003
0000
1000
0010
0100
0001
0010
0100
,  // measure 41
1000
0010
0200
0000
0302
0000
2003
0000
3200
0000
0320
0000
0030
0000
2002
0000
,  // measure 42
3003
0000
0200
0000
0302
0000
2003
0000
3001
0100
0010
1000
0100
1000
0010
0100
,  // measure 43
0002
0000
0100
0203
0000
0010
0320
0000
,  // measure 44
2030
0000
0001
3002
0000
0010
0023
0000
,  // measure 45
0230
0000
2300
3020
0000
0230
0302
0000
,  // measure 46
0023
0000
0000
0000
0000
0000
0130
1000
0002
0000
1000
0000
2000
0000
3003
0000
,  // measure 47
2000
0000
0010
3020
0000
0100
0230
0000
,  // measure 48
0302
0000
0000
0000
2000
0000
0000
3003
1000
0000
0001
0010
0002
0000
0400
0000
,  // measure 49
0000
0000
0000
0000
0000
0000
0000
0303
,  // measure 50
0010
0000
1000
0010
1000
0000
1001
0000
1000
0001
0100
0001
1000
0010
1000
0001
,  // measure 51
2000
0000
0010
3020
0000
0100
0230
0000
,  // measure 52
0302
0000
1000
2003
0000
0100
3200
0000
,  // measure 53
0320
0000
0032
0203
0000
0320
2030
0000
,  // measure 54
3200
0000
0000
0000
0000
0000
0310
0100
2000
0000
0001
0000
0002
0000
3003
0000
,  // measure 55
2000
0000
0100
3200
0000
0010
0320
0000
,  // measure 56
0032
0000
0000
0000
1000
0000
1003
0000
0000
0000
0001
0010
0100
1000
0100
0010
,  // measure 57
0001
0000
1000
1100
0000
1000
1001
0000
,  // measure 58
0011
0000
1001
0000
1100
0000
0220
0000
0000
0330
0001
0010
0001
0010
0100
1000
,  // measure 59
0002
0000
1003
2000
0000
3100
0020
0030
,  // measure 60
0011
0000
1000
0000
0001
0000
1000
0100
0000
1000
0002
0000
0023
0000
0230
0000
,  // measure 61
1300
0100
1000
0000
0100
0010
0100
0000
0010
0001
0010
0001
0100
0010
1000
0010
,  // measure 62
0200
0000
0000
0002
0000
0000
0000
0303
,  // measure 63
2020
0000
0000
3000
1030
0000
0001
0000
0100
0000
0001
0000
1000
0000
0000
0000
,  // measure 64
1200
0000
0000
0010
0000
0310
0100
1000
,  // measure 65
0100
1000
0100
1000
0020
0000
0200
0000
0330
0000
0100
0000
0010
0000
0100
0000
,  // measure 66
0001
0010
0001
0010
0100
1000
0100
1000
0002
0000
1000
0000
1003
0001
1000
0001
,  // measure 67
2000
0000
3001
0002
0000
0013
0200
0300
,  // measure 68
1100
0000
0001
0000
1000
0000
0001
0010
0000
0001
2000
0000
3200
0000
0320
0000
,  // measure 69
0031
0010
0001
0000
0010
0100
0010
0000
0100
1000
0100
1000
0010
0100
0001
0100
,  // measure 70
0020
0000
0000
0000
0000
0000
0030
0000
1000
0001
1000
0001
1000
0100
0010
0001
,  // measure 71
2000
0000
0000
3000
0001
0000
1000
0000
0010
0000
1000
0000
0001
0000
0000
0000
,  // measure 72
0021
0000
0000
0100
0000
0130
0010
0001
,  // measure 73
0010
0001
0010
0001
0200
0000
0020
0000
0330
0000
0010
0000
0100
0000
0010
0000
,  // measure 74
1000
0100
1000
0100
0010
0001
0010
0001
2000
0000
0001
0000
3001
1000
0001
0000
,  // measure 75
1000
0000
0100
1000
0002
0000
0000
0000
0203
0000
0000
0000
0320
0000
2030
0000
,  // measure 76
0000
3200
0320
0032
1003
1100
1100
1000
,  // measure 77
0001
0000
0010
0001
2000
0000
0000
0000
3020
0000
0000
0000
0230
0000
0302
0000
,  // measure 78
0000
0000
0023
0000
0230
0000
2300
0000
3001
0010
0001
0010
0001
0010
0100
1000
,  // measure 79
0002
0023
0032
0203
0320
2030
3020
2030
,  // measure 80
0000
3000
0002
0000
0103
0000
0100
0000
0010
0000
1001
0000
1001
0000
0000
0000
,  // measure 81
0001
0010
0001
0010
0001
0010
0001
0000
0010
0100
0010
0100
0010
0100
0010
0000
,  // measure 82
0001
0010
0100
1000
0010
0100
0001
0010
0100
1000
0010
0100
0001
0010
0100
1000
,  // measure 83
0010
1000
0001
0000
1000
0000
0100
1000
0001
0000
1000
0000
0010
1000
0001
0000
,  // measure 84
1000
0100
1000
0100
0010
0000
1000
0100
1000
0100
0010
0001
0020
0000
0000
0000
,  // measure 85
0230
0000
0000
2300
0000
3100
0010
0001
2000
0000
0000
0002
0000
3003
2000
0000
,  // measure 86
0000
0200
0000
0020
0000
0001
0002
3333
,  // measure 87
1000
0000
0100
1000
0001
0000
0010
0001
2000
0000
0000
3020
0000
0000
0230
0000
,  // measure 88
0000
0302
0000
2000
3003
1001
1001
0000
,  // measure 89
0100
1000
0010
0100
0010
1000
0100
0000
0010
0001
0100
0010
0100
0001
0010
0000
,  // measure 90
0001
0010
0001
0010
0100
1000
0100
1000
0001
1000
0001
1000
0001
1000
0001
1000
,  // measure 91
0010
0000
0000
0000
1100
0000
0000
0000
1000
0010
0000
1010
0000
0000
1000
0000
,  // measure 92
0010
1000
0100
0010
0001
0010
0100
1000
0010
0100
0001
0010
0100
1000
0010
0100
,  // measure 93
0001
0000
0000
0000
1001
0000
0000
0000
0001
1000
0000
1010
0000
0000
1000
0000
,  // measure 94
0001
0010
0001
0010
0100
1000
0010
0200
0000
0310
1000
0010
1000
0001
1000
0100
,  // measure 95
0010
0000
0000
0000
0011
0000
0000
0000
0001
1000
0000
1100
0000
0000
0100
0000
,  // measure 96
0010
0100
0010
0100
1000
0001
1000
0002
0000
1003
0001
0010
0100
1000
0100
0010
,  // measure 97
0001
0000
0000
0000
1001
0000
0000
0000
1000
0010
0000
0110
0000
0000
1000
0000
,  // measure 98
1001
0000
0100
0001
0000
1000
0000
0010
0000
0111
0000
1000
0010
1000
0001
2000
,  // measure 99
0002
0000
0000
0000
,  // measure 100
0000
0000
0000
0000
,  // measure 101
0000
0000
0000
0000
,  // measure 102
0000
0000
0000
0000
,  // measure 103
3003
0000
0000
0000
;
