#TITLE:SigSig;
#SUBTITLE:(Feel Sorrow Mix);
#ARTIST:kors k Remixed by Clavia;
#TITLETRANSLIT:;
#SUBTITLETRANSLIT:;
#ARTISTTRANSLIT:;
#CREDIT:Timer Rabbit;
#BANNER:SSFS_bn.png;
#BACKGROUND:SSFS_bg.png;
#LYRICSPATH:;
#CDTITLE:timerrabbit.png;
#MUSIC:sigsig_feelsorrow.ogg;
#OFFSET:-0.060;
#SAMPLESTART:33.393;
#SAMPLELENGTH:12.000;
#SELECTABLE:YES;
#BPMS:0.000=180.000;
#STOPS:;
#BGCHANGES:;

//---------------dance-single - ----------------
#NOTES:
     dance-single:
     :
     Hard:
     8:
     0.585,0.655,0.823,0.203,0.005:
0000
0000
0000
0000
,
0000
0000
0000
0000
,
0000
0000
0000
0000
,
0000
0000
0000
0000
,
1000
0000
0001
0000
,
0100
0000
0010
0000
,
0001
0000
0100
0000
,
2000
0000
3000
0010
0002
0000
0003
1010
,
0000
0101
0000
0010
0100
0010
0011
0000
,
1100
0000
0100
0000
0001
1000
0001
0000
,
1000
0000
0100
1000
0100
0000
0101
0000
,
0011
0000
1000
0100
0010
0001
0000
0101
,
0000
1010
0000
0001
1000
0001
1010
0000
,
0101
0000
0010
0000
0100
0010
0100
0000
,
0001
0000
0010
1000
0100
0000
1010
0000
,
1100
0000
0001
0010
0100
1000
0000
0011
,
0000
1100
0000
0100
0010
0001
0101
0000
,
1010
0000
0001
0000
0010
0100
1000
0000
,
0100
0000
0010
0100
0001
0000
0110
0000
,
0101
0000
1000
0010
0100
0001
0000
1010
,
0000
0101
0000
0100
0010
1000
0011
0000
,
1100
0000
1000
0000
0001
1000
0010
0000
,
0100
0000
1000
0100
0001
0000
0101
0000
,
1010
0000
0001
1000
0010
0100
0000
1001
,
0000
0110
0000
1000
0001
0010
0101
0000
,
0110
0000
0100
0000
0010
1000
0001
0000
,
0010
0000
0001
0010
1000
0000
1001
0000
,
0011
0000
1000
0001
0100
0010
0000
0110
,
0000
1001
0000
0001
0010
1000
0110
0000
,
1010
0000
0010
0000
1000
0100
0001
0000
,
1000
0000
0100
0010
0100
0000
0110
0000
,
1100
0000
0100
0010
1000
0001
0001
0002
,
0000
0000
0000
0000
0000
0000
0000
0003
,
0000
0000
0000
2000
0000
0000
3100
0020
,
0000
0000
0030
0000
,
0000
0000
0000
0000
,
0000
0000
0000
0000
,
0000
0000
0000
0000
,
0001
0000
0010
0100
1000
0000
0101
0000
,
0011
1010
1100
1001
,
0100
0000
0010
0100
0010
0001
1000
0001
,
1000
0001
2000
0000
,
3001
0000
0100
0010
0100
0000
0001
0000
,
1000
0100
0020
0000
,
0130
0000
0010
0001
0100
0000
1010
0000
,
0101
0000
1001
0000
0220
0000
0000
0300
,
0130
0000
1000
0001
0100
0000
1100
0000
,
0101
0011
1010
0110
,
1000
0001
1000
0000
0100
0010
0100
0000
,
1001
1001
1001
1001
,
1010
0000
0100
0010
0001
0000
1100
0000
,
0011
0000
0101
0000
0202
0000
0000
0303
,
0011
0000
0010
1000
0100
0000
0101
0000
,
0011
0000
1100
0000
2200
0000
0000
3300
,
0101
0000
0010
0001
0100
0000
1000
0000
,
0010
1000
0100
0001
,
0001
0010
0001
0000
1000
0100
1000
0000
,
0110
0110
0110
0000
,
0011
0000
0010
0100
1000
0000
1010
0000
,
0101
0000
1100
0000
2020
0000
0000
3030
,
1100
0000
0100
0001
0010
0000
0011
0000
,
1100
0000
1010
0000
0022
0000
0000
0033
,
1010
0000
0100
0010
1000
0000
0001
0000
,
0010
1000
0100
0001
,
0001
0100
0001
0000
1000
0010
1000
0000
,
1001
0000
0000
0000
1001
0000
0000
0000
1001
0000
0000
0000
1000
0001
1000
0000
,
0001
0100
0001
0000
1000
0010
1000
0000
,
0100
0010
0100
0010
0100
0010
0100
0000
,
0010
0001
0010
0000
1000
0100
1000
0000
,
0001
1000
0001
1000
0001
1000
0001
0000
,
0010
1000
0100
0000
0100
0010
0001
0000
,
0001
0010
0100
1000
0100
0010
0001
0000
,
0010
0001
0100
0000
0100
0010
1000
0000
,
1000
0001
1000
0001
0220
0000
0330
1001
,
2002
0000
0000
0000
,
0000
3003
0000
0000
0000
0000
0000
0000
;

//---------------dance-single - ----------------
#NOTES:
     dance-single:
     :
     Medium:
     5:
     0.405,0.544,0.184,0.058,0.000:
0000
0000
0000
0000
,
0000
0000
0000
0000
,
0000
0000
0000
0000
,
0000
0000
0000
0000
,
1000
0000
0100
0000
,
0010
0000
0001
0000
,
0010
0000
0100
0000
,
2000
0000
3000
0010
0002
0000
0003
1000
,
0000
0010
0000
0001
0000
0100
0000
0010
,
0000
1000
0000
0100
0010
0100
0000
0010
,
0000
0001
0000
1000
0000
0100
0000
0010
,
0000
0010
0000
0001
1000
0001
1000
0001
,
0000
0100
0000
0010
0000
1000
0000
0100
,
0000
0010
0000
0001
0010
0001
0000
0100
,
0000
1000
0000
0100
0000
0010
0000
0001
,
0000
0001
0000
1000
0100
1000
0100
0010
,
0000
1000
0000
0010
0000
0001
0000
0100
,
0000
0010
0000
1000
0001
1000
0000
0100
,
0000
0010
0000
0001
0000
1000
0000
0100
,
0000
0010
0000
0100
0010
0100
0010
1000
,
0000
0010
0000
0100
0000
0001
0000
1000
,
0000
0100
0000
1000
0100
1000
0000
0010
,
0000
0001
0000
1000
0000
0010
0000
0100
,
0000
0001
0000
0001
0010
0001
0010
0100
,
0000
0010
0000
0001
0000
1000
0000
0010
,
0000
0001
0000
1000
0010
1000
0000
0001
,
0000
0100
0000
0010
0000
1000
0000
0100
,
0000
0010
0000
1000
0100
0010
0001
0010
,
0000
0100
0000
1000
0000
0001
0000
0100
,
0000
0010
0000
0001
0010
0100
0000
1000
,
0000
0100
0000
0001
0000
0010
0000
1000
,
0000
0100
0000
0001
0010
0001
0100
1000
,
0100
0000
0000
0000
,
0000
0000
0000
0000
2000
0000
3000
0010
,
0002
0000
0000
0003
0000
0000
0000
0000
,
0000
0000
0000
0000
,
0000
0000
0000
0000
,
0000
0000
0000
0000
,
0001
0000
0010
0100
0001
0000
1000
0000
,
0100
0010
0001
0100
,
1000
0000
0100
0000
0010
0001
0100
0000
,
1010
1010
1010
0000
,
1000
0000
0100
0010
1000
0000
0001
0000
,
0010
0100
1000
0000
,
0010
0000
0010
1000
0100
0000
0010
0000
,
0001
0100
1000
0000
,
1000
0000
0100
0010
0100
0000
0001
0000
,
0010
0100
1000
0100
,
0010
0001
0010
0000
1000
0100
1000
0000
,
1001
1001
1001
1001
,
1000
0100
0100
0100
,
0010
0010
0010
0000
,
0010
1000
1000
1000
,
0001
0001
0001
0000
,
0100
0010
1000
1000
,
0100
0010
0001
0001
,
0010
0100
1000
0100
,
0110
0110
0110
0000
,
0001
1000
0010
1000
,
0100
0001
0100
0000
,
1000
1000
0100
1000
,
0010
0001
0010
0000
,
0100
0010
0100
0010
,
0001
1000
0001
1000
,
1000
0100
0001
0010
,
1001
1001
1001
0000
,
0001
0000
0100
0000
,
1000
0010
1000
0000
1010
0000
1010
0000
,
1000
0000
0010
0000
,
0001
0010
0001
0000
0011
0000
0011
0000
,
0100
0000
0010
0000
,
0100
0010
0100
0000
0110
0000
0110
0000
,
1000
0000
0001
0000
,
1000
0001
1000
0001
2000
0000
3000
0010
,
0002
0000
0000
0000
0000
0000
0000
0003
;

//---------------dance-single - ----------------
#NOTES:
     dance-single:
     :
     Easy:
     3:
     0.314,0.326,0.019,0.068,0.000: // measure 1
0000
0000
0000
0000
,  // measure 2
0000
0000
0000
0000
,  // measure 3
0000
0000
0000
0000
,  // measure 4
0000
0000
0000
0000
,  // measure 5
1000
0000
0010
0000
,  // measure 6
0100
0000
0001
0000
,  // measure 7
0100
0000
0010
0000
,  // measure 8
1000
0010
0002
0003
,  // measure 9
0001
0001
0001
1000
,  // measure 10
1000
1000
0100
0010
,  // measure 11
0100
0100
0100
0010
,  // measure 12
0010
0010
0001
1000
,  // measure 13
0001
0010
0001
1000
,  // measure 14
0100
1000
0001
0010
,  // measure 15
1000
0010
1000
0001
,  // measure 16
0100
0001
0100
0010
,  // measure 17
1000
0100
1000
0010
,  // measure 18
0001
0010
1000
0001
,  // measure 19
0010
0100
0010
1000
,  // measure 20
0001
0100
0001
1000
,  // measure 21
0010
0100
0001
0100
,  // measure 22
0010
1000
0001
0010
,  // measure 23
1000
0100
0010
0001
,  // measure 24
0100
1000
0010
0100
,  // measure 25
1000
0100
0010
0001
,  // measure 26
0010
0100
1000
0010
,  // measure 27
0001
0100
0001
0010
,  // measure 28
1000
0010
0001
1000
,  // measure 29
0001
0100
1000
1000
,  // measure 30
0010
0001
0001
0010
,  // measure 31
1000
0100
0001
0010
,  // measure 32
1000
0100
0010
0002
,  // measure 33
0000
0000
0000
0000
,  // measure 34
0003
0000
0000
0000
,  // measure 35
2000
0000
0000
0000
,  // measure 36
3000
0000
0000
0000
,  // measure 37
0000
0000
0000
0000
,  // measure 38
0000
0000
0000
0000
,  // measure 39
0001
0000
0010
0100
,  // measure 40
1000
0100
0010
0001
,  // measure 41
0010
0100
0010
1000
,  // measure 42
0001
0000
1000
0000
0002
0000
0000
0003
,  // measure 43
1000
0000
0100
0010
,  // measure 44
0001
0000
0010
0000
0200
0000
0000
0300
,  // measure 45
0010
0000
1000
0100
,  // measure 46
0010
0000
0001
0000
0020
0000
0000
0030
,  // measure 47
0100
0000
0001
0010
,  // measure 48
0100
1000
0100
0010
,  // measure 49
0110
0000
1001
0000
,  // measure 50
1000
0001
1000
0000
,  // measure 51
0001
0000
1000
0100
,  // measure 52
1000
0010
0001
0000
,  // measure 53
1000
0000
0001
0100
,  // measure 54
0001
0010
1000
0000
,  // measure 55
0001
0000
1000
0001
,  // measure 56
1000
0100
0010
0100
,  // measure 57
1000
0100
0001
0010
,  // measure 58
1000
1000
1000
0000
,  // measure 59
0100
0000
0100
0010
,  // measure 60
0100
0010
1000
0000
,  // measure 61
0010
0000
1000
0001
,  // measure 62
1000
0100
0010
0000
,  // measure 63
0100
0000
0001
0010
,  // measure 64
0100
1000
0100
0010
,  // measure 65
0001
0100
0010
1000
,  // measure 66
0001
0001
0001
0000
,  // measure 67
1000
0000
0001
0000
,  // measure 68
0100
0100
0100
0000
,  // measure 69
0001
0000
1000
0000
,  // measure 70
0010
0010
0010
0000
,  // measure 71
0100
0000
0010
0000
,  // measure 72
0001
0001
0001
0000
,  // measure 73
0010
0000
0100
0000
,  // measure 74
1000
1000
1000
0010
,  // measure 75
0002
0000
0000
0003
;
