#TITLE:Requiem to Summer's Angel;
#SUBTITLE:(Revised ver.);
#ARTIST:SleeplessDragn and Klare;
#TITLETRANSLIT:;
#SUBTITLETRANSLIT:;
#ARTISTTRANSLIT:;
#CREDIT:Timer Rabbit;
#BANNER:summerangel_bn.PNG;
#BACKGROUND:summerangel_bg.png;
#LYRICSPATH:;
#CDTITLE:timerrabbit.png;
#MUSIC:summerangel.mp3;
#OFFSET:0.000;
#SAMPLESTART:35.294;
#SAMPLELENGTH:12.000;
#SELECTABLE:YES;
#BPMS:0.000=170.000;
#STOPS:;
#BGCHANGES:0.000=BGA.AVI=1.000=1=1=0,
99999=-nosongbg-=1.000=0=0=0 // don't automatically add -songbackground-
;

//---------------dance-single - ----------------
#NOTES:
     dance-single:
     :
     Hard:
     7:
     0.480,0.540,0.469,0.650,0.000:
0000
0000
0000
0000
,
0000
0000
0000
0000
,
0000
0000
0000
0000
,
0000
0000
0000
0000
,
0000
0000
0000
0000
,
0102
0100
0100
0103
,
2100
0100
0100
3100
,
0011
1001
0101
1100
,
1000
0100
1000
0100
1000
0100
1000
0000
,
1001
2100
0100
3100
,
1100
1001
0101
0110
,
0120
0100
0100
0130
,
1000
0001
1000
0001
,
2100
0100
0100
3100
,
0101
1001
0110
1100
,
0100
0010
0100
0010
,
0200
0000
0000
0300
,
2002
0000
0000
0000
0000
0000
0000
3003
,
1000
0001
1000
0002
0000
0000
0003
0000
,
1010
1001
0202
0303
,
0100
0010
0100
0000
0001
0100
0001
0100
,
0002
0000
0000
0003
0001
0001
0001
0000
,
1000
0100
2000
0000
0000
3000
0110
0000
,
1010
1100
1001
0101
,
0100
0010
0200
0000
0000
0000
0000
0300
,
0202
0000
0000
0303
,
0001
1000
0002
0000
0000
0000
0003
0000
,
1000
0100
0010
0000
0001
0100
0010
0000
,
0001
1000
0100
0010
0002
0000
0023
0000
,
0230
0000
0000
0300
,
1000
0100
1000
0000
0010
0001
0010
0000
,
0100
0010
0100
0000
0001
0010
0100
0000
,
1010
0101
0011
0110
,
1000
0100
0010
0001
0010
0200
0000
0300
,
1000
0001
2000
0000
0000
0000
3000
0000
,
0011
1001
0101
0000
,
0001
1000
0002
0000
0000
0000
0003
1000
,
0010
2000
0000
0000
0000
0000
3000
0000
,
0001
0100
0002
0000
0000
0000
0003
0000
,
1000
0010
0100
0010
,
0001
0000
1000
0100
0000
0000
0001
1000
,
0001
1000
0002
0000
0000
0000
0003
0000
,
1000
0100
0020
0000
0000
0000
0030
0000
,
0101
0010
1100
0100
,
1001
0000
0100
0010
0100
0010
0100
0000
,
2002
0000
0000
3003
,
1000
0100
1000
0000
0010
0001
0010
0000
,
0100
0010
0100
0000
0100
0001
0100
0000
,
1010
1001
0101
0110
,
0001
0010
1000
0100
0010
0001
0100
0000
,
0100
0010
0200
0000
0000
0300
0000
0000
,
0020
0032
0203
0300
,
0010
1000
0100
0010
0100
0010
0100
0000
,
2002
0000
0000
3003
,
0001
1000
0002
0000
0000
0003
0000
0000
,
2000
3200
0320
0032
,
0023
0230
0000
0300
,
2002
0000
0000
3003
,
1000
0100
0020
0000
0000
0000
0030
0000
,
0001
0100
0020
0000
0230
0000
0320
0000
,
2030
3200
0320
0032
,
0023
0000
0230
0300
,
0010
0010
0010
0000
0100
0100
0100
0000
,
2000
3002
2003
3000
,
0101
1010
0110
1001
,
2002
0000
0000
0000
3003
0220
0000
0000
,
0330
1000
0100
0100
,
0000
0100
0001
0001
,
0000
0001
0010
0010
,
0100
0100
0100
0100
,
1000
0010
0010
0000
,
0001
0100
0100
0000
,
0100
0010
0010
0000
,
0010
1000
1000
0001
,
2002
0000
3003
0200
,
0320
0000
0030
0002
,
0023
0000
0030
0200
,
2300
0000
3000
0000
,
0202
0303
2020
3030
,
2200
0000
0000
3300
,
0220
0000
0000
0330
,
2002
0000
0000
0000
,
3003
0000
0000
0000
;

//---------------dance-single - ----------------
#NOTES:
     dance-single:
     :
     Medium:
     6:
     0.418,0.506,0.296,0.724,0.000:
0000
0000
0000
0000
,
0000
0000
0000
0000
,
0000
0000
0000
0000
,
0000
0000
0000
0000
,
0000
0000
0000
0000
,
2100
0100
0100
3100
,
0102
0100
0100
0103
,
1000
0001
1000
0001
,
2002
0000
0000
3003
,
2001
0001
0001
3001
,
1002
1000
1000
1003
,
0100
0010
0100
0010
,
0220
0000
0000
0330
,
1002
0100
1000
0103
,
2001
0100
0001
3100
,
0001
1000
0001
1000
,
2002
0000
0000
3003
,
0220
0000
0000
0330
,
1000
0100
2000
0000
0000
0000
3000
0000
,
0001
0001
0100
0100
,
0001
0100
0002
0000
1000
0000
1003
0000
,
0100
0100
0100
0100
,
1000
0001
2000
0000
0000
0000
3000
0000
,
0010
0001
0100
0010
,
1000
2000
0000
3000
,
0002
0000
0000
0003
,
0100
0010
0200
0000
0000
0000
0300
0000
,
0010
0000
0100
0000
0001
0100
0001
0000
,
0100
0010
0100
0010
,
0200
0000
0320
0030
,
2200
0000
0000
3300
0022
0000
0000
0033
,
2000
0000
0000
3000
0002
0000
0000
0003
,
0010
0010
0100
0100
,
1000
0000
0001
1000
0001
1000
0000
0000
,
0010
0001
1000
0000
1000
0000
1000
0000
,
0001
1000
0100
0000
0100
0000
0100
0000
,
0001
0100
0001
0000
0001
0000
0001
0000
,
2200
0000
0000
3300
,
0001
0100
0001
0000
0001
0000
0001
0000
,
0020
2030
3200
0320
,
1030
2000
0000
3000
,
2002
0000
0000
3003
,
0100
0010
0100
0000
0100
0000
0100
0000
,
0001
0001
1000
1000
,
0100
0010
0100
0100
,
0220
0000
0000
0330
2002
0000
3003
0000
,
1000
1100
0100
0011
,
0002
0023
0230
2300
,
3010
0010
0100
0100
,
1000
0001
2002
3003
,
0001
0000
0100
0000
0202
0000
0000
0303
,
1000
0000
0100
0000
2200
0000
0000
3300
,
0100
0010
0100
0010
,
0220
0000
0000
0330
,
0100
0000
0010
0000
0202
0000
0000
0303
,
0010
0000
0100
0000
2200
0000
0000
3300
,
0010
0200
0000
0300
,
0220
0000
0000
0330
,
2002
0000
0000
3003
,
0220
0000
0000
0330
0100
0000
0010
0000
,
2000
0000
3002
0000
2003
0000
0000
3000
,
0002
0000
0000
0000
0000
0203
0000
0300
,
1100
0100
0011
0001
,
0010
0100
0010
0100
,
0001
0100
0010
0110
,
2002
0000
0000
0000
3003
0220
0000
0330
,
1000
0100
0100
0000
,
0100
0010
0010
0000
,
0010
0001
0001
0100
,
0100
0100
0100
0000
,
1000
0100
0100
0000
,
0100
0010
0010
0000
,
0001
0100
0100
0000
,
1001
0000
0110
0000
2002
0000
0000
3003
,
2000
0000
0000
3200
,
0320
0000
0030
0002
,
0023
0000
0030
2000
,
3200
0000
0000
0300
,
2000
0000
3002
0000
,
0023
0000
0000
0000
,
0230
0000
0000
0300
,
2002
0000
0000
0000
,
3003
0000
0000
0000
;

//---------------dance-single - ----------------
#NOTES:
     dance-single:
     :
     Easy:
     3:
     0.386,0.540,0.280,0.733,0.000:
0000
0000
0000
0000
,
0000
0000
0000
0000
,
0000
0000
0000
0000
,
0000
0000
0000
0000
,
0000
0000
0000
0000
,
1000
0100
1000
0000
,
0100
0001
0100
0000
,
0100
0010
0100
0000
,
2002
0000
3003
0000
,
0001
0001
0001
0000
,
0100
0100
0100
0000
,
0010
0010
0010
0000
,
0220
0000
0330
0000
,
1000
0100
0010
0000
,
0001
0100
0010
0000
,
0100
0010
0100
0000
,
2002
0000
0000
3003
,
0220
0000
0000
0330
,
1000
0100
0010
0000
,
0001
1000
0100
0000
,
0010
0100
0010
0001
,
2000
0000
0000
3000
,
0100
0010
1000
0000
,
0010
0100
0001
0100
,
1000
0002
0000
0003
,
2002
0000
0000
3003
,
1000
1000
0100
0000
,
0001
0001
0010
0100
,
1000
0001
1000
0001
,
2002
0000
3003
0000
0220
0000
0000
0330
,
2000
3000
0002
0003
,
1000
0001
1000
0001
,
1001
1001
1001
1001
,
0110
2002
0000
3003
,
1000
1000
0200
0300
,
0010
0001
0010
0001
,
0100
0100
0100
0100
,
0220
0000
0000
0330
,
0001
0001
0200
0300
,
1000
0010
1000
0010
,
0100
0200
0000
0300
,
2002
0000
0000
3003
,
0010
0010
0200
0300
,
1000
0001
1000
0001
,
0100
0100
0100
0100
,
0220
0330
2002
3003
,
1000
1000
0001
0001
,
0100
0010
0100
0100
,
1001
1001
1001
0110
,
2002
0000
0000
3003
,
2000
3200
0320
0030
,
0002
0023
0230
0300
,
2000
3002
2003
3000
,
2002
0000
0000
3003
,
0200
0320
0032
0023
,
0230
2300
3200
0300
,
0110
0220
0000
0330
,
2002
0000
0000
3003
,
0002
0000
0000
0003
,
2000
0000
3200
0320
,
0032
0023
0230
2300
,
3002
0000
0000
0000
2003
0000
0000
3000
,
1001
0000
0110
0000
,
1000
0001
1000
0001
,
2000
3020
0230
0302
,
2003
3000
2002
3003
,
1000
0100
0100
0000
,
0001
0010
0010
0000
,
0010
0100
0100
1000
,
1000
1000
1000
1000
,
0100
0010
0010
0000
,
0010
1000
1000
0000
,
0100
0001
0001
0000
,
0110
1001
0220
0330
,
2002
0000
3003
2000
,
3002
0000
0003
0020
,
0230
0000
0300
2000
,
3002
0000
0000
0003
,
0200
0000
0320
0000
,
2030
0000
0000
0000
,
3002
0000
0000
0003
,
2002
0000
0000
0000
,
3003
0000
0000
0000
;

//---------------dance-single - ----------------
#NOTES:
     dance-single:
     :
     Challenge:
     9:
     0.628,0.681,0.856,0.724,0.045: // measure 1
0000
0000
0000
0000
,  // measure 2
0000
0000
0000
0000
,  // measure 3
0000
0000
0000
0000
,  // measure 4
0000
0000
0000
0000
,  // measure 5
0000
0000
0000
0000
,  // measure 6
1100
1100
1100
1100
,  // measure 7
0110
0011
0101
0101
,  // measure 8
0110
1001
0110
2200
,  // measure 9
0000
0000
3322
0033
,  // measure 10
1010
1010
1010
1010
,  // measure 11
1001
0101
0110
1001
,  // measure 12
1100
0011
0101
0110
,  // measure 13
2200
0000
0000
0000
3322
0000
0000
0033
,  // measure 14
2100
0100
3100
0000
0012
0010
0013
0000
,  // measure 15
0120
0100
0130
0000
2001
0001
3001
0000
,  // measure 16
0110
1001
1100
0022
,  // measure 17
0000
0000
0000
0000
,  // measure 18
2233
0000
0000
3300
,  // measure 19
0001
1000
0100
0100
0100
0100
0100
0000
,  // measure 20
0010
0100
0000
2000
0000
0000
0000
3000
,  // measure 21
0100
0000
0010
0001
0100
1000
0100
0020
,  // measure 22
0000
0000
0000
0030
0010
0010
0010
0010
,  // measure 23
1000
0001
1000
1000
1000
1000
1000
0000
,  // measure 24
0110
1001
0101
1010
,  // measure 25
1100
0000
0022
0000
0000
0000
0000
0033
,  // measure 26
2200
0000
0000
3300
,  // measure 27
0010
0100
0010
0010
0010
0010
0010
0000
,  // measure 28
1000
0100
1000
0000
0000
0000
0010
0001
0010
0000
0000
0000
0100
0010
0100
0000
,  // measure 29
0000
1000
0000
0100
0010
0001
0000
2100
,  // measure 30
0100
0100
0100
3100
0000
0012
0010
0013
,  // measure 31
1000
0100
1000
0000
0010
0001
0010
0000
,  // measure 32
0001
0100
0001
0000
0100
0010
0100
0000
,  // measure 33
1100
0011
0101
0110
,  // measure 34
2002
0000
3003
1000
0001
1000
0001
0000
,  // measure 35
1100
0011
0102
0100
0100
0100
0103
0000
,  // measure 36
1010
1001
0202
0303
,  // measure 37
1000
0100
0010
0001
0010
0100
1000
0200
,  // measure 38
0000
0000
0000
0000
0001
0001
0301
0000
,  // measure 39
0011
1001
2100
0100
0100
0100
3100
0000
,  // measure 40
0010
0100
0000
0000
0001
0100
0000
0000
1000
0100
0000
0000
0010
0100
0000
0000
,  // measure 41
1000
0001
2000
0000
0000
0000
0000
0000
,  // measure 42
3002
0000
0000
0000
1000
1000
1003
0000
,  // measure 43
1100
0110
0102
0100
0100
0100
0103
0000
,  // measure 44
1010
0000
0101
0000
2200
0000
0000
3300
,  // measure 45
0001
0010
0100
1000
0100
0010
0001
0020
,  // measure 46
0000
0000
0000
0000
0230
0000
0000
0300
,  // measure 47
1000
0100
1000
0000
0001
0010
0001
0000
,  // measure 48
0100
0010
0100
0000
0100
0010
0001
0000
,  // measure 49
0011
1100
1010
0101
,  // measure 50
1000
0100
1000
0100
1000
0010
0001
0010
,  // measure 51
0100
1000
0010
0010
0010
0010
0010
0000
,  // measure 52
0001
0100
0010
0000
0010
1000
0100
0000
,  // measure 53
0010
0001
1000
0100
0010
0001
0100
2001
,  // measure 54
0001
0001
0001
0001
0001
0001
0001
3001
,  // measure 55
0010
0100
1000
1000
1000
1000
1000
0000
,  // measure 56
0010
0001
0000
0000
0001
0100
0000
0000
0010
1000
0000
0000
0010
0100
0000
0000
,  // measure 57
1100
0000
0000
0000
0000
0000
0000
0000
0000
0000
0000
0000
0000
0000
0000
0000
0000
0000
0000
0000
0000
0000
0000
0000
0000
0000
0000
0000
0000
0000
0000
0000
0000
0000
0000
0000
0000
0000
0000
0000
0000
0000
0000
0000
0000
0000
0000
0000
2200
0000
0000
0000
0000
0000
0000
0000
0000
0000
0000
0000
0000
0000
0000
0000
0000
0000
0000
0000
0000
0000
0000
0000
0000
0000
0000
0000
0000
0000
0000
0000
0000
0000
0000
0000
0000
0000
0000
0000
0000
0000
0000
0000
0000
0000
0000
0000
0000
0000
0000
0000
0000
0000
0000
0000
0000
0000
0000
0000
0000
0000
0000
0000
0000
0000
0000
0000
0000
0000
0000
0000
0000
0000
0000
0000
0000
0000
0000
0000
0000
0000
0000
0000
0000
0000
0000
0000
0000
0000
0000
0000
0000
0000
0000
0000
0000
3300
0000
0000
0000
0000
0000
0000
0000
0000
0000
0000
0000
0000
0000
0000
0000
0000
0000
0000
0000
0000
0000
0000
0000
0000
0000
0000
0000
0000
0000
0000
0000
0000
0000
0000
0000
0000
0000
0000
0000
0000
0000
0000
0000
0000
0000
0000
,  // measure 58
0022
0000
0000
0033
,  // measure 59
0001
0010
0100
0100
0100
0100
0100
0000
,  // measure 60
1000
0100
0010
0000
0001
0010
0100
0000
,  // measure 61
1000
0100
0010
0001
0010
0100
1000
0000
,  // measure 62
0220
0000
0000
0000
0330
2002
0000
0000
,  // measure 63
3003
2100
0100
3100
0000
0102
0100
0103
,  // measure 64
0000
2001
0001
3001
0000
1000
0001
1000
,  // measure 65
0000
0011
0000
0110
0000
1100
0000
0101
,  // measure 66
0000
0220
0000
0000
0330
2002
0000
0000
,  // measure 67
0000
3003
2100
0000
0100
0000
3100
0000
,  // measure 68
0120
0100
0100
0130
,  // measure 69
0102
0100
0100
0103
,  // measure 70
1000
1000
1000
1000
,  // measure 71
1020
1000
1000
1030
,  // measure 72
2001
0001
0001
3001
,  // measure 73
0102
0100
0100
0103
,  // measure 74
2002
0000
0000
3003
0220
0000
0000
0330
,  // measure 75
2200
0000
0000
0000
0000
3300
0022
0033
,  // measure 76
2200
0000
0000
0000
0000
3300
2002
3003
,  // measure 77
0220
0000
0000
0000
0330
0000
0202
0303
,  // measure 78
2020
0000
0000
3030
,  // measure 79
2200
0000
0000
3300
0022
0000
0000
0033
,  // measure 80
0202
0000
0000
0000
0000
0000
0000
0303
,  // measure 81
2020
0000
0000
0000
0000
0000
0000
3030
,  // measure 82
2002
0000
0000
0000
,  // measure 83
0000
0000
0000
3003
;
