#TITLE:ROSE ~KOIBITOYO, BARA IRO NI SOMA RE;
#SUBTITLE:;
#ARTIST:BROKE;
#TITLETRANSLIT:;
#SUBTITLETRANSLIT:;
#ARTISTTRANSLIT:;
#CREDIT:Timer Rabbit;
#BANNER:digirock_bn.png;
#BACKGROUND:digirock_bg.png;
#LYRICSPATH:;
#CDTITLE:timerrabbit.png;
#MUSIC:digirock.mp3;
#OFFSET:0.000;
#SAMPLESTART:48.387;
#SAMPLELENGTH:12.000;
#SELECTABLE:YES;
#BPMS:0.000=124.000;
#STOPS:;
#BGCHANGES:;

//---------------dance-single - ----------------
#NOTES:
     dance-single:
     :
     Easy:
     3:
     0.178,0.201,0.022,0.098,0.000: // measure 1
0000
0001
0000
0000
,  // measure 2
0001
0000
2000
0000
0000
3000
0200
0000
,  // measure 3
0000
0000
0000
0300
,  // measure 4
0001
0002
0000
0000
,  // measure 5
0003
0020
0000
0100
,  // measure 6
0130
1000
1000
1000
,  // measure 7
0000
0001
0001
0001
,  // measure 8
0000
0100
0100
0100
,  // measure 9
0000
0010
0010
0010
,  // measure 10
1001
0010
0010
0010
,  // measure 11
0000
0100
0100
0100
,  // measure 12
0000
0001
1000
0001
,  // measure 13
0000
1000
0000
1000
,  // measure 14
0000
0000
0001
0000
,  // measure 15
0001
0000
0001
0000
,  // measure 16
0000
0000
0000
0000
,  // measure 17
0000
0100
0000
0100
,  // measure 18
0000
0000
2002
0000
,  // measure 19
3003
0020
0000
0030
,  // measure 20
0001
0000
1000
0001
,  // measure 21
0000
1000
0000
0100
,  // measure 22
0000
0010
0000
0001
,  // measure 23
0000
0010
0000
0100
,  // measure 24
0000
1000
0000
0100
,  // measure 25
0010
0000
0001
0001
,  // measure 26
0001
0000
1000
1000
,  // measure 27
2000
0000
0000
0000
,  // measure 28
0000
3000
0010
0000
0010
0000
0010
0000
,  // measure 29
0000
1000
0000
0001
,  // measure 30
0000
0001
0000
1000
,  // measure 31
0000
0100
0000
0100
,  // measure 32
0010
0010
0010
0010
,  // measure 33
0000
0100
0000
0010
,  // measure 34
0000
0010
0000
0100
,  // measure 35
0000
0001
0001
0001
,  // measure 36
0001
0001
0000
0000
,  // measure 37
0000
0001
0000
0010
,  // measure 38
0000
1000
0000
0100
,  // measure 39
0000
0001
0000
0001
,  // measure 40
1000
1000
1000
1000
,  // measure 41
0000
0001
0000
0100
,  // measure 42
0000
1000
0000
0010
,  // measure 43
0000
0010
0010
0010
,  // measure 44
0010
0020
0000
0000
,  // measure 45
0030
0001
0000
0000
,  // measure 46
0001
1000
0000
0000
,  // measure 47
1000
0000
0000
0000
;

//---------------dance-single - Copied from----------------
#NOTES:
     dance-single:
     Copied from:
     Medium:
     6:
     0.298,0.328,0.055,0.208,0.000:
0000
0000
0001
0000
0001
0000
0001
1000
,
0001
1000
0001
0000
0001
0000
0001
0000
,
0001
0001
0001
0001
,
0001
1000
1000
1000
,
1000
1000
1000
0001
,
1000
0001
0100
0001
,
0100
1000
0010
1000
,
0010
0100
0010
0100
,
0010
0100
0100
0100
,
0110
0000
1000
0000
1000
0000
1000
0001
,
0000
0000
0001
0000
0001
0000
0001
1000
,
0000
1000
0001
1000
,
0001
0001
0001
0001
,
0000
0000
0000
0000
2000
0000
3000
1000
,
0000
0000
0001
0000
1000
0001
0000
0000
,
0100
0100
0100
0100
,
0100
0001
1000
0001
,
0010
0000
0010
0000
0020
0200
0000
0000
,
0330
0000
2002
0000
0000
3003
0000
0000
,
1000
1000
1000
1000
,
0000
0002
0103
0020
,
1030
2000
3100
0200
,
0301
0002
0013
0020
,
0130
0200
1300
2000
,
3001
0002
1003
2000
,
3010
0020
0130
0200
,
0301
2000
0000
0000
0000
0000
0000
0000
,
0000
3000
0011
0000
1001
0000
1100
0000
,
0000
1000
0001
1000
,
0000
0100
0010
0100
,
0000
0001
0001
0001
,
1000
1000
1000
1000
,
0000
0001
0010
0001
,
0000
1000
0100
1000
,
0000
0010
0010
0010
,
0100
0100
0100
0100
,
0100
0001
0100
0001
,
0000
1000
0010
1000
,
0000
1000
1000
1000
,
0001
0001
0001
0001
,
0000
0100
0010
0100
,
0000
0001
1000
0001
,
0000
0100
0100
0100
,
0100
0010
0200
0000
0000
0000
0000
0300
,
0000
0000
0001
0000
0001
0000
0001
1000
,
0001
1000
1000
0000
1000
0000
0100
0010
,
0100
0010
0000
0000
0000
0000
0000
0000
;

//---------------dance-single - Copied from----------------
#NOTES:
     dance-single:
     Copied from:
     Challenge:
     8:
     0.447,0.427,0.186,0.033,0.301:
0000
0000
0000
1000
0000
0100
0000
0001
0000
0010
0000
0000
0000
1000
0001
1000
,
0001
0101
0001
0101
,
0001
0101
0001
0101
,
1000
1100
1000
1100
,
1000
0000
0000
0000
1100
0000
0000
0000
0000
0000
1000
0100
0010
0001
1000
0100
,
0010
0001
0000
0000
0001
0000
0010
0000
0001
0000
0000
0000
1000
0100
0000
0000
,
0000
0000
0000
0000
1000
0000
0010
0000
1000
0000
0000
0000
0001
0100
0000
0000
,
0000
0000
0010
0100
0010
0100
0000
0000
,
0100
0101
0010
1010
0100
0101
0010
0000
,
1001
0000
0000
0000
0010
0000
0000
0000
1000
0000
0000
0000
0100
1000
0000
0000
,
0000
0000
0000
0000
0000
0000
1000
0000
0000
0010
0000
0000
1000
0000
0100
0000
0001
0000
0000
0000
0000
0000
0000
0000
,
0010
0000
0001
1000
0001
1000
0001
0000
,
0000
0000
0000
0000
1000
0000
0000
0000
0010
0000
0000
0000
0001
0100
0001
0100
,
0001
0000
0000
0000
0001
0000
0000
0010
0000
0000
1000
0000
0000
0000
0000
0000
,
1000
0000
0000
0000
0001
0000
0000
0000
0100
0000
0000
0000
1000
0010
1000
0010
,
1000
0000
0000
0000
1000
0000
0000
0100
0000
0000
0001
0000
0000
0000
0000
0000
,
0010
0000
0000
0000
0010
0000
0000
0000
0100
0000
0000
0000
0010
0100
0010
0100
,
0010
0000
0000
0000
0100
0000
0000
0010
0000
0000
0001
0000
0000
0000
0000
0000
,
0001
0000
0000
0000
1000
0000
0000
0000
0001
0000
0000
0000
1000
0001
1000
0001
,
1000
0000
0000
0000
0001
0000
0000
0010
0000
0000
1000
0000
0000
0000
0000
0000
,
0100
0000
1000
0010
0001
0000
0001
0010
,
1000
0000
1000
0100
0001
0000
0001
0100
,
1000
0000
0001
0010
0100
0000
0100
0010
,
0001
0000
0010
0100
1000
0000
1000
0100
,
0010
0000
0001
0100
0010
0000
0010
1000
,
0100
0000
1000
0100
0010
0000
0010
0001
,
0100
0020
0000
0000
0000
0000
0000
0030
,
0000
0000
1100
1100
0022
0033
0011
0000
,
0000
0000
1000
0000
0000
0000
0100
0000
0000
0000
0010
0001
0100
0000
0000
0000
,
0010
1000
0100
0000
0000
0000
1000
0000
0000
0000
0100
0010
1000
0000
0000
0000
,
0100
0001
0010
0000
0000
0000
0100
0000
0000
0000
0100
0000
0000
0000
0100
0000
,
1000
0001
1000
0001
1000
0001
0000
0000
,
1001
0000
0001
0000
0000
0000
0010
0000
0000
0000
0010
1000
0100
0000
0000
0000
,
0010
0001
0100
0000
0000
0000
0001
0000
0000
0000
0100
0010
0001
0000
0000
0000
,
0100
0010
1000
0000
0000
0000
0100
0000
0000
0000
0100
0000
0000
0000
0100
0000
,
0000
0100
0000
0100
0010
0100
0010
0100
,
0010
0000
0001
0000
0000
0000
1000
0000
0000
0000
1000
0010
1000
0000
0000
0000
,
0001
0100
0001
0000
0000
0000
0010
0000
0000
0000
0100
1000
0100
0000
0000
0000
,
0001
0010
0001
0000
0000
0000
0010
0000
0000
0000
0010
0000
0000
0000
0010
0000
,
0001
0100
1000
0010
0001
0100
0000
0000
,
0110
0000
0010
0000
0000
0000
0100
0000
0000
0000
0001
0100
1000
0000
0000
0000
,
1000
0100
0001
0000
0000
0000
0100
0000
0000
0000
0001
0010
0100
0000
0000
0000
,
1000
0010
0001
0000
0000
0000
0001
0000
0000
0000
0001
0000
0000
0000
0001
0000
,
0000
0001
0000
0001
0000
0001
1000
0001
,
1000
0000
0000
1000
0000
0100
0000
0001
0000
0010
0000
0000
0000
1000
0001
1000
,
0001
0000
0000
0001
0000
0010
0000
1000
0000
0100
0000
0000
0000
0100
0010
0100
,
0010
0000
0000
0000
;

//---------------dance-single - Copied from----------------
#NOTES:
     dance-single:
     Copied from:
     Hard:
     8:
     0.401,0.427,0.317,0.219,0.055:
0000
0000
0000
0000
1000
0000
0010
0000
0100
0000
0001
0000
0000
0000
0001
1000
,
0001
0001
0001
0001
,
0001
0001
0001
0001
,
1000
1000
1000
1000
,
1000
0000
0000
1000
0000
0000
0000
0010
0100
0010
1000
0001
,
1000
0000
0001
0000
0000
0000
1000
0000
0000
0100
0000
0000
0010
0000
0000
0000
0000
0000
0001
0000
0000
1000
0000
0000
,
0000
0000
0001
0010
0100
0000
1000
0001
,
0000
0010
0100
0010
0100
0010
0100
0000
,
1000
0001
1000
0001
1000
0001
1000
0000
,
1001
0000
1000
0000
0100
0000
0010
0001
,
0000
0000
0000
0000
0001
0000
0100
0000
0001
0000
0100
0000
0010
2000
0000
0000
,
3000
0000
1000
0100
0010
0001
1000
0000
,
0001
0001
0001
0001
,
0000
0000
0000
0000
2000
0000
3000
1000
,
0000
0000
1000
0000
0001
1000
0000
0000
,
0100
0100
0100
0100
,
0100
0110
1001
0110
,
0010
0000
0000
0000
0010
0000
0000
0000
0001
1000
0001
0000
0000
0000
0100
0000
,
0000
0220
0000
0000
0000
0330
0000
1000
,
0001
0000
0010
0100
0010
0200
0000
0300
,
0000
2000
3001
0002
,
1003
0200
0310
0020
,
0130
2010
3100
0102
,
0013
0021
0031
1200
,
1300
1002
0013
2001
,
3100
0210
0310
0120
,
0130
2002
0000
0000
0000
0000
0000
0000
,
3003
1000
0001
1000
0010
0100
0010
0000
,
0000
0000
1010
0000
0001
0010
0001
0000
,
0000
0000
0101
0000
1000
0100
1000
0000
,
0000
0001
0001
0001
,
0001
1000
0001
1000
0001
1000
0001
0000
,
1001
0000
0011
0000
1000
0010
1000
0000
,
0000
0000
1100
0000
0001
0100
0001
0000
,
0000
0011
0011
0011
,
1100
0000
0101
0000
0000
0000
0001
1000
,
0001
0000
0101
0000
1000
0100
1000
0000
,
0000
0000
1010
0000
0001
0010
0001
0000
,
0000
0100
0100
0100
,
0010
0100
0010
0100
0010
0100
0010
0000
,
0110
0000
1100
0000
0001
0100
0001
0000
,
0000
0000
0011
0000
1000
0010
1000
0000
,
0000
0010
0010
0010
,
0010
0020
0000
0000
,
0030
0000
0000
0000
1000
0000
0010
0000
0100
0000
0001
0000
0000
0000
0001
1000
,
0001
0000
0000
0000
0001
0000
0100
0000
0010
0000
1000
0000
0000
0000
0010
0100
,
0010
0000
0000
0000
;
