#TITLE:I Could Outrun You~Hurry Up!;
#SUBTITLE:;
#ARTIST:Ichiro Yoshida;
#TITLETRANSLIT:;
#SUBTITLETRANSLIT:;
#ARTISTTRANSLIT:;
#CREDIT:Timer Rabbit;
#BANNER:digipop_bn.PNG;
#BACKGROUND:digipop_bg.PNG;
#LYRICSPATH:;
#CDTITLE:timerrabbit.png;
#MUSIC:I Could Outrun You~Hurry Up - Ichiro Yoshida.mp3;
#OFFSET:0.000;
#SAMPLESTART:45.455;
#SAMPLELENGTH:12.000;
#SELECTABLE:YES;
#BPMS:0.000=132.000;
#STOPS:;
#BGCHANGES:;

//---------------dance-single - ----------------
#NOTES:
     dance-single:
     :
     Hard:
     8:
     0.458,0.443,0.219,0.333,0.052: // measure 1
0000
0000
0000
0000
0000
1000
0000
1000
,  // measure 2
0000
1000
0000
1000
0000
0001
0100
0001
,  // measure 3
0100
0001
0100
0001
0000
0001
0000
0001
,  // measure 4
0000
0001
0000
0001
0000
1000
0010
1000
,  // measure 5
0010
1000
0010
2000
3000
1000
0010
0001
,  // measure 6
0100
0001
0010
1000
0010
0001
0100
0001
,  // measure 7
0010
1000
0000
1000
0000
0100
0010
0001
,  // measure 8
0100
0010
1000
0100
0010
0001
0100
0010
,  // measure 9
1000
0100
0000
0000
0001
2020
3030
1000
,  // measure 10
0000
0100
0000
0010
1000
0202
0303
0000
,  // measure 11
0000
0010
0000
0001
0001
2200
3300
0010
,  // measure 12
0000
0100
0000
1000
1000
0022
0033
1000
,  // measure 13
0000
0001
0000
1000
0001
0001
0000
1000
,  // measure 14
0100
0010
0000
0001
0010
0100
2000
3000
,  // measure 15
1000
0000
0000
1000
1000
1000
0000
0001
,  // measure 16
0100
0000
1000
0100
0010
0001
0000
0000
,  // measure 17
0001
0000
1000
0001
1000
0000
0001
0000
0000
0000
1000
0000
0000
0000
0000
0000
,  // measure 18
0010
0010
0100
0010
0001
0100
0000
0010
,  // measure 19
1000
0000
0001
0100
0010
0000
0000
0000
,  // measure 20
1000
0100
0010
0000
0001
0000
0100
0000
0010
0000
0001
0000
0000
1000
0000
0000
,  // measure 21
0001
1000
0000
0000
0000
2002
0000
3003
,  // measure 22
0001
1000
0100
0010
0001
1000
0000
1000
,  // measure 23
0000
0001
0000
1000
0000
0220
0000
0330
,  // measure 24
0000
0001
1000
0100
0010
0001
0000
0000
,  // measure 25
1000
0000
0001
0100
1000
0000
0001
0000
1000
0000
0001
0000
0000
0000
0000
0000
,  // measure 26
0100
0010
1000
0100
0010
0001
0100
0000
,  // measure 27
1000
1000
0000
0100
0010
0110
0000
0000
,  // measure 28
0011
1100
0000
1000
0001
2002
0000
0000
,  // measure 29
3003
0000
0000
0000
0000
0100
0000
0100
,  // measure 30
0000
0100
0000
0100
0000
1000
0100
0001
,  // measure 31
0100
1000
0001
0010
0000
0010
0000
0010
,  // measure 32
0000
0010
0000
0010
0000
0001
0010
1000
,  // measure 33
0010
0000
0001
0000
1000
0020
0000
0000
0000
0000
0030
0000
0000
0000
1100
0000
,  // measure 34
0000
1000
0000
1100
0000
0001
0000
0011
,  // measure 35
0000
0001
0000
0011
0000
1000
0000
1001
,  // measure 36
0000
0001
0000
1001
0000
0100
0010
0100
,  // measure 37
0010
0100
0020
0000
0030
0000
0000
0022
,  // measure 38
0000
0033
1010
0202
0000
0303
0000
1000
,  // measure 39
0000
0100
0000
0000
0001
0000
0000
0000
0010
0000
1000
0000
0010
0000
0002
0000
,  // measure 40
1000
1000
1003
0100
0010
0000
0000
0001
,  // measure 41
0001
0000
1000
1000
0000
0000
0000
2020
,  // measure 42
0000
3030
0101
0022
0000
0033
0000
0001
,  // measure 43
0000
0010
0000
0000
1000
0000
0000
0000
0001
0000
0100
0000
0001
0000
2000
0000
,  // measure 44
0000
0000
0000
0000
3000
0000
0000
0000
0000
0000
0001
0000
1000
0000
0000
0010
,  // measure 45
0000
0000
0001
0000
0100
0000
1000
0000
0000
0100
0000
0010
0000
0002
0000
0000
,  // measure 46
1000
0100
0010
0100
1000
0100
0013
0001
,  // measure 47
0010
0100
0010
0001
0010
0100
0010
0001
,  // measure 48
0010
1000
0100
0010
0100
1000
0100
0010
,  // measure 49
0100
1000
0100
0010
0001
0100
2000
3002
,  // measure 50
0000
1000
0000
0000
0000
0000
1000
1000
,  // measure 51
0000
1000
0000
0000
0003
0200
0320
0100
,  // measure 52
0000
0100
0000
0000
0000
0100
0030
0000
,  // measure 53
0100
0010
0100
0010
0100
0010
2002
0000
,  // measure 54
0000
0000
0000
0000
,  // measure 55
0000
0000
0000
3003
;

//---------------dance-single - ----------------
#NOTES:
     dance-single:
     :
     Medium:
     7:
     0.351,0.391,0.143,0.247,0.000:
0000
0000
0000
0000
0000
1000
0000
1000
,
0000
1000
0000
1000
0000
0001
0100
0001
,
0100
0001
0100
0001
0000
0001
0000
0001
,
0000
0001
0000
0001
0000
1000
0010
1000
,
0010
2000
0000
3000
0000
1000
0000
1000
,
0000
1000
0000
1000
0000
0001
0000
0001
,
0000
0001
0000
0001
0000
0010
0000
0010
,
0000
0010
0000
0010
0000
0100
0000
0100
,
0000
0100
0000
0100
0001
0101
0000
1000
,
0000
0001
0000
1000
1000
1010
0000
0001
,
0000
0100
0000
1000
0010
0110
0000
0001
,
0000
0100
0000
0010
0100
1001
0000
0100
,
0000
0100
0000
0000
1000
0001
0000
0000
,
0100
0010
0000
0000
0001
1000
0001
1000
,
0002
0003
0000
1000
0010
1000
0000
0001
,
0100
0000
0000
0010
0001
0010
0000
0000
,
0001
0100
0010
1000
0200
0300
0000
0000
,
1000
0100
0001
0010
1000
0001
2000
0000
,
3002
0003
0000
0100
0010
0100
0000
0000
,
0001
1000
0001
0000
0010
0000
0100
0000
,
1000
0001
0000
0000
0000
2200
0000
3300
,
0000
0010
0000
0001
0000
0010
0000
0002
,
0000
0203
0000
0302
0003
0202
0000
0303
,
0000
1000
0000
0010
0000
2000
0000
3000
,
0000
0001
1000
0001
0000
1000
0000
0000
,
0100
0010
0100
0010
0100
0010
0010
0000
,
0001
1000
0000
1000
0100
0010
0000
0000
,
0001
0100
0000
0010
1000
0020
0000
0000
,
0000
0130
0000
0100
0000
0100
0000
0100
,
0000
0100
0000
0100
0000
0001
0100
1000
,
0100
0001
0100
1000
0000
0010
0000
0010
,
0000
0010
0000
0010
0000
1000
0010
0001
,
0010
2000
0000
3000
0000
1010
0000
0000
,
0000
1010
0000
0000
0000
0011
0000
0000
,
0000
0011
0000
0000
0000
1100
0000
0000
,
0000
1100
0000
0000
0000
0011
0000
0000
,
0000
0022
0000
0000
0033
0000
0000
1000
,
0000
0000
0001
0100
0000
0000
0000
1000
,
0010
1000
0010
0001
0000
0001
0100
0002
,
0000
0000
0000
0003
,
0000
0000
0000
0000
0000
0000
0000
0001
,
0000
1000
0010
0000
0000
0000
0000
0001
,
0100
0001
0100
0001
0000
0010
1000
0020
,
0000
0000
0000
0000
0030
1000
0001
1000
,
0001
0000
0100
0010
0100
0001
0010
2000
,
0000
0001
0000
0000
0000
0001
0000
0000
,
3000
0001
0000
0000
0000
0001
0001
0001
,
0000
0000
0000
1000
0000
0000
0000
1000
,
0000
0000
0000
1000
0000
0002
0003
0002
,
0000
0010
0000
1000
0000
0010
0000
1000
,
0000
0010
0000
1003
0000
2000
3000
2000
,
0000
0010
0000
0001
0000
0010
0000
3001
,
0000
0001
1000
0001
1000
2002
0000
0000
,
0000
0000
0000
0000
,
0000
0000
0000
3003
;

//---------------dance-single - ----------------
#NOTES:
     dance-single:
     :
     Easy:
     4:
     0.217,0.208,0.029,0.143,0.000:
0000
0000
0000
0000
0000
1000
0000
1000
,
0000
1000
0000
1000
0000
0001
0000
0010
,
0000
0001
0000
0010
0000
0001
0000
0001
,
0000
0001
0000
0001
0000
1000
0000
0100
,
0000
1000
0000
0100
0000
0001
0000
1000
,
0000
0001
0000
1000
0000
0100
0000
0010
,
0000
0100
0000
0010
0000
0001
0000
1000
,
0000
0001
0000
1000
0000
0100
0000
0010
,
0000
0100
0000
0010
0000
0200
0000
0000
,
0300
0000
0000
0000
0000
0020
0000
0000
,
0030
0000
0000
0000
0000
2000
0000
0000
,
3000
0000
0000
0000
0000
0002
0000
0000
,
0003
0000
0000
0000
0000
0010
0000
0000
,
0000
0100
0000
0000
0000
1000
0000
0001
,
0000
1000
0000
0000
0000
0100
0000
0000
,
0000
0010
0000
0001
0000
1000
0000
0000
,
0000
0010
0000
0010
0000
0010
0000
0000
,
0000
0100
0000
0100
0000
0100
0000
0001
,
0000
1000
0000
0000
0000
0100
0000
0000
,
0000
0010
0000
0000
0000
0001
0000
0000
,
0000
1000
0000
0000
0000
0202
0000
0303
,
0000
1000
0000
0010
0000
1000
0000
0000
,
0000
0000
0000
0000
0000
2200
0000
3300
,
0000
0010
0000
0001
0000
0010
0000
0000
,
0000
0100
0000
0010
0000
0100
0000
0000
,
0000
0001
0000
0001
0000
0001
0000
1000
,
0000
1000
0000
1000
0000
0100
0000
0000
,
0000
0010
0000
0001
0000
0100
0000
1000
,
0000
0000
0000
0000
0000
0100
0000
0100
,
0000
0100
0000
0100
0000
0001
0000
0100
,
0000
1000
0000
0100
0000
0010
0000
0010
,
0000
0010
0000
0010
0000
1000
0000
0010
,
0000
0001
0000
0010
0000
1000
0000
0100
,
0000
0001
0000
0010
0000
0001
0000
0100
,
0000
1000
0000
0010
0000
0001
0000
0000
,
0000
1000
0000
0000
0000
1000
0000
0100
,
0000
0010
0000
0001
0000
0000
0000
0001
,
0000
1000
0000
0100
0000
0000
0000
1000
,
0000
0010
0000
0001
0000
1000
0000
0002
,
0000
0000
0000
0003
,
0000
0000
0000
0000
0000
0000
0000
1000
,
0000
0100
0000
0001
0000
0010
0000
1000
,
0000
0001
0000
0010
0000
0100
0000
0200
,
0000
0000
0000
0000
0000
1300
0000
0001
,
0000
1000
0000
0001
0000
1000
0000
0002
,
0000
0000
0000
0000
0000
0000
0000
0003
,
0000
0100
0000
0000
0000
0100
0000
0000
,
0000
0100
0000
0000
0000
0100
0000
0000
,
0000
0100
0000
0000
0000
0001
0000
0002
,
0000
0000
0000
0000
,
0000
0000
0000
0003
0000
1000
0000
2000
,
0000
0000
0000
0000
0000
0000
0000
3000
,
0000
0000
0000
0000
0000
2002
0000
0000
,
0000
0000
0000
0000
,
0000
0000
0000
0000
0000
3003
0000
0000
;
