#TITLE:Fairy Reflection;
#SUBTITLE:(Complete Mix);
#ARTIST:RyuSTAR;
#TITLETRANSLIT:;
#SUBTITLETRANSLIT:;
#ARTISTTRANSLIT:;
#CREDIT:Timer Rabbit;
#BANNER:fairyreflection_bn.PNG;
#BACKGROUND:fairyreflection_bg.PNG;
#LYRICSPATH:;
#CDTITLE:timerrabbit.png;
#MUSIC:fairyreflectionfull.mp3;
#OFFSET:0.000;
#SAMPLESTART:37.975;
#SAMPLELENGTH:12.000;
#SELECTABLE:YES;
#BPMS:0.000=158.000;
#STOPS:;
#BGCHANGES:;

//---------------dance-single - ----------------
#NOTES:
     dance-single:
     :
     Challenge:
     9:
     0.743,0.777,0.862,0.427,0.442: // measure 1
0000
0000
0000
0000
,  // measure 2
0000
0000
0000
0000
,  // measure 3
0000
0000
0000
0000
,  // measure 4
0000
0000
0000
0000
,  // measure 5
1000
0100
1000
0100
1000
0100
1000
0100
,  // measure 6
1000
1100
0010
0001
0010
0001
0010
0001
,  // measure 7
0010
0011
0100
0010
0100
0010
0100
0010
,  // measure 8
0100
0110
0000
1001
0000
0110
0000
1001
,  // measure 9
0000
1000
0100
0010
0001
0010
0100
1000
,  // measure 10
0000
0001
0010
0100
1000
0100
0010
0001
,  // measure 11
0000
0010
0100
0001
1000
0100
0010
0001
,  // measure 12
0000
0100
0010
1000
0001
0010
0100
1000
,  // measure 13
0001
1001
0100
0010
0100
0010
0100
0010
,  // measure 14
1000
1001
1000
0100
0010
0001
0010
0100
,  // measure 15
1000
2002
0000
0000
3003
0100
0010
0100
,  // measure 16
0010
0110
0110
0000
0000
0000
0000
0000
,  // measure 17
2000
0000
0000
0000
0000
0000
0000
0000
0000
3000
0000
0000
0001
0000
0010
0000
0100
0000
1000
0000
0100
0000
0010
0000
,  // measure 18
0001
0000
0000
0000
0000
0000
0001
0010
0100
1000
0001
0010
,  // measure 19
0100
1000
0000
0000
0000
0000
1000
0100
0010
0001
0010
0100
,  // measure 20
1000
0100
0010
0001
0100
0010
1000
0100
0010
0001
0100
0002
,  // measure 21
0000
0000
0000
0000
0000
0000
0000
0000
0000
0003
0000
0000
1000
0000
0100
0000
0010
0000
0001
0000
0010
0000
0100
0000
,  // measure 22
1000
0000
0000
0000
0000
0000
1000
0100
0010
0001
1000
0100
,  // measure 23
0010
0001
0000
0000
0000
0000
1000
0010
0001
0100
0010
0100
,  // measure 24
0001
0010
0100
1000
0100
0010
0001
0100
0010
1000
0100
0000
,  // measure 25
0002
0000
0000
0000
0000
0000
0000
0000
0000
0003
0000
0000
0010
0000
0001
0000
1000
0000
0100
0000
0010
0000
0001
0000
,  // measure 26
1000
0100
0000
0000
0000
0000
0010
0001
0100
1000
0010
0001
,  // measure 27
0100
1000
0000
0000
0000
0000
1000
0100
0010
0001
0010
0100
,  // measure 28
1000
0010
0001
0100
1000
0010
1000
0100
0010
0001
0100
0220
,  // measure 29
0000
0000
0000
0000
0000
0000
0000
0000
0000
0330
0000
0000
0100
0000
1000
0000
0010
0000
0001
0000
0100
0000
1000
0000
,  // measure 30
2002
0000
0000
0000
3003
0000
1000
0100
0010
0001
0010
0100
,  // measure 31
2002
0000
0000
3003
0220
0000
0000
0330
,  // measure 32
1001
0110
1001
0110
,  // measure 33
2002
0000
0000
3003
0010
0100
0010
0100
,  // measure 34
0010
0110
0110
0110
0110
1001
1001
1001
,  // measure 35
0000
1000
0100
1000
0100
1000
0100
0001
,  // measure 36
0100
0001
0100
0001
0100
0010
1000
0010
,  // measure 37
0101
0100
0100
0100
1100
0100
0100
0100
,  // measure 38
0110
0100
0010
0100
0010
0100
0010
0100
,  // measure 39
1001
0001
1000
0001
1000
0001
1000
0100
,  // measure 40
0010
0100
0010
0100
0010
0100
0001
1000
,  // measure 41
0101
0100
0100
0100
0100
0100
1010
0010
,  // measure 42
0010
0010
0011
0100
0100
0100
2200
0000
,  // measure 43
3300
0000
0001
0010
0001
0010
0001
0100
,  // measure 44
1000
0100
1000
0100
2000
0000
0000
3000
,  // measure 45
0010
0100
0010
0100
0010
0100
0001
0100
,  // measure 46
0001
0100
0002
0000
0000
0003
0000
0000
,  // measure 47
1010
1000
0010
1000
0010
1000
0010
1000
,  // measure 48
0101
0001
0100
0001
0100
0001
0100
0001
,  // measure 49
2002
0000
0000
3003
0220
0000
0000
0330
,  // measure 50
1001
1001
1001
0110
0110
0000
0000
0000
,  // measure 51
1100
0100
0100
0100
0110
0010
0010
0010
,  // measure 52
0011
0001
0001
0001
0101
0100
0100
0100
,  // measure 53
0110
0010
0010
0010
0010
2020
0000
3030
,  // measure 54
0202
0000
0000
0303
0000
0000
0011
0000
,  // measure 55
1100
1010
0101
1001
,  // measure 56
1100
1010
0101
0011
,  // measure 57
2002
3003
0220
0330
,  // measure 58
1000
0001
1000
0001
1000
0001
1000
0001
,  // measure 59
0101
0100
0100
0100
1010
0010
0010
0010
,  // measure 60
1100
1000
1000
1000
0011
0001
0001
0001
,  // measure 61
1001
1000
0001
1000
0001
1000
0220
0330
,  // measure 62
2002
0000
0000
3003
0000
0000
0000
0000
,  // measure 63
0110
1001
0101
1100
,  // measure 64
1010
0011
0110
1001
,  // measure 65
0220
0000
0000
0330
2002
0000
0000
3003
,  // measure 66
0220
0000
0000
0330
0110
0110
0110
0000
,  // measure 67
0000
0000
0000
0000
0010
1000
0001
0100
,  // measure 68
0010
0001
1000
0100
0010
0001
0010
0100
,  // measure 69
1000
0000
0000
0000
0001
0010
1000
0100
,  // measure 70
0010
0001
0100
0010
1000
0100
0001
0100
,  // measure 71
0101
0000
0000
0000
0100
0010
0100
0010
,  // measure 72
0001
1000
0001
0100
0010
0001
0100
1000
,  // measure 73
0110
0000
1001
0000
0000
2002
0000
3003
,  // measure 74
1001
0000
0000
0000
0000
1100
0011
0000
,  // measure 75
0101
0000
1001
0000
0000
0000
0000
1000
,  // measure 76
0001
0000
1000
0000
0110
0000
0000
1001
0000
0000
0220
0000
0000
0000
0330
0000
,  // measure 77
0002
0000
0000
0000
0000
0000
0000
0000
0000
0003
0000
0000
1000
0000
0100
0000
0010
0000
0001
0000
0010
0000
0100
0000
,  // measure 78
1000
0000
0000
0000
0000
0000
0001
0010
0100
1000
0001
0010
,  // measure 79
0100
1000
0000
0000
0000
0000
1000
0100
0010
0001
0010
1000
,  // measure 80
0100
0010
0001
0100
0010
1000
0100
1000
0100
0010
0001
2000
,  // measure 81
0000
0000
0000
0000
0000
0000
0000
0000
0000
3000
0000
0000
0001
0000
0010
0000
0100
0000
1000
0000
0100
0000
0010
0000
,  // measure 82
0001
0000
0000
0000
0000
0000
1000
0100
0010
0001
1000
0100
,  // measure 83
0010
0001
0000
0000
0000
0000
0001
0010
0100
1000
0100
0010
,  // measure 84
0001
0010
1000
0100
0010
0001
0100
0010
1000
0100
0010
0000
,  // measure 85
0002
0000
0000
0000
0000
0000
0000
0000
0000
0003
0000
0000
0010
0000
0100
0000
1000
0000
0100
0000
0010
0000
0001
0000
,  // measure 86
0100
0000
0000
0000
0000
0000
0010
0100
1000
0010
0100
1000
,  // measure 87
0010
0000
0000
0000
0000
0000
0100
0010
0001
0100
0010
1000
,  // measure 88
0100
0010
0001
0100
1000
0010
0100
0010
0100
0001
0100
0220
,  // measure 89
0000
0000
0000
0000
0000
0000
0000
0000
0000
0330
0000
0000
1000
0000
0001
0000
1000
0000
0001
0000
1000
0000
0001
0000
,  // measure 90
2002
0000
0000
0000
3003
0000
0100
0010
0100
0010
0100
0010
,  // measure 91
0220
0000
0000
0330
2200
0000
0000
3300
,  // measure 92
1001
0110
1001
0110
,  // measure 93
2002
0000
0000
3003
1000
0001
1000
0001
,  // measure 94
1000
1001
1001
1001
1001
0110
0110
0110
,  // measure 95
1000
0100
1000
0000
0011
0000
1100
0000
,  // measure 96
1001
0000
0000
0000
0001
0100
0101
0000
,  // measure 97
1000
0010
1010
0000
0010
1000
1100
0000
,  // measure 98
0100
0010
0011
0000
0010
0100
0110
0000
,  // measure 99
0001
0100
0001
0000
0101
0000
1010
0000
,  // measure 100
1001
0000
0220
0000
0000
0330
1000
0100
,  // measure 101
1100
1000
1000
1000
1000
1000
0011
0001
,  // measure 102
0001
0001
1100
0100
0100
0100
0220
0000
,  // measure 103
0330
0000
1000
0100
1000
0100
1000
0100
,  // measure 104
0010
0001
0010
0002
0000
0000
0003
0000
,  // measure 105
0001
0100
0001
0100
0001
0100
0010
1000
,  // measure 106
0010
1000
0010
2000
0000
0000
3000
0000
,  // measure 107
1001
0001
1000
0001
1000
0001
1000
0001
,  // measure 108
0110
0100
0010
0100
0010
0100
0010
0100
,  // measure 109
0202
0000
0000
0303
1010
0000
1100
0000
,  // measure 110
0011
0011
0011
0011
0000
0000
0000
0000
,  // measure 111
1100
1100
1100
1100
0000
0000
0000
0000
,  // measure 112
0011
0001
0001
0001
1100
1000
1000
1000
,  // measure 113
0110
0100
0100
0100
1010
0010
0010
0010
,  // measure 114
0101
0001
0001
0001
0001
0202
0000
0303
,  // measure 115
2020
0000
3030
1100
,  // measure 116
0011
0101
1010
0110
,  // measure 117
1001
1100
0011
0110
,  // measure 118
0220
0330
2002
3003
,  // measure 119
0100
0010
0100
0010
0100
0010
0100
0010
,  // measure 120
0110
0010
0010
0010
1100
0100
0100
0100
,  // measure 121
0101
0001
0001
0001
1010
1000
1000
1000
,  // measure 122
0110
0010
0100
0010
0100
0010
2002
3003
,  // measure 123
0220
0000
0330
0000
,  // measure 124
1001
0110
0101
1010
,  // measure 125
1100
0011
1001
0110
,  // measure 126
2002
0000
0000
3003
0220
0000
0000
0330
,  // measure 127
2002
0000
0000
3003
1001
1001
1001
0000
,  // measure 128
0000
0000
0000
0000
0100
0001
0010
1000
,  // measure 129
0100
0010
0001
0100
1000
0010
0100
0001
,  // measure 130
1000
0000
0000
0000
1000
0010
0001
0100
,  // measure 131
0010
1000
0100
0010
0001
0100
0010
1000
,  // measure 132
1100
0000
0000
0000
0001
1000
0001
0100
,  // measure 133
0010
1000
0100
0001
0010
0100
1000
0010
,  // measure 134
1001
0000
0110
0000
0000
0220
0000
0330
,  // measure 135
0110
0000
0000
0000
0000
1100
0011
0000
,  // measure 136
0101
0000
1001
0000
0000
0000
0000
0100
,  // measure 137
0010
0000
0100
0000
1001
0000
0000
0110
0000
0000
2002
0000
0000
0000
3003
0000
,  // measure 138
2000
0000
0000
0000
0000
0000
0000
0000
0000
3000
0000
0000
0001
0000
0010
0000
0100
0000
1000
0000
0100
0000
0010
0000
,  // measure 139
0001
0000
0000
0000
0000
0000
0001
0010
0100
1000
0001
0010
,  // measure 140
0100
1000
0000
0000
0000
0000
1000
0100
0010
0001
0010
0100
,  // measure 141
1000
0100
0010
0001
0100
0010
1000
0100
0010
0001
0100
0002
,  // measure 142
0000
0000
0000
0000
0000
0000
0000
0000
0000
0003
0000
0000
1000
0000
0100
0000
0010
0000
0001
0000
0010
0000
0100
0000
,  // measure 143
1000
0000
0000
0000
0000
0000
1000
0100
0010
0001
1000
0100
,  // measure 144
0010
0001
0000
0000
0000
0000
1000
0010
0001
0100
0010
0100
,  // measure 145
0001
0010
0100
1000
0100
0010
0001
0100
0010
1000
0100
0000
,  // measure 146
0002
0000
0000
0000
0000
0000
0000
0000
0000
0003
0000
0000
0010
0000
1000
0000
0001
0000
0100
0000
0010
0000
1000
0000
,  // measure 147
0001
0100
0000
0000
0000
0000
0001
0010
0100
1000
0100
0010
,  // measure 148
0001
0010
0000
0000
0000
0000
0001
0010
0100
1000
0100
0010
,  // measure 149
0001
0100
1000
0010
0001
0100
1000
0100
0010
0001
1000
2002
,  // measure 150
0000
0000
0000
0000
0000
0000
0000
0000
0000
3003
0000
0000
0010
0000
0001
0000
0100
0000
0010
0000
1000
0000
0100
0000
,  // measure 151
0220
0000
0000
0000
0330
0000
0001
0010
0100
1000
0100
0010
,  // measure 152
0220
0000
0000
0330
2002
0000
0000
3003
,  // measure 153
0110
1001
0110
1001
,  // measure 154
0220
0000
0000
0330
0000
0001
1000
0001
,  // measure 155
1000
1001
1001
1001
1001
0110
0110
0110
,  // measure 156
2002
0000
0000
0000
,  // measure 157
0000
3003
0000
0000
;
