#TITLE:Dam Dadi Doo;
#SUBTITLE:;
#ARTIST:Nightcore;
#TITLETRANSLIT:;
#SUBTITLETRANSLIT:;
#ARTISTTRANSLIT:;
#CREDIT:Timer Rabbit;
#BANNER:dadoo_bn.PNG;
#BACKGROUND:dadoo_bg.png;
#LYRICSPATH:;
#CDTITLE:timerrabbit.png;
#MUSIC:dadoo.mp3;
#OFFSET:0.000;
#SAMPLESTART:34.746;
#SAMPLELENGTH:12.000;
#SELECTABLE:YES;
#BPMS:0.000=172.680;
#STOPS:;
#BGCHANGES:;

//---------------dance-single - ----------------
#NOTES:
     dance-single:
     :
     Challenge:
     9:
     0.625,0.640,1.000,0.170,0.049: // measure 1
0000
0000
0000
0000
,  // measure 2
0000
0000
0000
0000
,  // measure 3
0000
0000
0000
0000
,  // measure 4
0000
0000
0000
0000
,  // measure 5
1000
1100
1100
1100
,  // measure 6
0001
0000
0101
0000
0101
0001
0100
0001
,  // measure 7
0000
1001
0000
1010
0000
0101
0000
0000
,  // measure 8
0011
0000
1100
0000
1000
0100
0010
0001
,  // measure 9
1100
0000
0100
0000
0100
0000
0010
0001
,  // measure 10
0101
0000
0100
0000
0100
0000
0010
1000
,  // measure 11
1100
0000
0100
0000
0100
0000
0010
0001
,  // measure 12
0010
0000
1000
0000
1000
0100
0000
0100
,  // measure 13
0110
0000
0100
0000
0100
0000
0010
0100
,  // measure 14
1001
0000
0100
0000
0100
0000
1000
0100
,  // measure 15
0110
0000
0100
0000
0100
0000
0010
1000
,  // measure 16
0100
0000
0001
0000
0001
0100
0000
0100
,  // measure 17
1000
0100
0010
0000
0101
0000
0101
0000
,  // measure 18
0001
0010
0100
0000
1100
0000
1100
0000
,  // measure 19
0001
1000
0100
0010
0110
0000
0000
0000
,  // measure 20
0001
1000
0010
0100
0220
0000
0000
0330
,  // measure 21
0010
0100
1000
0000
1100
0000
1100
0000
,  // measure 22
0100
0010
0001
0000
0011
0000
0011
0000
,  // measure 23
1000
0100
0010
0001
1001
0000
0000
0000
,  // measure 24
0110
1001
0000
0000
1001
0110
0000
0000
,  // measure 25
1010
1001
0101
0011
,  // measure 26
1100
0110
1001
0101
,  // measure 27
1010
1100
0101
0002
,  // measure 28
2003
3002
0203
0300
,  // measure 29
0011
1100
1001
0101
,  // measure 30
0110
1010
1100
0011
,  // measure 31
0101
0110
1001
2000
,  // measure 32
3002
2003
3200
0320
,  // measure 33
0130
0000
0000
0000
0010
0000
0000
1010
0000
0101
0000
0000
0000
0000
0000
0000
,  // measure 34
0001
0000
0000
0000
1000
0000
0000
0011
0000
1001
0000
0000
0000
0000
0000
0000
,  // measure 35
0110
0000
0000
0000
0000
0101
0000
1010
0000
0000
0000
0000
0000
0000
0000
0000
,  // measure 36
1000
0000
0000
0000
0001
0000
0000
1001
0000
0110
0000
0000
0000
0000
0000
0000
,  // measure 37
1100
0000
0010
0001
0010
0011
0000
0000
,  // measure 38
0001
0000
0001
0000
0100
0010
0100
0000
,  // measure 39
0110
0000
0100
1000
0100
1100
0000
0000
,  // measure 40
0001
0000
0001
0000
0001
0100
0001
0000
,  // measure 41
1010
0000
0100
0001
0100
0101
0000
0000
,  // measure 42
0100
0000
0100
0000
0010
0100
0010
0000
,  // measure 43
1001
0000
0100
0010
0001
0101
0000
0000
,  // measure 44
1000
0000
1000
0000
0100
0010
0100
0000
,  // measure 45
0101
0000
0100
0000
0100
0000
0010
1000
,  // measure 46
1100
0000
0100
0000
0100
0000
0100
0010
,  // measure 47
1010
0000
0001
0000
0001
0000
0010
1000
,  // measure 48
0100
0000
0010
0000
0010
0100
0000
0100
,  // measure 49
0101
0000
0001
0000
0001
0000
0010
0100
,  // measure 50
0110
0000
1000
0000
1000
0000
0001
1000
,  // measure 51
1001
0000
0100
0000
0100
0000
0010
0001
,  // measure 52
0100
0000
1000
0000
1000
0001
0000
0001
,  // measure 53
1000
0100
0010
0001
0010
0100
1000
0100
,  // measure 54
0010
0001
1000
0001
1000
0001
1000
0001
,  // measure 55
0100
0010
0100
0010
0100
0010
0100
0010
,  // measure 56
0001
1000
0001
1000
0001
1000
0000
0000
,  // measure 57
0001
0010
0100
0000
1100
0000
1100
0000
,  // measure 58
0100
0010
0001
0000
0011
0000
0011
0000
,  // measure 59
0001
0010
0100
1000
1001
0000
0000
0000
,  // measure 60
0010
0001
1000
0001
2002
0000
0000
3003
,  // measure 61
1000
0001
0100
0000
0110
0000
0110
0000
,  // measure 62
0001
1000
0100
0000
1100
0000
1100
0000
,  // measure 63
0001
0010
0100
1000
1100
0000
0000
0000
,  // measure 64
0110
1001
0000
0000
1001
0110
0000
0000
,  // measure 65
1001
0110
0011
1100
,  // measure 66
0101
0110
1010
1001
,  // measure 67
0101
1100
0110
0020
,  // measure 68
0230
2300
3002
0003
,  // measure 69
0110
1100
1001
0011
,  // measure 70
0110
1010
0101
0110
,  // measure 71
1100
1001
0101
0002
,  // measure 72
2003
3200
0320
0030
,  // measure 73
0010
0000
0000
0000
0100
0000
0000
1100
0000
0011
0000
0000
0000
0000
0000
0000
,  // measure 74
0010
0000
0000
0000
0100
0000
0000
0110
0000
0101
0000
0000
0000
0000
0000
0000
,  // measure 75
1001
0000
0000
0000
0000
1100
0000
0011
0000
0000
0000
0000
0000
0000
0000
0000
,  // measure 76
0001
0000
0000
0000
1000
0000
0000
1001
0000
0110
0000
0000
0000
0000
0000
0000
,  // measure 77
0101
0000
0010
1000
0100
1100
0000
0000
,  // measure 78
0100
0000
0100
0000
0100
0010
0100
0000
,  // measure 79
0110
0000
0001
0100
0001
0101
0000
0000
,  // measure 80
0100
0000
0100
0000
0010
0100
0010
0000
,  // measure 81
1010
0000
0100
0001
0100
0101
0000
0000
,  // measure 82
1000
0000
1000
0000
0001
0010
0001
0000
,  // measure 83
1001
0000
0010
0100
1000
1100
0000
0000
,  // measure 84
0100
0000
0100
0000
0010
0001
0010
0000
,  // measure 85
0110
0000
0010
0100
1000
1100
0000
0000
,  // measure 86
0010
0000
0010
0000
0010
0001
0010
0000
,  // measure 87
1100
0000
0010
0100
0001
0101
0000
0000
,  // measure 88
0100
0000
0100
0000
0100
0010
0100
0000
,  // measure 89
1100
0000
0100
0010
0001
0011
0000
0000
,  // measure 90
1000
0000
1000
0000
0010
0100
0010
0000
,  // measure 91
1001
0000
0100
0010
1000
1100
0000
0000
,  // measure 92
0001
0000
0001
0000
1000
0001
1000
0000
,  // measure 93
0110
0000
0100
0000
0100
0000
0010
0001
,  // measure 94
0101
0000
0010
0000
0010
0000
0010
1000
,  // measure 95
1100
0000
0100
0000
0100
0000
0010
0001
,  // measure 96
0100
0000
0010
0000
0010
0100
0000
0100
,  // measure 97
1100
0000
1000
0000
1000
0000
0001
0010
,  // measure 98
0011
0000
0010
0000
0010
0000
1000
0100
,  // measure 99
1001
0000
0100
0000
0100
0000
0010
0100
,  // measure 100
0010
0000
0001
0000
0001
1000
0000
1000
,  // measure 101
0101
0110
1010
1001
,  // measure 102
1100
0110
0202
0000
,  // measure 103
0303
0100
0100
0100
,  // measure 104
0100
0100
0100
0100
,  // measure 105
0101
1010
1100
1001
,  // measure 106
0101
0020
2030
3200
,  // measure 107
0000
0300
0001
0001
,  // measure 108
0001
0001
0001
0001
,  // measure 109
1100
0000
0010
0001
0010
0011
0000
0000
,  // measure 110
0001
0000
0001
0000
0100
0010
0100
0000
,  // measure 111
0110
0000
0100
1000
0100
1100
0000
0000
,  // measure 112
0001
0000
0001
0000
0001
0100
0001
0000
,  // measure 113
1010
0000
0100
0001
0100
0101
0000
0000
,  // measure 114
0100
0000
0100
0000
0010
0100
0010
0000
,  // measure 115
1001
0000
0100
0010
0001
0101
0000
0000
,  // measure 116
1000
0000
1000
0000
0100
0010
0100
0000
,  // measure 117
0220
0000
0000
0000
,  // measure 118
0330
0000
0000
0000
;
