#TITLE:Wish;
#SUBTITLE:(Timer's STEP EDIT);
#ARTIST:Kouichi Ooura;
#TITLETRANSLIT:;
#SUBTITLETRANSLIT:;
#ARTISTTRANSLIT:;
#CREDIT:Timer Rabbit;
#BANNER:wish_bn.PNG;
#BACKGROUND:wish_bg.PNG;
#LYRICSPATH:;
#CDTITLE:timerrabbit.png;
#MUSIC:wish.mp3;
#OFFSET:0.000;
#SAMPLESTART:33.708;
#SAMPLELENGTH:12.000;
#SELECTABLE:YES;
#BPMS:0.000=178.000;
#STOPS:;
#BGCHANGES:;

//---------------dance-single - ----------------
#NOTES:
     dance-single:
     :
     Easy:
     4:
     0.295,0.360,0.100,0.110,0.000: // measure 1
0000
0000
0000
0000
,  // measure 2
0000
0000
0000
0000
,  // measure 3
0000
0000
0000
0000
,  // measure 4
0000
0000
0000
0000
,  // measure 5
0000
0000
0000
0000
,  // measure 6
0000
0000
0000
0000
,  // measure 7
0000
0000
0000
0000
,  // measure 8
0000
0000
0000
0000
,  // measure 9
0000
0000
0000
0000
0000
0000
0000
0010
,  // measure 10
0000
0000
0000
0001
0000
0000
0000
0100
,  // measure 11
0000
1000
0000
0100
0000
1000
0000
0010
,  // measure 12
0000
0001
0000
0010
0000
0002
0000
0003
,  // measure 13
0000
2000
0000
3000
0000
0000
0000
1000
,  // measure 14
0000
0000
0000
0010
0000
0000
0000
0001
,  // measure 15
0000
1000
0000
0001
0000
0000
0000
0100
,  // measure 16
0000
0010
0000
0100
0000
0010
0000
0100
,  // measure 17
0000
1000
0000
0001
0000
0020
0000
0030
,  // measure 18
0000
1000
0000
0100
0000
1000
0000
0000
,  // measure 19
0000
0010
0000
0001
0000
0010
0000
0000
,  // measure 20
0000
0010
0000
1000
0000
0010
0000
0000
,  // measure 21
0000
0100
0000
0001
0000
0100
0000
1000
,  // measure 22
0000
0100
0000
0001
0000
0010
0000
0100
,  // measure 23
0000
0110
0000
0000
0000
0000
0000
0100
,  // measure 24
0000
0010
0000
0001
0000
1000
0000
0010
,  // measure 25
0000
1001
0000
0000
0000
0000
0000
0001
,  // measure 26
0000
0100
0000
0010
0000
1000
0000
0001
,  // measure 27
0000
1000
0000
0110
0000
0000
0000
1000
,  // measure 28
0000
0000
0001
0000
0000
0010
0000
0000
,  // measure 29
0100
0000
0000
2002
0000
0000
3003
1000
,  // measure 30
0000
0100
0000
1000
0000
0100
0000
1000
,  // measure 31
0000
0100
0000
0000
0000
0001
0000
0010
,  // measure 32
0000
0001
0000
0010
0000
0001
0000
0010
,  // measure 33
0000
0001
0000
0000
0000
0000
0000
0100
,  // measure 34
0000
0010
0000
0100
0000
0010
0000
0100
,  // measure 35
0000
0010
0000
0100
0000
0000
0000
1000
,  // measure 36
0000
0000
0010
0000
0000
0100
0000
0000
,  // measure 37
0001
0000
0000
0100
0000
0010
0000
0001
,  // measure 38
0000
0000
1000
0000
0000
0002
0000
0000
,  // measure 39
0000
0000
0000
0003
0000
0000
0000
0000
,  // measure 40
0000
1000
0000
0100
0000
0001
0000
0010
,  // measure 41
0000
1000
0000
1000
0000
0000
0000
0000
,  // measure 42
0000
0001
0000
0010
0000
0100
0000
1000
,  // measure 43
0000
0001
0000
0001
0000
0000
0000
0000
,  // measure 44
0000
0010
0000
0100
0000
0001
0000
1000
,  // measure 45
0000
0100
0000
0010
0000
0000
0000
1001
,  // measure 46
0000
0110
0000
0001
,  // measure 47
1000
0001
1000
0001
,  // measure 48
2000
0000
3000
0000
0000
0000
0000
1000
,  // measure 49
0000
0000
0000
0001
0000
0000
0000
0100
,  // measure 50
0000
0010
0000
0100
0000
0000
0000
0001
,  // measure 51
0000
0001
0000
0001
0000
0000
0000
1000
,  // measure 52
0000
1000
0000
1000
0000
0000
0000
0110
,  // measure 53
0000
0000
1001
0000
0000
0000
0000
0001
,  // measure 54
0000
0010
0000
1000
0000
0000
0000
1000
,  // measure 55
0000
0010
0000
0001
0000
0100
0000
1000
,  // measure 56
0000
0010
0000
0000
0010
0000
0000
0010
,  // measure 57
0000
0000
0000
0100
0000
0000
0000
0001
,  // measure 58
0000
1000
0000
0001
0000
0000
0000
0100
,  // measure 59
0000
0100
0000
0100
0000
0010
0000
0010
,  // measure 60
0000
0010
0000
0000
0000
0000
0000
1001
,  // measure 61
0000
0000
0000
0110
0000
0000
0000
1000
,  // measure 62
0000
1000
0000
1000
0000
1000
0000
0001
,  // measure 63
0000
0001
0000
0001
0000
0000
0000
0100
,  // measure 64
0000
0010
0000
0200
0000
0000
0000
0300
,  // measure 65
0000
1000
0000
0010
0000
1000
0000
0000
,  // measure 66
0000
0100
0000
0001
0000
0100
0000
0000
,  // measure 67
0000
0001
0000
0010
0000
0001
0000
0000
,  // measure 68
0000
1000
0000
0100
0000
1000
0000
0000
,  // measure 69
0000
0100
0000
0010
0000
0001
0000
0000
,  // measure 70
0000
0001
0000
0100
0000
1000
0000
0000
,  // measure 71
0000
1000
0000
0010
0000
0100
0000
0000
,  // measure 72
0000
0002
0003
0020
0030
0200
0000
0300
;

//---------------dance-single - ----------------
#NOTES:
     dance-single:
     :
     Medium:
     6:
     0.350,0.396,0.210,0.200,0.000:
0000
0000
0000
0000
,
0000
0000
0000
0000
,
0000
0000
0000
0000
,
0000
0000
0000
0000
,
0000
0000
0000
0000
,
0000
0000
0000
0000
,
0000
0000
0000
0000
,
0000
0000
0000
0000
,
0000
0000
1001
1000
,
0100
1000
0010
0100
,
0001
0100
0001
0010
,
0100
1000
0010
1001
,
0000
0000
1001
0000
0000
0000
1000
0100
,
0000
0000
0001
0010
0000
0000
0001
0000
,
0100
1000
0000
1000
,
0100
0000
0010
0000
0001
0000
0001
1000
,
0001
1000
1000
0000
,
0000
1000
0000
0010
0000
0001
0000
0000
,
0000
0001
0000
0100
0000
1000
0000
0000
,
0000
1000
0000
0100
0000
0001
0000
0000
,
0000
0002
0000
0023
0000
2030
0000
3001
,
0000
0100
0000
1000
0000
0100
0000
0001
,
0000
0100
0000
1000
0000
0000
0000
1000
,
0000
0010
0000
0001
0000
0010
0000
1000
,
0000
0010
0000
0001
0000
0000
0000
0001
,
0000
0010
0000
0100
0000
1000
0000
0100
,
0000
0010
0000
0001
0000
0000
0000
0101
,
0000
0000
1010
0000
0000
1100
0000
0000
,
0011
0000
0000
1001
0110
0000
0000
0001
,
0000
0100
0000
0001
0000
0100
0000
0001
,
0000
0100
0000
0000
0000
1000
0000
0010
,
0000
1000
0000
0010
0000
1000
0000
0010
,
0000
1000
0000
0000
0000
0100
0000
0001
,
0000
0100
0000
0001
0000
0100
0000
0001
,
0000
0100
0000
0001
0000
0000
0000
1100
,
0000
0000
0011
0000
0000
0101
0000
0000
,
1010
0000
0000
0002
0000
2003
0000
3200
,
0000
0000
0320
0000
0000
0230
0000
0000
,
0000
0000
0000
0300
0000
0000
0000
0000
,
0000
2000
3000
0001
0000
0200
0300
0010
,
0000
0002
0003
1000
0000
1000
0000
1000
,
0000
0020
0030
1000
0000
2000
3000
0100
,
0000
0002
0003
0010
0000
0010
0000
0010
,
0000
0200
0300
0001
0000
0200
0300
1000
,
0000
0020
0030
0100
0000
0100
0000
1001
,
0000
0000
0000
0011
0000
0000
0000
1100
,
0000
0000
0000
0110
0000
0001
1000
0002
,
0000
0000
0003
0000
0000
0000
0000
0011
,
0000
0000
0000
1100
0000
0000
0000
0010
,
0000
0100
0000
1000
0000
0010
0000
0000
,
0000
1000
0000
0100
0000
0010
0000
0001
,
0000
0010
0000
0000
0000
0000
0000
0001
,
1000
0000
1000
0001
0000
0100
0000
0010
,
0000
0100
0000
0000
0000
0000
0000
0001
,
0000
0010
0000
1000
0000
0100
0000
0010
,
0000
0001
0000
0001
0000
0000
0000
0101
,
0000
0000
0000
1010
0000
0000
0000
0100
,
0000
0010
0000
0001
0000
0100
0000
0000
,
0000
0001
0000
0010
0000
0100
0000
1000
,
0000
0010
0000
0000
0000
0000
0000
0100
,
0010
0000
0010
0100
0000
0001
0000
0100
,
0000
1000
0000
0010
0000
0000
0000
0001
,
0000
0000
0000
1000
0000
0000
0000
1000
,
0000
0100
0000
0001
0000
0020
0000
0030
,
0000
1000
0000
0010
0000
0001
0000
0000
,
0000
0001
0000
0100
0000
1000
0000
0000
,
0000
0001
0000
0010
0000
1000
0000
0000
,
0000
1000
0000
0100
0000
0001
0000
0000
,
0000
1000
0000
0100
0000
1000
0000
0000
,
0000
0001
0000
0010
0000
0001
0000
0000
,
0000
0001
0000
0100
0000
0001
0000
0000
,
0000
1000
0000
0100
0000
2000
0000
3000
;

//---------------dance-single - ----------------
#NOTES:
     dance-single:
     :
     Hard:
     8:
     0.472,0.467,0.320,0.230,0.070:
0000
0000
0000
0000
,
0000
0000
0000
0000
,
0000
0000
0000
0000
,
0000
0000
0000
0000
,
0000
0000
0000
0000
,
0000
0000
0000
0000
,
0000
0000
0000
0000
,
0000
0000
0000
0000
,
0000
0000
0000
0000
1001
0000
0000
1000
,
0100
1000
0000
0010
0001
0010
0000
0100
,
0010
0001
1000
0001
0002
0003
0000
0001
,
0000
1000
0000
0100
0000
0010
0000
0100
,
0000
2002
0000
3003
0000
0000
0000
1000
,
0100
0000
0000
0001
0010
0000
0000
0001
,
1000
0000
0001
0000
1000
0000
0000
0000
0000
0000
0001
0000
0000
0100
0000
0000
,
1000
0000
0000
0010
0000
0000
0100
0000
0000
0000
1000
0001
1000
0000
0001
0000
,
0000
1000
0000
0001
0000
0000
0000
1000
,
0100
1000
0100
0000
0010
0000
0000
0001
,
0010
0001
0010
0000
0100
0000
0000
1000
,
0010
0000
0000
1000
0000
0000
0010
0000
0000
0000
0000
0000
0001
0000
0000
0000
0000
0000
0000
0000
0000
0000
0001
0000
,
0000
0000
1000
0000
0000
0000
0001
0000
0000
0000
1000
0000
0000
0000
0001
0000
0000
0000
0000
0000
0000
0012
0000
0000
,
0000
1000
0000
0010
0000
1000
0000
0010
,
0000
2000
0000
3003
0000
0000
0000
2010
,
0000
0001
0000
0010
0000
0001
0000
0010
,
0000
0002
0000
3003
0000
0201
0000
1000
,
0000
0001
0000
1000
0000
0001
0000
1000
,
0000
0001
0000
2000
0000
3300
0000
1100
,
0000
0000
0011
0000
0000
0101
0000
0000
,
1010
0000
1000
0001
0000
0000
0000
1100
,
0000
0010
0000
0101
0000
0100
0000
1010
,
0000
0010
0000
0011
0000
0000
0000
0011
,
0000
1000
0000
1010
0000
0001
0000
0101
,
0000
1000
0000
1100
0000
0000
0000
0101
,
0000
0100
0000
1010
0000
0010
0000
0011
,
0000
0100
0000
1100
0000
0000
0000
1010
,
0000
0000
0101
0000
0000
0011
0000
0000
,
1100
0000
0000
0002
0000
2003
0000
3200
,
0000
0000
0320
0000
0000
0230
0000
0000
,
0000
0000
0000
0000
0000
0000
0300
0000
0000
0000
0001
0000
1000
0001
1000
0001
,
0000
0000
1000
0100
0001
0010
0100
1000
,
0100
0001
2000
0000
0000
0000
3000
0000
,
0000
0001
1000
0010
0100
0001
1000
0100
,
0020
0000
0000
0230
0000
0000
0000
0300
,
0000
0001
0100
0010
1000
0100
0010
0001
,
2000
0000
3200
0000
0000
0300
0000
0101
,
0000
0000
0000
1010
0000
0000
0000
0110
,
0000
0000
1000
0010
0001
0100
2000
0000
,
0000
0000
3000
0000
0001
0100
0001
0000
0000
0000
0000
0000
0000
0000
1000
0000
,
0010
0000
0001
0100
0000
1000
0010
1000
,
0100
0001
0010
0000
0100
0000
0001
0100
,
0001
0100
1000
0010
0000
0100
0000
0010
,
0000
0001
0000
0001
0000
0000
0000
0001
,
1000
0000
1000
0001
0000
0100
0010
0100
,
0010
0100
0110
0000
0000
0000
0001
0000
,
0100
0010
1000
0100
,
0010
0100
0001
0000
1000
0000
0000
0001
,
0100
0000
1000
0010
0000
0001
0100
0001
,
0010
1000
0100
0000
0010
0000
0000
1000
,
0010
1000
0010
0001
0100
0000
0010
0000
,
1000
0000
0100
0000
0000
0000
0000
0010
,
0100
0000
0100
0010
0000
0001
0000
1000
,
0000
0000
0001
0000
1000
0000
1000
0000
0000
0000
0000
0000
0100
0001
0010
0000
,
0000
0000
1000
1000
0000
0000
0000
0110
,
0000
1001
0000
0220
0000
0000
0330
1000
,
0100
1000
0100
0000
0010
0000
0000
0001
,
0010
0001
0010
0000
0100
0000
0000
1000
,
0010
1000
0010
0000
0001
0000
0000
0001
,
0100
0001
0100
0000
1000
0000
0000
0010
,
0100
0010
0100
0000
0010
0000
0000
0001
,
1000
0001
1000
0000
0001
0000
0000
1000
,
0100
0010
0001
0000
1000
0000
0001
1000
,
0000
0001
0000
0000
0000
1000
0000
0000
0000
0001
0000
0000
0000
0002
0000
0000
0000
0000
0000
0003
0000
0000
0000
0000
;
