#TITLE:Waves;
#SUBTITLE:( Dj Stepho Lala Tune up );
#ARTIST:DJ Satomi;
#TITLETRANSLIT:;
#SUBTITLETRANSLIT:;
#ARTISTTRANSLIT:;
#CREDIT:Timer Rabbit;
#BANNER:waves_bn.PNG;
#BACKGROUND:waves_bg.PNG;
#LYRICSPATH:;
#CDTITLE:timerrabbit.png;
#MUSIC:Waves.mp3;
#OFFSET:0.000;
#SAMPLESTART:72.267;
#SAMPLELENGTH:12.000;
#SELECTABLE:YES;
#BPMS:0.000=83.025;
#STOPS:;
#BGCHANGES:;

//---------------dance-single - ----------------
#NOTES:
     dance-single:
     :
     Challenge:
     9:
     0.579,0.510,0.780,0.422,0.785: // measure 1
0000
0000
0000
0000
,  // measure 2
0000
0000
0000
0000
,  // measure 3
0000
0000
0000
1100
0000
0001
0010
0100
0010
0001
0000
0101
0000
0010
0100
1000
,  // measure 4
0001
0010
0000
1100
0000
0010
0100
1000
0100
0010
0000
0110
0000
0010
0100
0010
,  // measure 5
0100
0010
0000
1010
0000
1000
0100
0010
0001
0100
0000
0011
0000
0001
0010
0100
,  // measure 6
1000
0100
0000
1001
0000
0001
1000
0100
0010
0001
0000
0110
0000
0001
1000
0010
,  // measure 7
0100
0001
0000
1100
0000
0010
0001
0100
0000
0000
0000
0011
0000
0001
0010
0100
,  // measure 8
0000
0000
0000
1000
0001
0010
0100
1000
0010
0100
0001
0100
0000
0000
1000
0100
,  // measure 9
0000
0000
0000
0000
0000
0101
0000
1010
0000
1100
0000
0022
0000
0000
0000
0033
,  // measure 10
0000
1000
0100
0010
0001
0010
0100
1000
0100
0010
0002
0000
0003
1000
1000
1000
,  // measure 11
0000
0000
0000
1100
0000
0100
0001
0010
0000
0000
0000
0101
0000
1000
0010
0100
,  // measure 12
0000
0000
0000
0001
0100
0010
1000
0100
0001
0010
1000
0001
0000
0000
0100
0010
,  // measure 13
0000
0000
0000
0000
0000
0011
0000
1100
0000
0101
0000
2020
0000
0000
0000
3030
,  // measure 14
0000
0000
0001
0000
0010
0000
0100
0000
1000
0000
0100
0000
0010
0000
0001
0000
0010
0000
0100
0000
2000
0000
0000
0000
3000
0000
0000
0000
0000
0000
1000
0100
,  // measure 15
1000
0000
0010
0001
0010
0000
1000
0000
0100
0000
1100
0000
0000
0000
0001
0000
0010
0000
0100
0000
0010
0000
0010
0000
0010
0000
0011
0000
0000
0000
1000
0000
,  // measure 16
0100
0010
1010
0000
0101
0000
0000
0001
0100
0010
0011
0000
1100
0000
0000
0001
,  // measure 17
0010
0001
0010
0010
0010
0011
0000
1000
0010
1000
0010
0010
0010
1010
0000
0001
,  // measure 18
0100
0010
0101
0000
1100
0000
0000
0010
0100
1000
1100
0000
0101
0000
0000
0001
,  // measure 19
1000
0001
0100
0100
0100
1001
0000
1000
0001
1000
0010
0010
0010
0110
0000
0010
,  // measure 20
0100
1000
1100
0000
0101
0000
0000
0010
0100
0001
0101
0000
1100
0000
0000
0100
,  // measure 21
0010
0100
0010
0010
0010
0110
0000
0001
1000
0001
0100
0100
0100
1001
0000
0010
,  // measure 22
0001
0100
0101
0000
1100
0000
0000
0010
1000
0001
0011
0000
2020
0000
0000
0000
,  // measure 23
3030
0000
0101
0000
0100
0010
0001
0100
1000
0000
1100
0000
0010
1000
0100
0001
,  // measure 24
0001
0000
0011
0000
0010
0001
0100
1000
1000
0000
1010
0000
0100
0001
0100
1000
,  // measure 25
0010
0000
0110
0000
0100
0010
0100
0010
0100
0000
1001
0000
0001
1000
0001
1000
,  // measure 26
0001
0000
0101
0000
0001
0010
0100
1000
0100
0000
1100
0000
1000
0100
0001
0010
,  // measure 27
0010
0000
2000
3000
2000
3000
0200
0300
0200
0300
0020
0030
0020
0030
0002
0003
,  // measure 28
0002
0003
0200
0300
0200
0300
0020
0030
0020
0030
2000
3000
2000
3000
0200
0300
,  // measure 29
0200
0300
0011
0000
0011
0000
1100
0000
1100
0000
1010
0000
1010
0000
0101
0000
,  // measure 30
0101
0000
0000
0000
1001
0000
0000
0000
1001
0000
0000
0000
0110
0000
0000
0000
0110
0000
0000
0000
1100
0000
0000
0000
0011
0000
0000
0000
1100
0000
0001
0010
,  // measure 31
0001
0000
1000
0100
1000
0000
0002
0000
0003
0000
0002
0000
0003
0000
0200
0000
0300
0000
0200
0000
0300
0000
2000
0000
3000
0000
2000
0000
3000
0000
0020
0000
,  // measure 32
0030
0020
0030
0200
0300
0200
0300
0002
0003
0002
0003
2000
3000
2000
3000
0001
,  // measure 33
0100
0101
0000
0101
0000
1010
0000
1010
0000
1100
0000
1100
0000
0011
0000
0011
,  // measure 34
0000
0110
0000
0110
0000
1001
0000
1001
0000
0011
0000
1100
0000
0011
1000
0100
,  // measure 35
0000
0020
0030
0020
0030
0002
0003
0002
0003
0200
0300
0200
0300
2000
3000
2000
,  // measure 36
3000
0020
0030
0020
0030
0200
0300
0200
0300
0002
0003
0002
0003
2000
3001
0100
,  // measure 37
0000
0011
0000
0011
0000
1100
0000
1100
0000
1010
0000
1010
0000
0101
0000
0101
,  // measure 38
0000
0110
0000
0110
0000
1001
0000
1001
0000
1010
0000
1010
0000
0101
0000
0101
,  // measure 39
0000
1000
0000
0001
0000
1000
0000
0001
0000
0101
0000
0010
1000
0100
0000
0000
,  // measure 40
0000
1010
0000
1000
0100
0010
0000
0000
0000
0001
0100
0010
1000
0001
0100
0001
,  // measure 41
0100
0010
0000
0000
0001
0100
1000
1000
1000
0000
0000
0011
0000
1100
0000
1010
,  // measure 42
0000
0202
0000
0000
0000
0303
0000
0001
0010
0100
1000
0100
0010
0001
0010
0100
,  // measure 43
2000
0000
3000
0200
0000
0000
0000
0300
0010
0100
0100
0100
0110
0000
0010
0100
,  // measure 44
1000
0010
0010
0010
0110
0000
0010
0100
0010
1001
0000
0110
0000
0000
0010
0100
,  // measure 45
1000
1100
0000
0101
0000
0000
1000
0100
0001
0100
0100
0100
0110
0000
0010
0100
,  // measure 46
0001
0100
0100
0100
1001
0000
0010
0100
1000
1100
0000
0101
0000
0000
1000
0100
,  // measure 47
0001
0000
0011
0000
0000
0000
1010
0000
0000
0000
0001
0010
0001
0000
1000
0100
1000
0000
0000
0000
1000
0000
0100
0000
1100
0000
0000
0000
0001
0000
0010
0000
,  // measure 48
0100
0010
0010
0010
0011
0000
1000
0100
0010
1010
0000
0101
0000
0000
0001
0100
,  // measure 49
0010
0011
0000
1100
0000
0000
0001
0010
0001
0010
0010
0010
0011
0000
1000
0010
,  // measure 50
1000
0010
0010
0010
1010
0000
0001
0100
0010
0101
0000
1100
0000
0000
0010
0100
,  // measure 51
1000
1100
0000
0101
0000
0000
0001
1000
0001
0100
0100
0100
1001
0000
1000
0001
,  // measure 52
1000
0010
0010
0010
0110
0000
0010
0100
1000
1100
0000
0101
0000
0000
0010
0100
,  // measure 53
0001
0101
0000
1100
0000
0000
0100
0010
0100
0010
0010
0010
0110
0000
0001
1000
,  // measure 54
0001
0100
0100
0100
1001
0000
0010
0001
0100
0101
0000
1100
0000
0000
0010
1000
,  // measure 55
0001
0011
0000
2020
0000
0000
0000
0000
0000
0000
0000
0000
3030
0000
0000
1000
,  // measure 56
0100
0002
0003
0002
0003
0200
0300
0200
0300
0020
0030
0020
0030
2000
3000
2000
,  // measure 57
3000
0200
0300
0200
0300
0020
0030
0020
0030
0002
0003
0002
0003
1000
0100
0000
,  // measure 58
1100
1100
0011
0011
0101
0101
1010
1010
,  // measure 59
1001
0000
1001
0000
0110
0000
0110
0000
1100
0000
0011
0000
1100
0001
0100
0000
,  // measure 60
0020
0030
0020
0030
2000
3000
2000
3000
0200
0300
0200
0300
0002
0003
0002
0003
,  // measure 61
0200
0300
0200
0300
0020
0030
0020
0030
2000
3000
2000
3000
0001
0100
0000
0101
,  // measure 62
0000
0101
0000
1010
0000
1010
0000
1100
0000
1100
0000
0011
0000
0011
0000
0110
,  // measure 63
0000
0110
0000
1001
0000
1001
0000
0110
0000
1001
0000
0110
0000
0000
2000
3000
,  // measure 64
0002
0003
2000
3000
0002
0003
2000
0000
0000
3000
0000
0000
0000
0000
0000
0000
;
