#TITLE:Tibs Types with a British Accent;
#SUBTITLE:;
#ARTIST:SleeplessDragn;
#TITLETRANSLIT:;
#SUBTITLETRANSLIT:;
#ARTISTTRANSLIT:;
#CREDIT:Timer Rabbit;
#BANNER:TTwaBA_bn.PNG;
#BACKGROUND:TTwaBA_bg.PNG;
#LYRICSPATH:;
#CDTITLE:timerrabbit.PNG;
#MUSIC:TTwaBA.mp3;
#OFFSET:0.000;
#SAMPLESTART:31.579;
#SAMPLELENGTH:12.000;
#SELECTABLE:YES;
#BPMS:0.000=190.000;
#STOPS:;
#BGCHANGES:;

//---------------dance-single - ----------------
#NOTES:
     dance-single:
     :
     Hard:
     9:
     0.635,0.727,0.455,0.009,0.045:
0000
0000
0000
0000
,
0000
0000
0000
0000
,
0000
0000
0000
0000
,
0000
0000
0000
0000
,
1000
0000
0010
0000
0001
0000
1000
0010
,
1000
0010
0001
0100
,
0001
0100
0001
0000
1000
0000
0010
0000
,
0100
0000
1000
0100
1000
0000
0100
0000
,
0001
0000
0010
0000
0001
0010
0001
0000
,
1000
0000
0100
0000
0010
0000
0010
1000
,
0010
0010
0001
0100
,
0001
0100
0001
0000
1000
0000
1000
0000
,
1000
0000
0001
0010
0100
0000
0000
0000
,
1000
0100
0010
0001
0010
0100
1000
0000
,
1000
0000
0010
0001
0100
0010
0001
0000
,
0100
1000
0010
0100
1000
0010
0000
0000
,
0001
0000
1000
0100
0010
0000
0000
0000
,
0001
0010
0100
1000
0100
0010
0001
0000
,
1000
0010
0100
0000
0000
0000
0001
0000
,
0010
1000
1000
1000
,
0001
0100
0010
0100
1000
0010
0001
0000
,
0001
0000
1000
0100
0010
0000
0010
0000
,
0001
0010
0100
0000
1000
0010
0100
0000
,
0100
0001
0100
0001
0100
0001
0100
0001
,
1000
0000
0001
0010
0100
0001
0010
0100
,
1000
1000
0100
0010
,
0001
1000
0100
0000
1000
0001
0100
0000
,
0010
0001
0010
0001
0010
0001
0010
0001
,
1000
0001
1000
0001
,
1000
0000
0001
0000
1000
0000
0001
1000
,
0001
0100
0010
0100
,
0010
0000
0100
0000
0010
0000
0100
0010
,
0100
1000
0100
1000
,
0100
0000
1000
0000
0100
0000
1000
0100
,
1000
0010
0001
0010
,
0001
0010
0001
0010
0001
0010
0001
0010
,
0000
1010
0101
1100
,
0011
1010
1100
0011
,
0101
0101
0101
0101
,
1010
1010
1010
1010
,
1000
0100
0010
0001
0010
0100
1000
0010
,
0100
0001
0010
0100
1000
0100
0010
0001
,
0000
0100
0010
0001
0100
1000
0010
1000
,
0100
0001
0010
1000
0001
1000
0001
0000
,
1000
0010
0100
0001
0010
1000
0100
0010
,
0001
0000
0010
0000
1000
0000
0100
0000
1000
0000
0010
0000
0001
0000
0100
0001
,
0010
1000
0100
0010
0001
1000
0100
0010
,
0001
0000
0010
0000
1000
0000
0100
0000
0001
0000
0010
1000
0100
0010
0001
0000
,
0010
0100
1000
0010
0100
0001
0010
1000
,
0010
0000
0100
0000
0001
0000
0010
0000
0100
0000
1000
0000
0010
0100
0010
0000
,
1000
0001
0100
0010
1000
0100
0010
0001
,
0010
0000
0100
0000
1000
0000
0010
0000
0001
0000
0100
0010
1000
0100
0001
0000
,
0010
1000
0100
0010
0001
0100
1000
0010
,
0100
0000
0001
0000
0100
0000
0010
0000
1000
0000
0010
0000
1000
0000
0100
0010
,
0001
1000
0001
0100
0010
1000
0100
0010
,
0001
0000
0100
0000
0010
0000
1000
0000
0100
0000
1000
0100
0010
0100
1000
0000
,
0010
0001
1000
0010
0100
0001
1000
0100
,
0010
0000
0001
0000
0100
0000
0010
0000
1000
0000
0001
0000
0100
0000
0001
1000
,
0010
0100
0001
0010
1000
0010
0100
1000
,
0001
0100
0010
1000
0001
1000
0001
1000
,
0000
0101
0000
1100
,
0000
1010
0000
0011
,
0000
1100
0000
0101
,
0000
0011
1100
1010
,
0101
1001
0000
1100
,
0000
0011
0000
1010
,
0000
0101
0000
1100
,
0000
1010
0101
0011
,
1100
0110
1000
0100
,
0010
0001
0010
0100
,
1000
0010
0100
0001
,
0100
1001
0110
1001
,
0110
1001
0010
0100
,
0001
0100
0010
1000
,
0010
0001
0100
1000
,
0010
0110
1001
0110
,
1001
0110
1000
0100
,
0001
0100
1000
0010
,
0001
0010
1000
0001
,
1000
1001
0110
1001
,
0110
0000
0000
0000
0000
1000
0100
0010
,
0000
0001
0001
0001
,
0100
0010
1000
0000
0100
0000
0001
0000
,
0100
0000
0100
1000
0100
1000
0200
0000
,
0000
0300
0000
0000
0000
0000
0000
0000
;

//---------------dance-single - ----------------
#NOTES:
     dance-single:
     :
     Medium:
     6:
     0.460,0.575,0.318,0.045,0.000:
0000
0000
0000
0000
,
0000
0000
0000
0000
,
0000
0000
0000
0000
,
0000
0000
0000
0000
,
1000
0001
1000
0001
,
1000
0001
1000
0001
,
0100
0010
0100
0010
,
0100
0010
0100
0010
,
1000
0100
1000
0100
,
1000
0100
1000
0100
,
0010
0001
0010
0001
,
0010
0001
0010
0001
,
1000
0000
0010
0100
0001
0000
0000
0000
,
1000
0000
0100
0000
1000
0000
0100
0001
,
0010
0010
1000
0010
,
1000
0100
0001
0100
,
0001
0000
0010
1000
0100
0000
0000
0000
,
0001
0000
0010
0000
0001
0000
0100
0010
,
1000
0100
0001
0100
,
0010
1000
0100
0001
,
1000
0000
0100
0010
0100
0000
0001
0000
,
0100
0010
1000
0000
,
1000
0010
0100
0001
,
0100
0010
0001
0010
0001
0010
0001
0000
,
0001
0000
0001
1000
0001
0000
0010
0000
,
1000
0100
0001
0000
,
0100
1000
0010
0001
,
1000
0010
1000
0010
1000
0010
1000
0000
,
1000
0001
1000
0001
,
1000
0001
1000
0001
,
0100
0010
0100
0010
,
0100
0010
0100
0010
,
0100
1000
0100
1000
,
0100
1000
0100
1000
,
0010
0001
0010
0001
,
0010
0000
0001
1000
0001
1000
0001
0000
,
1002
0100
1000
0100
,
1000
0100
1000
0103
,
2001
0100
0001
0100
,
0001
0100
0001
3100
,
1002
0010
1000
0010
,
1000
0010
1000
0013
,
2001
0010
0001
0010
,
3001
0001
0010
0001
0010
0001
0010
0001
,
1000
0010
0100
0000
0001
0100
0010
0000
,
1001
1001
1001
1001
,
0001
0010
0100
0000
1000
0100
0010
0000
,
0110
0110
0110
0110
,
0100
0001
0010
0000
1000
0010
0100
0000
,
0011
0011
0011
0011
,
1000
0100
0010
0000
0010
0100
1000
0000
,
1010
1010
1010
1010
,
1000
0100
0001
0000
0001
0010
1000
0000
,
0101
0101
0101
0101
,
0100
0010
0001
0000
0010
0100
1000
0000
,
1100
1100
1100
1100
,
1000
0010
0001
0000
0001
0100
1000
0000
,
0110
0110
0110
0110
,
0100
0001
0010
0000
0010
0100
1000
0000
,
1001
1001
1001
1000
,
0000
0100
0000
0010
,
0000
0001
0000
0100
,
0000
0010
0000
1000
,
0000
0001
0010
1000
,
0100
0001
0000
0100
,
0000
1000
0000
0010
,
0000
0100
0000
0001
,
0000
1000
0010
0100
,
0001
0010
0000
1000
,
0000
0001
0000
0100
,
0000
0010
0000
1000
,
0000
0001
1000
0100
,
0010
0001
0000
1000
,
0000
0100
0000
0010
,
0000
1000
0000
0001
,
0000
1000
0100
0001
,
0100
1000
0000
0001
,
0000
0010
0000
1000
,
0000
0100
0000
0010
,
0000
1000
0010
0001
,
0000
0000
1000
0100
,
0001
0000
0000
0001
,
0010
1000
1000
0001
,
1000
0100
0200
0000
,
0000
0300
0000
0000
;

//---------------dance-single - ----------------
#NOTES:
     dance-single:
     :
     Easy:
     4:
     0.343,0.497,0.100,0.009,0.000: // measure 1
0000
0000
0000
0000
,  // measure 2
0000
0000
0000
0000
,  // measure 3
0000
0000
0000
0000
,  // measure 4
0000
0000
0000
0000
,  // measure 5
1000
0000
0001
0000
,  // measure 6
0010
0000
0100
0000
,  // measure 7
1000
0000
0001
0000
,  // measure 8
0010
0000
0100
0000
,  // measure 9
1000
0000
0100
0000
,  // measure 10
0010
0000
0001
0000
,  // measure 11
1000
0000
0100
0000
,  // measure 12
0010
0000
0001
0000
,  // measure 13
1000
0100
0010
0000
,  // measure 14
0010
0100
0010
0000
,  // measure 15
0001
1000
0100
0010
,  // measure 16
0001
1000
0100
1000
,  // measure 17
0001
0010
0100
0000
,  // measure 18
0001
1000
0001
0000
,  // measure 19
1000
0001
0010
0100
,  // measure 20
1000
0001
0010
0001
,  // measure 21
1000
0100
0010
0001
,  // measure 22
0010
0100
1000
0000
,  // measure 23
1000
0100
0001
0010
,  // measure 24
1001
1001
1001
1001
,  // measure 25
0001
0010
0100
1000
,  // measure 26
0100
0010
0001
0000
,  // measure 27
0001
0010
1000
0100
,  // measure 28
0110
0110
0110
0110
,  // measure 29
1000
0000
0001
0000
,  // measure 30
0100
0000
0010
0000
,  // measure 31
1000
0000
0010
0000
,  // measure 32
0100
0000
0001
0000
,  // measure 33
1000
0100
1000
0100
,  // measure 34
1000
0100
1000
0100
,  // measure 35
0010
0001
0010
0001
,  // measure 36
0010
0001
0010
0001
,  // measure 37
0010
1000
0010
1000
,  // measure 38
0010
1000
0010
1000
,  // measure 39
0100
0001
0100
0001
,  // measure 40
0100
0001
0100
0001
,  // measure 41
1000
0001
1000
0001
,  // measure 42
1000
0001
1000
0001
,  // measure 43
0100
0010
0100
0010
,  // measure 44
0100
0010
0100
0010
,  // measure 45
1000
0001
1000
0100
,  // measure 46
0010
0001
1000
0010
,  // measure 47
0100
0001
0100
0010
,  // measure 48
1000
0001
0100
0010
,  // measure 49
1000
0001
0100
0010
,  // measure 50
1000
0001
0100
0010
,  // measure 51
0001
1000
0001
0100
,  // measure 52
0010
1000
0001
0100
,  // measure 53
0010
1000
0100
0001
,  // measure 54
0010
0001
0100
1000
,  // measure 55
0010
0100
0001
0010
,  // measure 56
0100
1000
0100
0010
,  // measure 57
0001
0010
0001
0010
,  // measure 58
0001
0010
0001
0010
,  // measure 59
0100
1000
0100
1000
,  // measure 60
0100
1000
0100
1000
,  // measure 61
0000
0100
0000
0001
,  // measure 62
0000
0010
0000
1000
,  // measure 63
0000
0100
0000
0010
,  // measure 64
0000
0001
0010
0100
,  // measure 65
1000
0100
0000
0010
,  // measure 66
0000
0100
0000
1000
,  // measure 67
0000
0001
0000
0010
,  // measure 68
0000
1000
0100
0010
,  // measure 69
0001
0100
0000
0010
,  // measure 70
0000
1000
0000
0100
,  // measure 71
0000
0001
0000
0010
,  // measure 72
0000
0001
0010
1000
,  // measure 73
0010
0001
0000
0100
,  // measure 74
0000
1000
0000
0001
,  // measure 75
0000
0010
0000
0100
,  // measure 76
0000
1000
0100
0001
,  // measure 77
0100
1000
0000
0100
,  // measure 78
0000
0010
0000
1000
,  // measure 79
0000
0001
0000
0100
,  // measure 80
0000
1001
0110
1001
,  // measure 81
0000
0000
1000
1000
,  // measure 82
1000
0000
0000
0000
,  // measure 83
0001
0010
0001
0000
,  // measure 84
0100
0100
0200
0000
,  // measure 85
0300
0000
0000
0000
;
