#TITLE:The Terror of Death;
#SUBTITLE:;
#ARTIST:DJ Sharpnel;
#TITLETRANSLIT:;
#SUBTITLETRANSLIT:;
#ARTISTTRANSLIT:;
#CREDIT:Timer Rabbit;
#BANNER:ToD_bn.PNG;
#BACKGROUND:ToD_bg.PNG;
#LYRICSPATH:;
#CDTITLE:timerrabbit.png;
#MUSIC:ToD.mp3;
#OFFSET:0.000;
#SAMPLESTART:31.579;
#SAMPLELENGTH:12.000;
#SELECTABLE:YES;
#BPMS:0.000=190.000;
#STOPS:;
#BGCHANGES:231.500=ToD_bg.PNG=1.000=0=0=1,
99999=-nosongbg-=1.000=0=0=0 // don't automatically add -songbackground-
;

//---------------dance-single - ----------------
#NOTES:
     dance-single:
     :
     Challenge:
     10:
     0.522,0.744,0.775,0.100,0.073: // measure 1
0000
0000
0000
0000
,  // measure 2
0000
0000
0000
0000
,  // measure 3
0000
0000
0000
0000
,  // measure 4
0000
0000
0000
0000
,  // measure 5
0000
0000
0000
0000
,  // measure 6
0000
0000
0000
0000
,  // measure 7
0000
0000
0000
0000
,  // measure 8
0000
0000
0000
0000
,  // measure 9
0000
0000
0000
0000
,  // measure 10
0000
0000
0000
0000
,  // measure 11
0000
0000
0000
0000
,  // measure 12
0000
0000
0000
0000
,  // measure 13
0000
0000
0000
0000
,  // measure 14
0000
0000
0000
0000
,  // measure 15
0000
0000
0000
0000
,  // measure 16
0000
0000
0000
0000
,  // measure 17
0000
0000
0000
0000
,  // measure 18
0000
0000
0000
0000
,  // measure 19
1100
1100
1100
1100
,  // measure 20
0011
0011
0011
0011
,  // measure 21
0110
0110
0110
0110
,  // measure 22
1001
1001
1001
1001
,  // measure 23
0101
0101
0101
0101
,  // measure 24
1010
1010
1010
1010
,  // measure 25
0110
0011
0101
1100
,  // measure 26
0011
1000
1000
1000
,  // measure 27
1001
0000
0000
0000
0001
0100
0000
0000
0001
0100
0000
0000
0001
0100
0000
0000
,  // measure 28
0001
0100
0000
0000
0001
0000
1000
0000
0001
0000
2000
0000
3000
0000
1000
0000
,  // measure 29
0000
0000
0000
0000
1000
0010
0000
0000
1000
0010
0000
0000
1000
0010
0000
0000
,  // measure 30
1000
0010
0000
0000
0001
1000
0001
1000
0002
0003
0000
0000
0000
0000
0000
0000
,  // measure 31
0001
0010
0000
0000
0001
0010
0000
0000
0001
0010
0000
0000
0001
0010
0000
0000
,  // measure 32
0001
0010
0000
0000
0001
0010
0000
0000
0100
0000
0010
0000
0200
0000
0300
0000
,  // measure 33
0100
0000
0000
0000
1000
0100
0000
0000
1000
0100
0000
0000
1000
0100
0000
0000
,  // measure 34
1000
0100
0000
0000
0001
0000
1000
0000
0100
0000
0200
0000
0000
0000
0300
0000
,  // measure 35
1001
1001
1001
1001
,  // measure 36
1001
0000
1001
0100
0010
0100
0200
0300
,  // measure 37
0110
0110
0110
0110
,  // measure 38
0110
0000
1000
0000
0000
0001
1000
0002
0000
0000
0000
0003
0000
0000
0000
0000
,  // measure 39
0101
0101
0101
0101
,  // measure 40
0101
0000
0101
0000
0100
0010
0200
0300
,  // measure 41
0100
0000
0001
0000
0000
0000
1000
0100
1000
0100
1000
0100
0000
0000
0010
0000
,  // measure 42
0000
0001
0010
0001
0000
1000
0000
2000
,  // measure 43
0001
0001
0001
0001
,  // measure 44
0001
0001
0001
0001
,  // measure 45
0001
3000
0001
0000
0001
0000
0001
0000
,  // measure 46
0001
0001
0001
0001
,  // measure 47
0001
0001
0001
0001
,  // measure 48
0001
0001
0001
0001
,  // measure 49
0001
0001
0001
0001
,  // measure 50
0001
0001
0001
0001
,  // measure 51
0001
0001
0001
0000
,  // measure 52
0000
0000
0000
0000
,  // measure 53
0000
0000
0000
0000
,  // measure 54
0000
0000
0000
0000
,  // measure 55
0000
0000
0000
0000
,  // measure 56
0000
0000
0000
0000
,  // measure 57
0000
0000
0000
0000
,  // measure 58
0000
0000
0000
0000
,  // measure 59
0000
0000
0000
0000
,  // measure 60
0000
0000
0000
0000
,  // measure 61
0000
0000
0000
0000
,  // measure 62
1000
0000
0100
1000
0100
1000
0100
0000
,  // measure 63
0010
0000
0001
0010
0001
0010
0001
0000
,  // measure 64
1000
0000
0010
1000
0010
1000
0010
0000
,  // measure 65
0001
0000
0100
0001
0100
0001
0100
0000
,  // measure 66
0110
0000
1000
0100
0010
0001
0100
0000
,  // measure 67
1001
0000
0001
0010
0100
1000
0100
0000
,  // measure 68
1100
0000
1000
0100
1000
0010
0001
0000
,  // measure 69
0011
0000
0001
0010
0001
0100
1000
0000
,  // measure 70
2100
0000
0010
0001
0010
0001
3010
0000
,  // measure 71
0012
0000
1000
0100
1000
0100
1003
0000
,  // measure 72
2010
0000
0100
0001
0100
0001
3100
0000
,  // measure 73
0102
0000
1000
0010
1000
0010
1003
0000
,  // measure 74
0011
1100
0101
1010
,  // measure 75
1100
0011
0101
1010
,  // measure 76
0110
1001
1001
0110
,  // measure 77
1001
0110
0110
2002
,  // measure 78
0000
0000
0000
0000
,  // measure 79
0000
0000
0000
0000
,  // measure 80
0000
0000
0000
0000
,  // measure 81
0000
0000
0000
0000
,  // measure 82
0000
0000
0000
0000
,  // measure 83
0000
0000
0000
0000
,  // measure 84
0000
0000
0000
0000
,  // measure 85
0000
0000
0000
3003
,  // measure 86
0000
0000
0000
0000
,  // measure 87
0000
0000
0000
0000
,  // measure 88
0000
0000
0000
0000
,  // measure 89
0000
0000
0000
0000
,  // measure 90
0000
0000
0000
0000
,  // measure 91
0000
0000
0000
0000
,  // measure 92
0000
0000
0000
0000
,  // measure 93
0000
0000
0000
0000
,  // measure 94
0000
0000
0000
0000
,  // measure 95
0000
0200
0000
0000
0000
0000
0000
0000
,  // measure 96
0000
0000
0000
0000
0000
0000
0000
0300
,  // measure 97
0000
0000
0000
0000
,  // measure 98
0000
0000
0000
0000
,  // measure 99
0000
0000
0000
0000
,  // measure 100
0000
0000
0000
0000
,  // measure 101
0000
0000
0000
0000
1000
0001
1000
0001
,  // measure 102
1000
0001
1000
0001
1000
0001
1000
0001
,  // measure 103
1000
0001
1000
0001
1000
0001
1000
0001
,  // measure 104
1000
0001
1000
0001
1000
0001
1000
0001
,  // measure 105
1000
0001
0000
0000
0000
0000
0000
0000
,  // measure 106
0000
1000
0010
0100
,  // measure 107
0001
0010
0100
1000
0010
0100
0001
0100
,  // measure 108
0010
1000
0100
0001
0010
0100
0010
0100
,  // measure 109
2002
3003
0000
0000
0000
0000
0000
0000
0000
0000
0000
0000
0000
0000
0000
0000
,  // measure 110
1001
1001
1001
1001
,  // measure 111
1001
1001
1001
1001
,  // measure 112
0110
0110
0110
0110
,  // measure 113
0110
0110
0110
0110
,  // measure 114
0011
0011
0011
0011
,  // measure 115
0011
0011
0011
0011
,  // measure 116
0011
1100
1100
1100
,  // measure 117
1100
0000
1100
0010
0100
0010
0020
0000
,  // measure 118
0030
0000
0000
0000
1000
0010
0000
0000
1000
0010
0000
0000
1000
0010
0000
0000
,  // measure 119
1000
0010
0000
0000
1000
0010
0000
0000
1000
0010
0000
0000
0001
0000
1000
0000
,  // measure 120
0001
0000
0000
0000
0001
0100
0000
0000
0001
0100
0000
0000
0001
0100
0000
0000
,  // measure 121
0001
0100
0000
0000
0001
0000
1000
0000
0001
0000
0000
0000
0002
0000
0000
0000
,  // measure 122
0003
1010
1010
1010
,  // measure 123
1010
1010
1010
1010
,  // measure 124
1010
0101
0101
0101
,  // measure 125
0101
0000
0101
0000
0101
0001
1000
0001
,  // measure 126
0000
1001
0110
1001
,  // measure 127
0110
1001
0110
1001
,  // measure 128
0110
1100
0011
1100
,  // measure 129
0011
1100
0011
1100
,  // measure 130
0011
0101
1010
0101
,  // measure 131
1010
0101
1010
0101
,  // measure 132
1010
0011
1100
0011
,  // measure 133
1100
0000
0011
0000
1100
0001
1000
0001
,  // measure 134
0000
0110
0101
0110
,  // measure 135
1100
0110
0101
0110
,  // measure 136
1100
1001
1010
1001
,  // measure 137
0011
1001
1010
1001
,  // measure 138
0011
1001
1001
1001
,  // measure 139
1001
1001
1001
1001
,  // measure 140
1001
0110
0110
0110
,  // measure 141
0110
0110
0110
0110
,  // measure 142
0110
1000
0001
1000
,  // measure 143
0001
1000
0001
1000
,  // measure 144
0001
1000
0100
0010
,  // measure 145
0100
0010
0100
0010
,  // measure 146
0100
0010
0100
1000
,  // measure 147
0100
1000
0100
1000
,  // measure 148
0100
1000
0100
0010
,  // measure 149
0001
0000
0020
0000
0000
0030
0001
0000
,  // measure 150
0010
1000
0010
1000
,  // measure 151
0010
1000
0010
1000
,  // measure 152
0010
0001
0010
0001
,  // measure 153
0010
0001
0010
0001
,  // measure 154
0100
0010
0100
0010
,  // measure 155
0100
0010
0100
0010
,  // measure 156
0200
0000
0000
0000
,  // measure 157
0000
0320
0000
0000
,  // measure 158
1030
0000
0010
0001
0010
0001
0010
0000
,  // measure 159
0001
0000
1000
0100
1000
0100
1000
0000
,  // measure 160
0100
0000
0010
0100
0010
0100
0010
0000
,  // measure 161
0010
0000
0001
1000
0001
1000
0001
0000
,  // measure 162
0100
0000
1000
0010
1000
0010
1000
0000
,  // measure 163
0010
0000
0001
0100
0001
0100
0001
0000
,  // measure 164
0100
0000
0010
1000
0100
0010
0001
0000
,  // measure 165
0010
0000
0100
0001
0010
0100
2000
3000
,  // measure 166
1001
0000
0010
0100
0010
0100
0010
0000
,  // measure 167
0110
0000
0001
1000
0001
1000
0001
0000
,  // measure 168
1001
0000
0100
0010
0100
0010
0100
0000
,  // measure 169
0110
0000
1000
0001
1000
0001
1000
0000
,  // measure 170
0011
0000
0001
0100
0001
0100
0001
0000
,  // measure 171
1010
0000
1000
0010
1000
0010
1000
0000
,  // measure 172
0101
0000
0001
0100
0001
0100
0001
0000
,  // measure 173
1100
0000
1000
0100
1000
0100
2000
3000
,  // measure 174
0001
1000
0001
0000
0001
0000
0001
0000
,  // measure 175
0001
0000
0001
0000
0001
1000
0001
0000
,  // measure 176
1000
0000
1000
0000
1000
0000
0100
0010
,  // measure 177
0100
0000
0100
0000
0100
0000
0010
0100
,  // measure 178
0010
0000
0010
0000
0010
0000
0001
0010
,  // measure 179
0001
0000
1000
0000
1000
0000
0100
1000
,  // measure 180
0100
0000
0001
0000
0001
0000
0001
0100
,  // measure 181
0001
0000
1000
0000
1000
0000
1000
0010
,  // measure 182
1000
0100
0100
0100
,  // measure 183
0100
0100
0100
0100
,  // measure 184
0100
0100
0100
0100
,  // measure 185
0100
0100
0100
0100
,  // measure 186
0100
0100
0100
0100
,  // measure 187
0100
0100
0100
0100
,  // measure 188
0100
0100
0100
0100
,  // measure 189
0100
0000
0000
0000
;
