#TITLE:The Sound Above my Hair;
#SUBTITLE:;
#ARTIST:Scooter;
#TITLETRANSLIT:;
#SUBTITLETRANSLIT:;
#ARTISTTRANSLIT:;
#CREDIT:Timer Rabbit x Aeterna;
#BANNER:sound above my hair-ban.png;
#BACKGROUND:sound above my hair-bg.png;
#LYRICSPATH:;
#CDTITLE:cdtitle.png;
#MUSIC:SoundAboveMyHair.mp3;
#OFFSET:-0.054;
#SAMPLESTART:40.064;
#SAMPLELENGTH:15.000;
#SELECTABLE:YES;
#DISPLAYBPM:148.000;
#BPMS:0.000=147.890;
#STOPS:;
#BGCHANGES:2.000=popup2=0.500=1=0=1,
18.000=Tunnel9.avi=0.500=1=0=1,
34.000=Silhouette1.avi=0.700=1=0=1,
66.500=Singer1.avi=0.800=1=0=1,
93.500=white.PNG=1.000=0=0=1,
94.000=popup2=0.800=1=0=1,
98.500=white.PNG=1.000=0=0=1,
99.000=Light2.avi=1.000=1=0=1,
122.500=white.PNG=1.000=0=0=1,
123.000=popup2=1.000=1=0=1,
129.500=white.PNG=1.000=0=0=1,
130.000=Light10.avi=1.000=1=0=1,
160.500=Singer1.avi=1.000=0=0=1,
162.000=Cube7.avi=1.000=1=0=1,
178.000=popup2=1.000=1=0=1,
194.000=Light2.avi=1.000=1=0=1,
210.000=popup2=1.000=1=0=1,
226.000=sound above my hair-bg.PNG=1.000=1=0=1,
99999=-nosongbg-=1.000=0=0=0 // don't automatically add -songbackground-
;

//---------------dance-single - ----------------
#NOTES:
     dance-single:
     :
     Hard:
     9:
     0.577,0.705,0.594,0.270,0.373:
0000
0000
0000
0000
,
0000
0000
0000
0000
,
0000
0000
0000
0000
,
0000
0000
0000
0000
,
0000
0000
0000
0000
0000
0000
0000
0000
0011
0000
0000
0000
0001
0100
0000
0000
,
0000
0000
0001
0100
0000
0000
0000
0000
1000
0001
0000
0000
0000
0000
1000
0001
,
0000
0000
0000
0000
0110
0000
0000
0000
0010
1000
0000
0000
0000
0000
0010
1000
,
0000
0000
0000
0000
1000
0100
0000
0000
0000
0000
1000
0100
0000
0000
0000
0000
,
1001
0110
2002
3003
,
1000
0100
0010
0001
2002
0000
3003
0000
,
0000
0001
0010
0100
1000
0100
0022
0000
,
0000
0033
0000
0000
0110
0000
1100
0000
,
0011
0000
0000
0000
0001
0100
0020
0000
0000
0000
0000
0000
0030
0000
0000
0000
,
0000
0000
1000
0001
0100
0100
0010
0010
,
1000
0000
0001
0000
0100
0000
0100
0000
0000
0000
0010
0000
0000
1000
0000
0000
,
0010
0000
0000
0000
0010
0000
0010
0000
0000
0000
0100
0000
0000
0001
0000
0000
,
0100
0000
0000
0000
0100
0000
0100
0000
0000
0000
0120
0000
0000
1000
0000
0000
,
0100
0000
0000
0000
0100
0000
0130
0000
0000
0000
2010
0000
0000
0001
0000
0000
,
0010
0000
0000
0000
0010
0000
3010
0000
0000
0000
0201
0000
0000
0010
0000
0000
,
0001
0000
0000
0000
0001
0000
0301
0000
0000
0000
0010
0000
0000
1000
0000
0000
,
0100
0000
0000
0010
0000
0000
0001
0000
0000
1000
0000
0000
0001
0000
0000
1000
,
0000
0000
0001
0000
0000
0100
0000
0000
0001
0000
0000
0100
0000
0000
0010
0000
,
0000
1000
0000
0000
0010
0000
0000
1000
0000
0000
0010
0000
0000
0100
0000
0000
,
0001
0000
0000
1000
0000
0000
0001
0000
4004
0000
0000
0000
0000
0000
0000
0000
,
0000
0000
0000
0000
0000
3003
0000
0000
,
0012
1000
0103
2100
,
0010
3001
0210
0001
,
1300
0110
1001
0110
,
1002
0000
0000
1000
0000
0000
1000
0000
0000
1000
0000
0000
1003
0000
0000
0000
,
2100
0000
0000
0100
0000
0000
0100
0000
0000
0100
0000
0000
3100
0000
0000
0000
,
0012
0000
0000
0010
0000
0000
0010
0000
0000
0010
0000
0000
0013
0000
0000
0000
,
1000
0000
0000
0001
0000
0000
1000
0000
0000
0001
0000
0000
1000
0000
0000
0001
,
0000
0000
0100
0000
0000
0100
0000
0000
0100
0000
0000
0000
0000
0000
0000
0000
,
2100
0000
0000
0010
0000
0000
0010
0000
0000
0010
0000
0000
3010
0000
0000
0000
,
0012
0000
0000
0100
0000
0000
0100
0000
0000
0100
0000
0000
0103
0000
0000
0000
,
0102
0000
0000
1000
0000
0000
1000
0000
0000
1000
0000
0000
1003
0000
0000
0000
,
2100
0000
0000
0001
0000
0000
0001
0000
0000
0001
0000
0000
3001
0000
0000
0000
,
0120
0000
0000
0100
0000
0000
0100
0000
0000
0100
0000
0000
0130
0000
0000
0000
,
1002
0000
0000
1000
0000
0000
1000
0000
0000
1000
0000
0000
1003
0000
0000
0000
,
1000
0000
0000
0001
0000
0000
1000
0000
0000
0001
0000
0000
1000
0000
0000
0001
,
0000
1100
0100
0000
0101
0100
0010
1000
,
1010
1000
0001
0100
1100
0100
0001
0010
,
0011
0010
1000
0001
0101
0001
0010
1000
,
1001
1000
0100
0001
0110
1000
0010
0100
,
0110
0000
0100
0000
0010
0000
1000
0000
1000
0100
0000
0000
0010
0001
0000
0000
,
0001
0100
0000
0000
0010
1000
0000
0000
1000
0100
0000
0000
0010
0100
0000
0000
,
0001
0100
0000
0000
1000
0100
0000
0000
1000
0001
0000
0000
0001
0100
0000
0000
,
0010
1000
0000
0000
1000
0100
0000
0000
0010
0001
0000
0000
1001
0000
1001
0000
,
1001
1001
1001
0000
1100
0100
0001
0010
,
0110
0010
1000
0001
0011
0001
1000
0100
,
0101
0100
0010
1000
1010
1000
0010
0100
,
0110
0100
0010
0001
1001
1000
0100
0010
,
0100
0000
0010
0000
0100
0000
0000
0000
1000
0001
0000
0000
0001
1000
0000
0000
,
1000
0100
0000
0000
0010
0001
0000
0000
0001
0100
0000
0000
0010
1000
0000
0000
,
1000
0001
0000
0000
0102
0000
0100
0000
0100
0000
0103
0000
0000
0000
2010
0000
,
0010
0010
3010
0000
1100
0100
0100
0011
,
0010
0010
0110
0100
0200
0000
0300
0000
;

//---------------dance-single - ----------------
#NOTES:
     dance-single:
     :
     Challenge:
     10:
     1.000,1.000,1.000,1.000,0.270: // measure 1
0200
0000
0000
0300
1010
0000
0010
1000
,  // measure 2
0000
0001
0100
0000
0010
1000
0000
0001
,  // measure 3
0100
0100
0001
0000
1000
0000
0001
0100
,  // measure 4
0000
1000
0100
0000
0010
0100
0000
0001
,  // measure 5
0100
0100
0001
0000
1000
0000
0001
0010
,  // measure 6
0000
1000
0010
0000
1000
0010
0000
0001
,  // measure 7
0100
0100
0001
0000
1000
0000
0100
0010
,  // measure 8
0000
0001
0100
0000
1000
0010
0000
0001
,  // measure 9
0100
0100
0001
0000
1100
0000
0001
0100
,  // measure 10
0000
0010
0100
0000
1000
0100
0000
0001
,  // measure 11
0100
0100
0001
0000
1000
0000
0001
0100
,  // measure 12
0000
0010
1000
0000
0100
0010
0000
0001
,  // measure 13
0100
0100
0001
0000
1000
0000
0001
0100
,  // measure 14
0000
0010
1000
0000
0001
0100
0000
0001
,  // measure 15
0100
0100
0001
0000
1000
0000
0001
0100
,  // measure 16
0000
0001
0100
0000
0010
1000
0000
0001
,  // measure 17
0100
0100
0001
0000
1000
0000
0001
0010
,  // measure 18
0000
0010
1000
0000
0001
0100
0000
0001
,  // measure 19
0100
0000
0100
0000
0001
0000
0000
0000
1010
0000
0000
0101
0000
0000
0110
0000
,  // measure 20
0000
1010
0000
0000
1010
0000
0110
0000
0101
0000
0000
0101
0000
0000
0110
0000
,  // measure 21
0000
1010
0000
0000
0110
0000
1010
0000
0101
0000
0000
1010
0000
0000
0110
0000
,  // measure 22
0000
1010
0000
0000
0101
0000
0110
0000
1010
0000
0000
0110
0000
0000
0101
0000
,  // measure 23
0000
1001
0000
0000
1010
0000
0110
0000
0011
0000
0000
1010
0000
0000
0101
0000
,  // measure 24
0000
1010
0000
0000
1001
0000
0110
0000
1001
0010
0100
1000
0001
0100
0010
1000
,  // measure 25
0001
0010
1100
0001
1100
0001
1100
0001
1100
0000
0001
0110
1000
0000
0101
0000
,  // measure 26
0100
1010
0100
0000
0101
0000
0110
0000
1001
0000
0001
0110
1000
0000
0110
0000
,  // measure 27
0010
0101
0010
0000
0011
0000
1010
0000
0110
0000
1000
0101
0010
0000
1010
0000
,  // measure 28
0001
1100
0010
0000
1001
0000
1010
0000
0101
0000
0001
0110
1000
0000
0110
0000
,  // measure 29
0001
1100
0010
0000
1010
0000
0110
0000
0011
0000
0100
1010
0001
0000
0110
0000
,  // measure 30
1000
0011
0100
0000
0011
0000
0110
0000
1001
0000
1000
0110
0001
0000
0110
0000
,  // measure 31
1000
0011
0100
0000
1001
0000
1010
0000
0110
0000
0001
1100
0010
0000
1100
0000
,  // measure 32
0001
1010
0100
0000
1001
0000
0011
0000
0101
0000
0100
0011
1000
0000
0011
0000
,  // measure 33
0010
1100
0001
0000
0110
0000
1010
0000
0101
0000
0010
1001
0100
0000
0011
0000
,  // measure 34
1000
0110
0001
0000
1010
0000
0110
0000
0011
0000
0010
1100
0010
0000
0101
0000
,  // measure 35
0010
1100
0001
0000
1010
0000
0110
0000
0011
0000
0100
1010
0001
0000
0110
0000
,  // measure 36
0001
0110
1000
0000
1010
0000
0110
0000
0011
0000
1000
0110
0001
0000
1010
0000
,  // measure 37
0001
1010
0100
0000
1001
0000
1100
0000
0011
0000
1000
0011
1000
0000
0101
0000
,  // measure 38
0010
0101
0010
0000
1100
0000
0110
0000
1001
0000
0010
1100
0001
0000
0110
0000
,  // measure 39
0010
1001
0100
0000
0011
0000
0110
0000
1001
0000
0010
1100
0001
0000
0110
0000
,  // measure 40
1000
0110
0001
0000
1010
0000
1100
0000
0101
0000
0010
1100
0001
0000
1010
0000
,  // measure 41
0001
0110
1000
0000
0011
0000
0110
0000
2001
0000
3020
0000
1230
0000
0302
0000
,  // measure 42
1023
0230
2301
3020
1032
0010
1100
0203
,  // measure 43
2301
3200
1320
0032
2103
0010
0101
0010
,  // measure 44
3012
0100
1023
0230
2301
3020
1230
0320
,  // measure 45
2031
0010
3021
0100
1032
0203
2301
3020
,  // measure 46
1230
0302
1203
0320
2031
0010
3012
0203
,  // measure 47
0321
2030
3201
0320
1032
1000
0110
1000
,  // measure 48
2103
0010
3201
0320
1032
0100
1023
0230
,  // measure 49
2301
0100
0011
0100
3012
0010
1100
0010
,  // measure 50
2103
0010
3021
0230
1302
0203
2301
3020
,  // measure 51
1230
0001
1001
0320
0231
0010
1302
0023
,  // measure 52
0231
0010
2301
3200
1320
0100
2031
3200
,  // measure 53
1302
0010
1100
0010
1023
0100
1001
0100
,  // measure 54
2031
0010
3012
0203
2301
3002
1203
2300
,  // measure 55
3021
0100
2031
0010
3120
0230
0312
0203
,  // measure 56
2301
3020
1230
2300
3021
0001
2130
3200
,  // measure 57
1320
2030
3021
2030
3201
0000
0000
0300
;
