#TITLE:Techno Rocker;
#SUBTITLE:;
#ARTIST:Bahdshah;
#TITLETRANSLIT:;
#SUBTITLETRANSLIT:;
#ARTISTTRANSLIT:;
#GENRE:;
#CREDIT:Timer Rabbit;
#MENUCOLOR:;
#NEWMETERSYSTEM:NO;
#BANNER:TechnoRocker_bn.PNG;
#BACKGROUND:TechnoRocker_bg.PNG;
#LYRICSPATH:;
#CDTITLE:timerrabbit.png;
#MUSIC:TechnoRocker.mp3;
#OFFSET:0.000;
#SAMPLESTART:54.400;
#SAMPLELENGTH:11.980;
#SELECTABLE:YES;
#LISTSORT:;
#BPMS:0.000=150.001;
#STOPS:;
#BGCHANGES:;
#ATTACKS:;

//---------------dance-single - ----------------
#NOTES:
     dance-single:
     :
     Challenge:
     9:
     0.646,1.000,0.673,0.485,0.084: // measure 1
0000
0000
0000
0000
,  // measure 2
0000
0000
0000
0000
,  // measure 3
0000
0000
0000
0000
,  // measure 4
0000
0000
0000
0000
,  // measure 5
0000
0000
0000
0000
,  // measure 6
0000
0000
0000
0000
,  // measure 7
1000
0100
1000
0000
0010
0001
0010
0000
,  // measure 8
1000
0000
1000
0000
0100
0010
0001
0100
0000
0000
0000
0000
1000
0000
1000
0000
,  // measure 9
0001
0001
0001
0100
0010
1000
0100
0000
,  // measure 10
0100
0100
0010
0010
0200
0000
0300
0000
,  // measure 11
0001
0100
0001
0000
1000
0010
1000
0000
,  // measure 12
0100
0000
0100
0000
0010
0001
1000
0100
0000
0000
0000
0000
0010
0000
0010
0000
,  // measure 13
0100
0100
0100
0001
1000
0001
0100
0000
,  // measure 14
0010
0010
0100
0100
0020
0000
0030
0000
,  // measure 15
1100
0100
1100
0000
0101
0100
0101
0000
,  // measure 16
0001
0000
0010
0000
1000
0100
1000
0100
0000
0000
0000
0000
0010
0000
0100
0000
,  // measure 17
1000
0100
1000
0010
0001
1000
0100
0000
,  // measure 18
0001
0001
1000
1000
0002
0000
0003
0000
,  // measure 19
1100
1100
1100
1100
,  // measure 20
0100
0010
0100
0010
0100
0010
0100
0000
,  // measure 21
0101
0101
0101
0101
,  // measure 22
0001
0100
0001
0100
0001
0100
0000
0000
,  // measure 23
0110
0110
0110
0110
,  // measure 24
1000
0001
1000
0001
1000
0001
1000
0000
,  // measure 25
1100
0011
0101
1010
,  // measure 26
0110
0110
0110
1001
,  // measure 27
2002
0000
3003
0000
,  // measure 28
1100
1000
1000
1000
0011
0001
0001
0001
,  // measure 29
0110
0000
0100
0000
0100
0010
0100
0000
0100
0000
0000
0000
0000
0000
0000
0000
,  // measure 30
0110
0010
0010
0010
1100
0100
0100
0100
,  // measure 31
0110
0000
0001
1000
0001
0000
0000
0000
,  // measure 32
0101
0001
0001
0001
1100
1000
1000
1000
,  // measure 33
0110
0000
0010
0000
0010
0100
0010
0000
0010
0000
0000
0000
0000
0000
0000
0000
,  // measure 34
0101
0100
0100
0100
1010
0010
0010
0010
,  // measure 35
1000
0000
1000
0001
1000
0000
0002
0000
0000
0000
0000
0000
0003
0000
0000
0000
,  // measure 36
1010
0100
0101
0000
0101
0100
1100
0000
,  // measure 37
1000
1000
0001
0001
1000
0000
0000
0000
,  // measure 38
0011
0100
1100
0000
0110
0100
0101
0000
,  // measure 39
1000
0001
1000
0001
1000
0100
0000
0000
,  // measure 40
0101
0100
1100
0000
1100
0010
0011
0000
,  // measure 41
0100
0100
0010
0010
0100
0000
0000
0000
,  // measure 42
0110
0100
0101
0000
1001
0001
1100
0000
,  // measure 43
0010
0100
0010
0001
1000
0001
0000
0000
,  // measure 44
0100
0100
1100
0000
0100
0100
0101
0000
,  // measure 45
1000
0100
1000
0010
0001
0100
0000
0000
,  // measure 46
1010
1000
0100
0000
0011
0001
0100
0000
,  // measure 47
1000
0001
1000
0100
0010
0100
0000
0000
,  // measure 48
1010
1000
1100
0000
0110
0010
0101
0000
,  // measure 49
0001
0010
0100
1000
0100
0001
0000
0000
,  // measure 50
0110
1000
1100
0000
0011
0001
1001
0000
,  // measure 51
1000
0100
0010
0001
0100
0010
0000
0000
,  // measure 52
0010
1000
0100
0000
0100
0010
0001
0000
,  // measure 53
0100
0100
0100
0010
0010
0010
0000
0000
,  // measure 54
0001
0100
0001
0000
1000
0010
1000
0000
,  // measure 55
0001
0001
0001
1000
1000
1000
0000
0000
,  // measure 56
1100
0100
1100
0000
0011
0010
0011
0000
,  // measure 57
0100
0100
0100
0010
0010
0010
0000
0000
,  // measure 58
0110
0100
0110
0000
0101
0100
0101
0000
,  // measure 59
1000
1000
1000
0001
0001
0001
0000
0000
,  // measure 60
1001
0001
1001
0000
1100
1000
1100
0000
,  // measure 61
0010
0010
0010
0100
0100
0100
0000
0000
,  // measure 62
1100
0100
0011
0000
0011
0001
0101
0000
,  // measure 63
0001
1000
0100
0010
0001
0100
0000
0000
,  // measure 64
0001
1000
0001
0000
0100
0010
0100
0000
,  // measure 65
1000
1000
1000
0001
0001
0001
0000
0000
,  // measure 66
0101
0001
0001
0000
1100
1000
1000
0000
,  // measure 67
0100
0100
0100
0010
0010
0010
0000
0000
,  // measure 68
0102
0103
2100
3100
,  // measure 69
0010
0010
0100
0100
,  // measure 70
0120
0130
2001
3001
,  // measure 71
0001
0001
0001
1000
1000
1000
0001
0001
,  // measure 72
0002
0000
0000
0003
,  // measure 73
2200
3300
2200
3300
2200
3300
2200
3300
,  // measure 74
0202
0303
0202
0303
0202
0303
0202
0303
,  // measure 75
0220
0330
0220
0330
0220
0330
0220
0330
,  // measure 76
2002
3003
2002
3003
2002
3003
2002
3003
,  // measure 77
1000
0100
0000
0000
1000
0100
0000
0000
1000
0100
0000
0000
1000
0100
0000
0000
,  // measure 78
0010
0001
0000
0000
0010
0001
0000
0000
0010
0001
0000
0000
0010
0001
0000
0000
,  // measure 79
0110
1001
1001
1001
,  // measure 80
0100
0010
0100
0000
0000
0001
1000
0000
,  // measure 81
2100
0100
0100
3100
,  // measure 82
0012
0010
0010
0013
,  // measure 83
0102
0100
0100
0103
,  // measure 84
1020
1000
1000
1030
,  // measure 85
2001
0001
0001
3001
,  // measure 86
0120
0100
0100
0130
,  // measure 87
2100
0100
0100
3100
,  // measure 88
0001
0010
0001
0000
1000
1000
1000
0000
,  // measure 89
1000
0100
1000
0000
0010
0010
0010
0000
,  // measure 90
0010
0001
0010
0000
1000
0100
1000
0000
,  // measure 91
0100
0100
0100
0010
0010
0010
0001
0001
,  // measure 92
0001
1000
0001
1000
0001
1000
0001
1000
0001
1000
0001
1000
0001
1000
0001
0000
,  // measure 93
2000
3000
2000
3000
0002
0003
0002
0003
,  // measure 94
0200
0300
0200
0300
0020
0030
0020
0030
,  // measure 95
2000
3000
2000
3000
0002
0003
0002
0003
,  // measure 96
0220
0330
0220
0330
2002
3003
2002
3003
,  // measure 97
0102
0100
0100
0103
,  // measure 98
1020
1000
1000
1030
,  // measure 99
2100
0100
0100
3100
,  // measure 100
0012
0010
0010
0013
,  // measure 101
0101
0100
1010
1000
,  // measure 102
1100
0100
0011
0001
,  // measure 103
0100
0010
0100
0000
0001
1000
0001
0000
,  // measure 104
1000
0100
1000
0000
0010
0001
0010
0000
,  // measure 105
0110
0100
0110
0000
1001
1000
1001
0000
,  // measure 106
1000
0000
0100
0000
0010
0001
0100
0010
0000
0000
0000
0000
1000
0000
0100
0000
,  // measure 107
0010
0001
0100
0010
1000
0001
0100
0000
,  // measure 108
0010
0010
0100
0100
0020
0000
0030
0000
,  // measure 109
1100
0100
1100
0000
0101
0100
0101
0000
,  // measure 110
0001
0000
0010
0000
1000
0100
1000
0100
0000
0000
0000
0000
0010
0000
0100
0000
,  // measure 111
1000
0100
1000
0010
0001
1000
0100
0000
,  // measure 112
0001
0001
1000
1000
0002
0000
0003
0000
,  // measure 113
1000
0100
0010
0000
0010
0001
0100
0000
,  // measure 114
1000
1000
0001
0001
0100
0000
0000
0000
,  // measure 115
0010
0010
0010
0000
0100
0100
0100
0000
,  // measure 116
1000
0001
1000
0100
0010
0100
0000
0000
,  // measure 117
1010
0100
0101
0000
0110
0010
1100
0000
,  // measure 118
1000
1000
0001
0001
1000
0000
0000
0000
,  // measure 119
1100
0100
0011
0000
0110
0001
0101
0000
,  // measure 120
1000
0001
1000
0001
1000
0001
0000
0000
,  // measure 121
1000
0100
1000
0000
0010
0001
0010
0000
,  // measure 122
1000
0000
1000
0000
0100
0010
0001
0100
0000
0000
0000
0000
1000
0000
1000
0000
,  // measure 123
0001
0001
0001
0100
0010
1000
0100
0000
,  // measure 124
0100
0100
0010
0010
0200
0000
0300
0000
,  // measure 125
1000
0010
1000
0000
0001
0100
0001
0000
,  // measure 126
0010
0000
0010
0000
0001
0100
1000
0100
0000
0000
0000
0000
0001
0000
0001
0000
,  // measure 127
0100
0100
0100
0010
0100
0010
0100
0000
,  // measure 128
1000
1000
0001
0001
0002
0000
0003
0000
,  // measure 129
1000
0100
1000
0000
0010
0001
0010
0000
,  // measure 130
1000
0000
1000
0000
0100
0010
0001
0100
0000
0000
0000
0000
1000
0000
1000
0000
,  // measure 131
0001
0001
0001
0100
0010
1000
0100
0000
,  // measure 132
0100
0100
0010
0010
0200
0000
0300
0000
,  // measure 133
2100
0100
0100
3100
,  // measure 134
0012
0010
0010
0013
,  // measure 135
0120
0100
0100
0130
,  // measure 136
2001
0001
0001
3001
,  // measure 137
0202
0303
0202
0303
0202
0303
0202
0303
,  // measure 138
2200
3300
2200
3300
2200
3300
2200
3300
,  // measure 139
0022
0033
0022
0033
0022
0033
0022
0033
,  // measure 140
0220
0330
0220
0330
0220
0330
0220
0330
,  // measure 141
0120
0100
0100
0130
,  // measure 142
0100
0010
0100
0010
0100
0010
0100
0000
,  // measure 143
1002
1000
1000
1003
,  // measure 144
0001
1000
0001
1000
0001
1000
0001
0000
,  // measure 145
0102
0100
0100
0103
,  // measure 146
0001
0100
0001
0100
0001
0100
0001
0000
,  // measure 147
1020
1000
1000
1030
,  // measure 148
1000
0010
1000
0010
1000
0010
1000
0000
,  // measure 149
0001
0100
0001
0000
0100
0010
0100
0000
,  // measure 150
1000
0001
1000
0000
0100
0010
0100
0000
,  // measure 151
1100
0100
0100
0000
0101
0100
0100
0000
,  // measure 152
1000
1000
1000
0001
0001
0001
1000
1000
,  // measure 153
1000
0001
1000
0001
1000
0001
1000
0001
1000
0001
1000
0001
1000
0001
1000
0001
,  // measure 154
2002
0000
0000
0000
,  // measure 155
3003
0000
0000
0000
;
