#TITLE:Snow Kiss;
#SUBTITLE:(D Gray Man Ending 1);
#ARTIST:Nirgilis;
#TITLETRANSLIT:;
#SUBTITLETRANSLIT:;
#ARTISTTRANSLIT:;
#CREDIT:Timer Rabbit;
#BANNER:D Gray Man-banner.png;
#BACKGROUND:D Gray Man-bg.png;
#LYRICSPATH:;
#CDTITLE:timerrabbit.png;
#MUSIC:DGray-Man_-_Snow_Kiss_(TV_Size).mp3;
#OFFSET:-0.580;
#SAMPLESTART:58.600;
#SAMPLELENGTH:27.340;
#SELECTABLE:YES;
#BPMS:0.000=157.000;
#STOPS:;
#BGCHANGES:0.500=D Gray Man Ending 1.avi=1.000=1=0=0,
232.500=D Gray Man-bg.png=1.000=1=0=1,
99999=-nosongbg-=1.000=0=0=0 // don't automatically add -songbackground-
;

//---------------dance-single - ----------------
#NOTES:
     dance-single:
     :
     Challenge:
     10:
     0.679,0.735,0.933,0.406,0.000: // measure 1
0000
0000
0000
0000
0000
0000
0000
2000
,  // measure 2
3000
0002
0000
0000
0000
0003
0000
0020
,  // measure 3
0030
0200
0000
0300
2000
0000
0000
0000
,  // measure 4
0000
0000
0000
3000
0000
0000
0000
0000
,  // measure 5
0000
0000
0000
0022
0000
0000
0033
2200
,  // measure 6
0000
0000
0000
0000
0000
0000
0000
3300
,  // measure 7
0202
0000
0000
0000
,  // measure 8
0000
0303
0000
0000
0000
0000
0100
0010
,  // measure 9
0100
0101
0010
1000
0100
1100
0100
0010
,  // measure 10
0001
0011
0010
0100
1000
1100
0100
0010
,  // measure 11
0001
0101
0100
0010
1000
1010
0100
0010
,  // measure 12
0001
0101
0010
1000
0100
1100
0010
0001
,  // measure 13
0100
0101
0001
1000
0010
1010
0001
0100
,  // measure 14
0010
0011
0010
0100
1000
1001
0001
1000
,  // measure 15
0001
0110
0010
0100
0010
1001
1000
0001
,  // measure 16
1000
0001
1000
0000
1000
0001
1000
0001
,  // measure 17
1100
0010
0001
0101
0010
0100
0110
1000
,  // measure 18
0001
1100
0010
0001
0010
0100
1000
1010
,  // measure 19
1000
1000
1000
0201
0001
0001
0001
0301
,  // measure 20
0000
0000
0000
0101
0000
0000
1010
0000
,  // measure 21
1100
0010
0001
0011
0100
0010
0110
1000
,  // measure 22
0001
1001
0100
0010
0110
0001
1000
0100
,  // measure 23
1100
0100
0100
0022
0000
0000
0000
0000
,  // measure 24
0033
0000
0000
0110
0000
0000
1001
0000
,  // measure 25
1100
0100
0010
0001
0101
0010
1100
0000
,  // measure 26
0000
0101
1010
1100
,  // measure 27
2002
0000
3003
1000
0002
1000
1000
1000
,  // measure 28
1000
1003
0000
0000
1000
0000
0001
1000
,  // measure 29
0101
0010
2200
0000
0000
0000
3300
0000
,  // measure 30
0000
0000
0011
0100
1100
0000
0110
0000
,  // measure 31
1000
0001
1000
0002
1000
1000
1000
1000
,  // measure 32
1003
0000
0000
0110
0000
0000
1001
0000
,  // measure 33
1001
0001
1000
0100
0110
0010
0001
0100
,  // measure 34
1100
0010
0100
0001
0101
0010
1000
0100
,  // measure 35
1100
0100
0001
0010
0011
1000
0010
0100
,  // measure 36
2200
0000
0000
3300
,  // measure 37
0011
0100
0010
1000
1100
0010
0100
0001
,  // measure 38
1001
0100
0010
1000
1010
0100
0010
0100
,  // measure 39
0110
0000
0000
1001
0000
0000
0000
1000
,  // measure 40
0001
0010
0200
0000
0000
0000
0300
0000
,  // measure 41
1010
0001
0100
0010
1000
0100
0010
0001
,  // measure 42
0101
0010
0001
0100
1000
0100
0010
0000
,  // measure 43
1010
0100
0101
0000
1010
0000
1001
0000
,  // measure 44
0101
0110
1100
2000
,  // measure 45
3002
0000
2003
0001
0001
0001
0001
0001
,  // measure 46
3001
0000
0011
1100
,  // measure 47
1010
0000
1000
0202
0000
0000
0000
0000
,  // measure 48
0303
0000
0000
0100
0010
0100
0000
0000
,  // measure 49
0101
0010
0001
0100
1000
0100
0010
0001
,  // measure 50
1010
0001
0100
0010
1000
0100
0010
0001
,  // measure 51
1001
0100
0110
0000
1100
0000
1001
0000
,  // measure 52
0011
0110
2002
3003
,  // measure 53
1000
0000
0001
1000
0002
1000
1000
1000
,  // measure 54
1000
1000
1000
1000
1003
0000
0100
0010
,  // measure 55
0100
0020
0100
0100
0100
0100
0100
0100
,  // measure 56
0100
0100
0130
0000
0000
0000
1000
0001
,  // measure 57
2000
0001
0001
0001
0001
0001
0001
0001
,  // measure 58
0001
0001
3001
0000
0220
0000
0000
0330
,  // measure 59
2002
3003
0000
0000
;
