#TITLE:SigSig;
#SUBTITLE:(Miyu Miyu Mix);
#ARTIST:Est feat Miyu;
#TITLETRANSLIT:;
#SUBTITLETRANSLIT:;
#ARTISTTRANSLIT:;
#CREDIT:Timer Rabbit;
#BANNER:SSMM_bn.png;
#BACKGROUND:SSMM_bg.png;
#LYRICSPATH:;
#CDTITLE:timerrabbit.png;
#MUSIC:sigsig_miyumiyu.mp3;
#OFFSET:-0.060;
#SAMPLESTART:40.060;
#SAMPLELENGTH:12.000;
#SELECTABLE:YES;
#BPMS:0.000=150.000;
#STOPS:135.000=3.100
;
#BGCHANGES:;

//---------------dance-single - ----------------
#NOTES:
     dance-single:
     :
     Easy:
     3:
     0.348,0.348,0.260,0.098,0.000: // measure 1
0000
0000
0000
0000
,  // measure 2
0000
0000
0000
0000
,  // measure 3
1000
0010
0001
0001
,  // measure 4
0100
1000
1000
0010
,  // measure 5
0100
0001
0001
1000
,  // measure 6
1000
0110
0110
0110
,  // measure 7
0001
0100
1000
1000
,  // measure 8
0010
0001
0001
0100
,  // measure 9
0010
1000
1000
0001
,  // measure 10
0001
1001
1001
1001
,  // measure 11
0001
0010
0100
0100
,  // measure 12
1000
0010
0010
0100
,  // measure 13
1000
0100
0100
0010
,  // measure 14
0010
1001
1001
1001
,  // measure 15
0100
0010
0001
0001
,  // measure 16
0100
1000
1000
0001
,  // measure 17
1000
0100
0100
0010
,  // measure 18
0010
0220
0000
0330
,  // measure 19
1000
0000
0000
0001
0000
0001
0000
0100
,  // measure 20
0000
0000
0000
0010
0000
1000
0000
0000
,  // measure 21
0100
0000
0000
0010
0000
0001
0000
0000
,  // measure 22
1001
0100
1001
0100
,  // measure 23
1000
0000
0000
0010
0000
0100
0000
0000
,  // measure 24
0001
0010
0100
1000
,  // measure 25
0100
0000
0000
0010
0000
0001
0000
0000
,  // measure 26
1001
0100
1001
0100
,  // measure 27
0001
0000
0000
0010
0000
0010
0000
1000
,  // measure 28
0000
0000
0000
0100
0000
0001
0000
0000
,  // measure 29
0010
0000
0000
1000
0000
0100
0000
0000
,  // measure 30
1001
0100
1001
0100
,  // measure 31
0001
0000
0000
0010
0000
1000
0000
0000
,  // measure 32
0100
0001
0010
1000
,  // measure 33
0001
0000
0100
0100
,  // measure 34
1001
0100
1001
0100
,  // measure 35
1000
0010
0010
0010
,  // measure 36
0001
0001
0001
0000
,  // measure 37
0010
1000
1000
1000
,  // measure 38
0100
0100
0100
0000
,  // measure 39
0001
0010
0010
0010
,  // measure 40
1000
1000
1000
1000
,  // measure 41
0001
0001
0001
0001
,  // measure 42
1001
0100
2002
3003
,  // measure 43
0010
1000
1000
1000
,  // measure 44
0100
0100
0100
0000
,  // measure 45
0010
0001
0001
0001
,  // measure 46
0010
0010
0010
0000
,  // measure 47
0100
1000
1000
1000
,  // measure 48
0001
0001
0001
0001
,  // measure 49
0100
0100
0100
0100
,  // measure 50
1001
0100
2002
3003
,  // measure 51
0010
0100
0100
0100
,  // measure 52
0010
0010
0010
0000
,  // measure 53
0010
0001
0001
0001
,  // measure 54
1000
1000
1000
0000
,  // measure 55
0100
0010
0010
0010
,  // measure 56
0001
0001
0001
0001
,  // measure 57
1000
1000
1000
1000
,  // measure 58
1001
0100
2002
3003
,  // measure 59
1000
0010
0010
0010
,  // measure 60
0001
0001
0001
0000
,  // measure 61
0001
0100
0100
0100
,  // measure 62
1000
1000
1000
0000
,  // measure 63
0010
0100
0100
0100
,  // measure 64
0010
0010
0010
0010
,  // measure 65
1000
1000
1000
1000
,  // measure 66
1001
0100
2002
3003
,  // measure 67
1000
0010
0001
0001
,  // measure 68
0100
1000
1000
0010
,  // measure 69
0100
0001
0001
1000
,  // measure 70
1000
0110
0110
0110
,  // measure 71
0001
0100
1000
1000
,  // measure 72
0010
0001
0001
0100
,  // measure 73
0010
1000
1000
0001
,  // measure 74
0001
1001
1001
1001
,  // measure 75
0001
0010
0100
0100
,  // measure 76
1000
0010
0010
0100
,  // measure 77
1000
0100
0100
0010
,  // measure 78
0010
1001
1001
1001
,  // measure 79
0100
0010
0001
0001
,  // measure 80
0100
1000
1000
0001
,  // measure 81
1000
0100
0100
0010
,  // measure 82
0010
0220
0000
0330
,  // measure 83
2002
0000
3003
0000
;

//---------------dance-single - ----------------
#NOTES:
     dance-single:
     :
     Medium:
     5:
     0.383,0.377,0.028,0.098,0.000:
0000
0000
0000
0000
,
0000
0000
0000
0000
,
1000
0000
0001
0000
0100
0100
0100
0000
,
0010
0000
1000
1000
1000
0000
0100
0000
,
0010
0000
0001
0001
0001
0000
0100
0000
,
0010
0000
1000
0001
1000
0001
1000
0000
,
0010
0000
0100
0000
1000
1000
1000
0000
,
0010
0000
0001
0001
0001
0000
1000
0000
,
0010
0000
0100
0100
0100
0000
0010
0000
,
0100
0000
0100
0010
0100
0010
0100
0000
,
0001
0000
0010
0000
1000
1000
1000
0000
,
0100
0000
0001
0001
0001
0000
1000
0000
,
0010
0000
0100
0100
0100
0000
0001
0000
,
1000
0000
0100
0010
0100
0010
0100
0000
,
0001
0000
1000
0000
0001
0001
0001
0000
,
0100
0000
1000
1000
1000
0000
0001
0000
,
0100
0000
0010
0010
0010
0000
0100
0000
,
0001
0000
1000
0001
1000
0001
1000
0000
,
1000
0000
0000
0010
0001
0000
0100
0000
,
1000
0000
0000
0010
1000
0000
0100
0000
,
0001
0000
0000
0010
0001
0000
0100
0000
,
1000
1000
1000
1000
,
0100
0000
0000
0010
0100
0000
0001
0000
,
0100
1000
0010
0001
,
0100
0000
0000
0010
1000
0000
0100
0000
,
1001
1001
1001
0000
,
0001
0000
0000
0100
1000
0000
0010
0000
,
0001
0000
0000
0010
0100
0000
0001
0000
,
0010
0000
0000
0100
1000
0000
0001
0000
,
0001
0001
0001
0001
,
1000
0000
0000
0001
1000
0000
0100
0000
,
0010
1000
0100
0001
,
0010
0000
0000
0010
0001
0000
0100
0000
,
1000
0001
1000
0000
,
1000
0000
0001
0001
0001
0000
0010
0000
,
0100
0000
1000
0000
2000
0000
0000
3000
,
0001
0000
0100
0100
0100
0000
1000
0000
,
0010
0000
0010
0000
0020
0000
0000
0030
,
0001
0000
1000
1000
1000
0000
0100
0000
,
0010
0001
0100
0100
,
0010
0000
1000
1000
1000
0000
0010
0000
,
0001
0000
0001
0000
0002
0000
0000
0003
,
0010
0000
0100
0100
0100
0000
1000
0000
,
0010
0000
0001
0000
0200
0000
0000
0300
,
0010
0000
0001
0001
0001
0000
0100
0000
,
1000
0000
1000
0000
2000
0000
0000
3000
,
0100
0000
0001
0001
0001
0000
0010
0000
,
0100
1000
0001
0001
,
0010
0000
0100
0100
0100
0000
0010
0000
,
1000
0000
1000
0000
2000
0000
0000
3000
,
0010
0000
0100
0100
0100
0000
1000
0000
,
0010
0000
0001
0000
0002
0000
0000
0003
,
0010
0000
1000
1000
1000
0000
0100
0000
,
0010
0000
0010
0000
0020
0000
0000
0030
,
0001
0000
0100
0100
0100
0000
0010
0000
,
1000
0001
0010
0010
,
0100
0000
0001
0001
0001
0000
0100
0000
,
1000
0000
1000
0000
2000
0000
0000
3000
,
0100
0000
0010
0010
0010
0000
0001
0000
,
0100
0000
1000
0000
0020
0000
0000
0030
,
0001
0000
0100
0100
0100
0000
0010
0000
,
0001
0000
0001
0000
0020
0000
0000
0030
,
1000
0000
0010
0010
0010
0000
0100
0000
,
0001
1000
0010
0010
,
0100
0000
1000
1000
1000
0000
0100
0000
,
0010
0000
0010
0000
0020
0000
0000
0030
,
1000
0000
0001
0000
0100
0100
0100
0000
,
0010
0000
1000
1000
1000
0000
0100
0000
,
0010
0000
0001
0001
0001
0000
0100
0000
,
0010
0000
1000
0001
1000
0001
1000
0000
,
0010
0000
0100
0000
1000
1000
1000
0000
,
0010
0000
0001
0001
0001
0000
1000
0000
,
0010
0000
0100
0100
0100
0000
0010
0000
,
0100
0000
0100
0010
0100
0010
0100
0000
,
0001
0000
0010
0000
1000
1000
1000
0000
,
0100
0000
0001
0001
0001
0000
1000
0000
,
0010
0000
0100
0100
0100
0000
0001
0000
,
1000
0000
0100
0010
0100
0010
0100
0000
,
0001
0000
1000
0000
0001
0001
0001
0000
,
0100
0000
1000
1000
1000
0000
0001
0000
,
0100
0000
0010
0010
0010
0000
0100
0000
,
0001
0000
1000
0001
1000
0001
1000
0000
,
2002
0000
3003
0000
;

//---------------dance-single - ----------------
#NOTES:
     dance-single:
     :
     Hard:
     7:
     0.460,0.465,0.113,0.183,0.000:
0000
0000
0000
0000
,
0000
0000
0000
0000
,
1000
0000
0001
0000
0010
0100
0010
0000
,
0001
0000
1000
0000
0001
1000
0100
0000
,
0010
0000
0100
0000
0001
1000
0001
0000
,
0100
0000
0010
1000
0001
1000
0001
0000
,
0001
0000
0010
0000
1000
0100
1000
0000
,
0100
0000
1000
0000
0001
0010
0001
0000
,
0100
0000
0001
0000
1000
0010
1000
0000
,
0010
0000
1000
0100
0010
0100
0010
0000
,
0100
0000
0010
0000
1000
0001
1000
0000
,
0010
0000
0100
0000
1000
0100
0001
0000
,
0001
0000
1000
0000
0001
1000
0001
0000
,
1000
0000
0001
0010
0100
0010
0100
0000
,
0010
0000
1000
0000
0001
0100
0001
0000
,
0100
0000
0001
0000
1000
0010
1000
0000
,
0010
0000
0100
0000
0001
0100
0010
0000
,
0100
0000
0010
0001
1000
0001
1000
0000
,
0001
0000
0000
1000
0100
0000
0010
0000
,
0001
0000
0000
0100
0010
0000
1000
0000
,
0100
0000
0000
0010
0001
0000
0200
0000
,
0320
2030
3200
0320
,
0031
0000
0000
0010
0100
0000
2000
0000
,
3200
0320
0032
0203
,
0310
0000
0000
1000
0001
0000
0100
0000
,
0010
0110
1001
0000
,
1000
0000
0000
0001
0010
0000
0100
0000
,
1000
0000
0000
0010
0001
0000
0100
0000
,
0010
0000
0000
0010
0100
0000
0200
0000
,
0320
2030
3200
0320
,
0130
0000
0000
0001
1000
0000
2000
0000
,
3200
0320
0032
0203
,
0301
0000
0000
0010
1000
0000
0100
0000
,
0010
0100
0010
1001
,
0001
0000
1000
0100
1000
0010
1000
0000
,
0100
0001
0100
0001
0010
0001
0000
0000
,
1000
0000
0100
0010
0001
0100
0010
0000
,
0010
1000
0100
0010
0001
0100
0000
0000
,
0001
0000
1000
0001
1000
0010
0001
0000
,
0100
0010
1000
0100
0001
0010
0000
0000
,
1000
0001
1000
0100
0010
0100
0010
0000
,
1001
0110
1001
0000
,
1000
0000
0001
1000
0010
0100
0001
0000
,
1000
0010
0001
0100
1000
0010
0000
0000
,
0100
0000
0010
0001
0100
0010
1000
0000
,
0001
0010
0100
1000
0100
0010
0000
0000
,
1000
0000
0100
0010
0100
0001
0010
0000
,
1000
0100
0001
0010
0100
1000
0000
0000
,
0010
0100
0010
0001
1000
0100
0010
0000
,
0011
0000
1100
0000
2002
0000
0000
3003
,
0100
0000
0001
0010
0100
0010
1000
0000
,
1000
0010
0100
0001
0010
0100
0000
0000
,
0001
0000
1000
0010
0100
0010
0001
0000
,
0100
0010
0001
0010
0100
1000
0000
0000
,
0010
0000
0010
0100
1000
0001
0100
0000
,
0100
0010
1000
0100
0001
0010
0000
0000
,
1000
0010
0100
0001
0100
0010
1000
0000
,
1100
0110
0011
0000
,
1000
0000
0100
0001
0100
0010
1000
0000
,
0001
1000
0010
0001
1000
0100
0000
0000
,
0100
0000
0001
0100
0010
1000
0100
0000
,
1000
0010
0001
0100
0010
1000
0000
0000
,
0001
0000
0010
1000
0100
0001
0100
0000
,
0001
1000
0010
0100
0001
0010
0000
0000
,
1000
0100
0010
0001
0010
0100
1000
0000
,
0110
0000
1001
0000
0220
0000
0000
0330
,
1000
0000
0001
0000
0010
0100
0010
0000
,
0001
0000
1000
0000
0001
1000
0100
0000
,
0010
0000
0100
0000
0001
1000
0001
0000
,
0100
0000
0010
1000
0001
1000
0001
0000
,
0001
0000
0010
0000
1000
0100
1000
0000
,
0100
0000
1000
0000
0001
0010
0001
0000
,
0100
0000
0001
0000
1000
0010
1000
0000
,
0010
0000
1000
0100
0010
0100
0010
0000
,
0100
0000
0010
0000
1000
0001
1000
0000
,
0010
0000
0100
0000
1000
0100
0001
0000
,
0001
0000
1000
0000
0001
1000
0001
0000
,
1000
0000
0001
0010
0100
0010
0100
0000
,
0010
0000
1000
0000
0001
0100
0001
0000
,
0100
0000
0001
0000
1000
0010
1000
0000
,
0010
0000
0100
0000
0001
0100
0010
0000
,
0100
0000
0010
0001
1000
0001
1000
0000
,
2002
0000
0000
0000
0000
3003
0000
0000
;
