#TITLE:Rubu Rubu Giugi V;
#SUBTITLE:(Showa Boogie Woogie);
#ARTIST:Anettai Maji-SKA Bukudan feat. MAKI;
#TITLETRANSLIT:;
#SUBTITLETRANSLIT:;
#ARTISTTRANSLIT:;
#CREDIT:Timer Rabbit;
#BANNER:showa_bn.PNG;
#BACKGROUND:showa_bg.PNG;
#LYRICSPATH:;
#CDTITLE:timerrabbit.png;
#MUSIC:Showa Boogie Woogie.mp3;
#OFFSET:0.000;
#SAMPLESTART:31.579;
#SAMPLELENGTH:12.000;
#SELECTABLE:YES;
#BPMS:0.000=190.000;
#STOPS:;
#BGCHANGES:;

//---------------dance-single - ----------------
#NOTES:
     dance-single:
     :
     Hard:
     7:
     0.396,0.491,0.132,0.473,0.180:
0000
0000
0000
0000
,
0000
0000
0000
0000
,
0000
0000
0000
0000
,
0000
0000
0000
0000
0000
0000
0000
1000
,
2000
0000
3000
0000
0000
0001
0002
0000
,
0003
0000
0000
0100
0200
0000
0300
0000
,
0010
0100
0000
1001
0000
0000
0000
2002
,
0000
0000
0000
3003
0000
1000
0000
0100
,
0000
0000
0000
0001
0000
0000
0000
0000
0000
1000
0000
0000
0000
0000
0001
0000
0100
0000
0000
0000
0000
1000
0000
0000
,
0000
0000
0010
0000
0001
0000
0000
0000
0000
0001
0000
0000
0000
0000
0010
0000
1000
0000
0000
0000
0000
1000
0000
0000
,
0000
0000
0100
0000
0001
0000
0000
0000
0000
2000
0000
0000
0200
0000
0000
0000
0000
0000
0000
0000
0000
0000
0000
0000
,
3300
0000
0000
0000
,
0000
0000
0000
0001
0000
0000
0000
0000
1000
0000
0010
0000
0000
0000
0000
0001
0000
0000
0000
0000
0001
0000
0010
0000
,
0000
0000
0000
1000
0000
0000
0000
0000
0100
0000
0001
0000
0000
0000
0000
0001
0000
0000
0000
0000
0100
0000
1000
0000
,
0000
0002
0020
0000
0000
0000
0033
0000
,
0000
0000
0000
0000
,
0000
0000
0000
1000
0000
0000
0000
0000
1000
0000
0001
0000
0000
0000
0000
0001
0000
0000
0000
0000
0100
0000
0010
0000
,
0000
0000
0000
1000
0000
0000
0000
0000
0001
0000
1000
0000
0000
0000
0000
0001
0000
0000
0000
0000
0010
0000
0100
0000
,
0000
0200
2300
0020
0000
0000
3030
0000
,
0000
0000
0000
0000
,
0000
0000
0000
0001
0000
0000
0000
0000
0100
0000
0010
0000
0000
0000
0000
1000
0000
0000
0000
0000
0001
0000
1000
0000
,
0000
0000
0000
0001
0000
0000
0000
0000
0010
0000
0100
0000
0000
0000
0000
1000
0000
0000
0000
0000
1000
0000
0001
0000
,
0000
0020
0230
0002
0000
0000
0000
0303
,
0000
0000
0000
0000
,
0000
0000
1001
0000
2002
0000
0000
3003
,
0000
0000
0000
0001
0000
0100
0000
0010
,
0000
1000
0000
0002
0000
0000
0000
0000
,
0003
2000
3000
0200
0300
0002
0000
0000
,
0000
0003
0000
0000
0000
0001
0000
0100
,
0000
0010
0000
1000
0000
0100
0000
0002
,
0000
0000
0003
2000
0000
0000
0000
0000
,
0000
3000
0020
0000
0000
0030
0000
0000
,
0000
0110
0000
1001
0000
0220
0000
0000
,
0330
0000
0000
1000
0000
0010
0000
0001
,
0000
1000
0000
0200
0000
0000
0000
0000
,
0300
0020
0030
0002
0003
2000
3000
0200
,
0000
0000
0300
0000
0000
0001
0000
0010
,
0000
1000
0000
0100
0000
0001
0000
2000
,
0000
3000
0000
1001
0000
0000
0000
0110
,
0000
0000
0000
1001
0000
0000
0000
0000
,
0000
0000
0000
0100
0000
0001
0000
1000
,
0000
0001
0000
0000
0000
0010
0000
1000
,
0000
0100
0000
1000
0000
0100
0000
0001
,
1000
0000
0000
0000
0000
0100
0000
0010
,
0000
1000
0000
0020
0000
0000
0000
0030
,
0000
0001
0000
0100
0000
0010
0000
1000
,
0000
0002
0000
0000
0000
0000
0000
0000
,
0003
2000
0000
0000
0000
3000
0000
0000
,
0000
0000
0000
0010
0000
0100
0000
0010
,
0000
0001
0000
0000
0000
1000
0000
0100
,
0000
0001
0000
0100
0000
1000
0000
0010
,
0000
0000
0000
0001
0000
0010
0000
1000
,
0000
0010
0000
0200
0000
0000
0000
0300
,
0000
0010
0000
1000
0000
0001
0000
0200
,
0000
0000
0000
0300
0000
0000
0000
0000
0000
0001
0000
0000
0000
0000
0000
1000
0000
0000
0000
0000
0000
0000
1000
0000
,
0000
0001
0000
1000
0001
0000
0000
0000
0000
0000
0000
0000
,
0000
1000
0000
1000
0000
1000
0000
2000
,
0000
0000
0000
0000
0000
0000
0000
3000
,
0000
0001
0000
0001
0000
0001
0000
0002
,
0003
0000
2000
0000
3000
0000
0002
0000
0003
0001
0000
0001
0000
0002
0000
0003
,
0000
0000
0000
1000
0100
1000
0000
0000
,
0001
0010
0001
0000
0000
1000
0001
1000
,
0000
0100
0000
0010
0000
0001
0000
0100
,
0000
1000
0000
0001
0000
0001
0000
0001
,
1000
0001
0000
0000
0000
1000
0000
0100
,
0000
0001
0000
0100
0000
1000
0000
0001
,
0000
0001
0000
1000
0000
1000
0000
0100
,
0000
0100
0000
0010
0000
0010
0000
0000
,
0000
0000
0000
0010
0000
0010
0000
0001
,
0000
0001
0000
1000
0000
1000
0000
0100
,
0000
0100
0000
1000
2000
0000
3000
0000
,
0000
0001
0002
0000
0003
0000
0000
0100
,
0200
0000
0300
0000
0010
0100
0000
1001
,
0000
0000
0000
0000
0000
0000
0000
0010
,
0020
0000
0030
0000
0000
0100
0200
0000
,
0300
0000
0000
1000
2000
0000
3000
0000
,
0001
1000
0000
0110
0000
0000
0000
0000
,
0000
1001
0000
0220
0000
0000
0000
0000
,
0000
0000
0000
0000
,
0000
0000
0000
0000
0000
0000
0000
0330
;

//---------------dance-single - ----------------
#NOTES:
     dance-single:
     :
     Medium:
     5:
     0.377,0.416,0.218,0.473,0.000:
0000
0000
0000
0000
,
0000
0000
0000
0000
,
0000
0000
0000
0000
,
0000
0000
0000
0000
0000
0000
0000
1000
,
2000
0000
3000
0000
0000
0001
0002
0000
,
0003
0000
0000
0100
0200
0000
0300
0000
,
0000
0010
0000
0100
0000
1001
0000
2002
,
0000
0000
0000
3003
0000
1000
0000
0001
,
0000
1000
0000
0001
0000
0001
0000
1000
,
0000
1000
0000
0100
0000
0100
0000
0010
,
0000
0010
0000
2002
0000
0000
0000
0000
,
3003
0000
0000
0000
,
0000
0010
0000
0010
0000
0100
0000
0100
,
0000
0001
0000
0001
0000
1000
0000
1000
,
0000
0022
0000
0000
0033
0000
0000
0000
,
0000
0000
0000
0000
,
0000
0010
0000
0010
0000
1000
0000
1000
,
0000
0001
0000
0001
0000
0100
0000
0100
,
0000
2200
0000
0000
0000
0000
0000
0000
,
3300
0000
0000
0000
,
0000
0100
0000
0100
0000
0010
0000
0010
,
0000
0100
0000
0100
0000
1000
0000
0001
,
0000
1000
0000
0002
0000
0000
0000
0000
,
0003
0000
0000
0000
,
0000
1001
0000
2002
0000
0000
0000
3003
,
0000
1000
0000
0100
0000
0010
0000
0001
,
0000
2000
0000
0000
0000
0000
3000
0000
,
0001
0000
2000
0000
0000
0002
0000
3003
,
0000
0100
0000
0010
0000
0100
0000
0010
,
0000
0100
0000
0002
0000
0000
0003
2000
,
0000
0000
3000
0200
0000
0000
0000
0300
,
0000
2002
0000
0000
0000
0000
3003
0000
,
0000
0110
0000
1001
0000
0220
0000
0000
,
0000
0330
0000
1000
0000
0100
0000
1000
,
0000
0002
0000
0000
0000
0000
0000
0003
,
0000
1000
0000
0100
0000
0202
0000
0000
,
0000
0303
0000
0001
0000
1000
0000
0001
,
0000
1000
0000
0002
0000
0000
0003
2000
,
0000
0000
3000
0110
0000
0000
0000
1001
,
0000
0000
0000
0110
0000
0000
0000
0000
,
0000
0000
0000
0010
0000
1000
0000
0010
,
0000
0000
0000
0010
0000
0001
0000
0010
,
0000
1000
0000
0100
0000
1000
0000
0001
,
1000
0000
0000
0100
0000
0001
0000
0010
,
0000
2000
0000
0000
0000
0000
0000
3000
,
0000
0010
0000
0001
0000
0100
0000
2000
,
0000
0000
3000
0002
0000
0000
0000
0000
,
0003
0220
0000
0000
0000
0000
0330
0000
,
0000
0010
0000
1000
0000
0001
0000
1000
,
0001
0000
0000
0100
0000
0010
0000
1000
,
0000
0100
0000
0001
0000
0100
0000
1000
,
0100
0000
0000
0001
0000
1000
0000
0001
,
0000
2000
0000
0000
0000
0000
0000
3000
,
0000
0001
0000
0100
0000
0001
0000
1000
,
0000
0200
0300
0000
0001
0000
1000
0001
,
1000
0001
0000
0000
0000
0000
0000
0000
,
0000
0100
0000
0100
0000
0100
0000
0100
,
0000
0100
0000
0000
0000
0000
0000
0010
,
0000
0010
0000
0010
0000
0010
0000
0010
,
0000
1000
0001
1000
0001
0000
0010
0100
,
0000
0000
0000
2200
0000
0000
3300
0000
,
0000
0022
0000
0000
0033
0000
0000
2002
,
0000
0000
0000
3003
0000
0010
0000
0100
,
0000
0010
0000
0100
0000
0010
0100
0010
,
0100
0000
0000
1000
0000
0100
0000
1000
,
0000
0100
0000
0010
0000
0001
0000
0010
,
0000
0001
0000
1000
0000
0010
0000
1000
,
0000
0010
0000
0001
0000
0100
0000
0001
,
0000
0100
0000
0000
0000
0001
0000
0010
,
0000
1000
0000
0100
0000
0001
0000
0010
,
0000
1000
0000
1000
2000
0000
3000
0000
,
0000
0001
0002
0000
0003
0000
0000
0100
,
0200
0000
0300
0010
0000
0100
0000
1001
,
0000
0000
0000
0000
0000
0000
0000
0010
,
0020
0000
0030
0000
0000
1000
2000
0000
,
3000
0000
0000
0001
0002
0000
0003
1000
,
0000
0001
0000
0110
0000
0000
0000
1001
,
0000
0000
0000
0220
0000
0000
0000
0000
,
0000
0000
0000
0000
,
0000
0000
0000
0000
0000
0000
0000
0330
;

//---------------dance-single - ----------------
#NOTES:
     dance-single:
     :
     Easy:
     3:
     0.278,0.379,0.123,0.407,0.000: // measure 1
0000
0000
0000
0000
,  // measure 2
0000
0000
0000
0000
,  // measure 3
0000
0000
0000
0000
,  // measure 4
0000
0000
0000
0000
,  // measure 5
2000
3000
0002
0000
,  // measure 6
0003
2000
0000
3000
,  // measure 7
0001
2000
3000
0000
,  // measure 8
2002
0000
3003
0000
,  // measure 9
0000
0000
1000
0000
,  // measure 10
1000
0000
0001
0000
,  // measure 11
0001
0000
1000
0000
,  // measure 12
1000
0000
0001
0000
,  // measure 13
0001
0000
0100
0000
,  // measure 14
0100
0000
0010
0000
,  // measure 15
0010
0000
0100
0000
,  // measure 16
0100
0000
0010
0000
,  // measure 17
0010
0000
0001
0000
,  // measure 18
0001
0000
1000
0000
,  // measure 19
1000
0000
0001
0000
,  // measure 20
0001
0000
1000
0000
,  // measure 21
1000
0000
0010
0000
,  // measure 22
0010
0000
0100
0000
,  // measure 23
0100
0000
0010
0000
,  // measure 24
0010
0000
0100
0000
,  // measure 25
0100
0000
1001
1001
,  // measure 26
0000
0000
1000
0100
,  // measure 27
1000
0200
0000
0300
,  // measure 28
0010
0002
0003
0020
,  // measure 29
0030
0000
0010
0001
,  // measure 30
0010
2000
3000
0200
,  // measure 31
0300
2000
0000
0000
,  // measure 32
3000
0002
0003
0000
,  // measure 33
1001
1001
1001
0000
,  // measure 34
0000
0100
0001
0100
,  // measure 35
0001
2000
0000
3000
,  // measure 36
0002
0023
2030
3000
,  // measure 37
0000
0000
1000
0001
,  // measure 38
1000
0002
0000
2003
,  // measure 39
3000
0110
0000
1001
,  // measure 40
0000
0110
0000
0000
,  // measure 41
0000
0000
0100
0000
,  // measure 42
0100
0000
0010
0000
,  // measure 43
0010
0000
0001
0000
,  // measure 44
0001
0000
1000
0000
,  // measure 45
1000
0000
0010
0000
,  // measure 46
0010
0000
0100
0000
,  // measure 47
0100
0000
2002
0000
,  // measure 48
3003
0220
0000
0330
,  // measure 49
0000
0000
0001
0000
,  // measure 50
0001
0000
1000
0000
,  // measure 51
1000
0000
0001
0000
,  // measure 52
0001
0000
1000
0000
,  // measure 53
1000
0000
0002
0000
,  // measure 54
0003
0000
0001
1000
,  // measure 55
0001
1000
0001
1000
,  // measure 56
0002
0000
0003
0000
,  // measure 57
0000
0000
0001
0000
,  // measure 58
0001
0000
1000
0000
,  // measure 59
1000
0000
0100
0000
,  // measure 60
0100
0000
0010
0000
,  // measure 61
0010
0000
0002
0000
,  // measure 62
0003
2000
0000
3000
,  // measure 63
0002
0000
1003
0100
,  // measure 64
1000
0010
0001
0010
,  // measure 65
0002
0003
1000
0100
,  // measure 66
1000
0010
0001
0010
,  // measure 67
0100
0020
0000
0030
,  // measure 68
0200
0300
0020
0030
,  // measure 69
0000
0010
0100
0010
,  // measure 70
0001
1000
0001
2000
,  // measure 71
3000
0000
2000
3000
,  // measure 72
0002
0000
0003
2000
,  // measure 73
0000
3000
0001
2000
,  // measure 74
3000
0000
0000
0000
,  // measure 75
0002
0003
2000
0000
,  // measure 76
3000
0002
0000
0003
,  // measure 77
1000
0002
0003
0000
,  // measure 78
1001
0000
2002
0000
,  // measure 79
0000
0000
0000
0000
,  // measure 80
0000
0000
0000
0000
,  // measure 81
3003
0000
0000
0000
;
