#TITLE:Roller Coaster Ride;
#SUBTITLE:;
#ARTIST:SleeplessDragn;
#TITLETRANSLIT:;
#SUBTITLETRANSLIT:;
#ARTISTTRANSLIT:;
#CREDIT:Timer Rabbit;
#BANNER:RCR_bn.png;
#BACKGROUND:RCR_bg2.png;
#LYRICSPATH:;
#CDTITLE:timerrabbit.png;
#MUSIC:RCR.mp3;
#OFFSET:-0.060;
#SAMPLESTART:41.439;
#SAMPLELENGTH:12.000;
#SELECTABLE:YES;
#BPMS:0.000=145.000;
#STOPS:;
#BGCHANGES:;

//---------------dance-single - ----------------
#NOTES:
     dance-single:
     :
     Easy:
     3:
     0.251,0.297,0.084,0.334,0.000: // measure 1
0000
0000
0000
0000
,  // measure 2
0000
0000
0000
0000
,  // measure 3
0000
0000
0000
0000
,  // measure 4
0000
0000
0000
0000
,  // measure 5
0000
0001
0000
0001
,  // measure 6
0000
0010
0000
0010
,  // measure 7
0000
0100
0000
0100
,  // measure 8
0000
1000
0000
1000
,  // measure 9
0000
0100
0010
0010
,  // measure 10
0100
1000
0010
0010
,  // measure 11
0100
0001
1000
1000
,  // measure 12
0010
0100
0200
0300
,  // measure 13
0002
0000
0003
0001
,  // measure 14
2000
3000
0020
0030
,  // measure 15
0200
0000
0000
0300
,  // measure 16
0002
0003
2000
3000
,  // measure 17
0020
0030
0200
0300
,  // measure 18
0002
0003
0200
0300
,  // measure 19
2000
3000
0020
0030
,  // measure 20
0200
0300
0002
0003
,  // measure 21
1001
0000
0000
0000
,  // measure 22
0002
0003
0200
0300
,  // measure 23
0020
0000
0000
0030
,  // measure 24
2000
0000
0000
3000
,  // measure 25
0002
0003
2000
3000
,  // measure 26
0020
0030
0200
0300
,  // measure 27
0002
0003
0020
0030
,  // measure 28
0200
0300
2000
3000
,  // measure 29
1001
0000
0000
0000
,  // measure 30
0001
0001
1000
1000
,  // measure 31
0200
0000
0000
0300
,  // measure 32
0020
0000
0000
0030
,  // measure 33
1000
1000
0001
0001
,  // measure 34
0100
0100
0010
0010
,  // measure 35
1000
1000
0001
0001
,  // measure 36
0100
0200
0000
0310
,  // measure 37
0100
0000
0000
0000
,  // measure 38
0001
1000
1000
0100
,  // measure 39
0100
0010
0010
0001
,  // measure 40
2000
0000
0000
3000
,  // measure 41
0100
0010
0001
0100
,  // measure 42
1000
0100
0010
0100
,  // measure 43
0001
0010
1000
0100
,  // measure 44
0010
0002
0000
1003
,  // measure 45
0002
0000
0000
0003
,  // measure 46
1000
0100
0001
0010
,  // measure 47
0100
2000
0000
3000
,  // measure 48
0020
0000
0000
0030
,  // measure 49
0001
0100
0100
0010
,  // measure 50
0010
1000
1000
0001
,  // measure 51
0001
0100
0100
0010
,  // measure 52
0010
1000
1000
0002
,  // measure 53
0003
1000
0000
1000
,  // measure 54
0000
0001
0000
0001
,  // measure 55
0000
0010
0000
0010
,  // measure 56
0000
0100
0000
0100
,  // measure 57
0000
1000
0000
1000
,  // measure 58
0000
0001
0000
0001
,  // measure 59
0000
0100
0000
0010
,  // measure 60
0000
0010
0000
0100
,  // measure 61
1001
0000
0000
0000
,  // measure 62
0110
0000
0000
0000
,  // measure 63
1100
0000
0000
0000
,  // measure 64
0011
0000
1001
0110
,  // measure 65
1001
0000
0000
0000
;

//---------------dance-single - ----------------
#NOTES:
     dance-single:
     :
     Hard:
     7:
     0.472,0.535,0.297,0.697,0.000:
0000
0000
0000
0000
,
0000
0000
0000
0000
,
0000
0000
0000
0000
,
0000
0000
0000
0000
,
1000
0010
0100
0000
0001
0010
1000
0100
,
0010
0001
0100
0000
1000
0010
0001
0100
,
0010
1000
0100
0000
0100
0010
0001
0100
,
0010
0100
1000
0000
0010
0100
0010
0001
,
0100
0010
0100
0000
1000
0100
0010
0100
,
0001
0010
0001
0000
1000
0010
0001
0100
,
0001
1000
0001
0000
0001
0010
0100
1000
,
0100
0010
0100
0000
0001
1000
0001
0000
,
2001
0100
0001
3100
,
0002
1003
0200
0310
,
1002
0010
1000
0013
,
2000
3100
0020
0031
,
0022
0033
2200
3300
,
2020
3030
0202
0303
,
0220
0330
2002
3003
,
0002
0000
0003
1000
,
0102
1000
0100
1003
,
2000
3001
0200
0310
,
0020
0000
0130
0100
,
0210
0001
0010
0301
,
2000
3001
0200
0310
,
0002
0013
0200
1300
,
0002
0013
2000
3001
,
0200
0310
0200
0300
,
0220
0000
0000
0330
,
0200
0301
0020
1030
,
2001
0010
0001
3010
,
0102
1000
0100
1003
,
2000
3100
0020
0031
,
0200
0310
0002
0103
,
0020
1030
2000
3100
,
0020
0031
0200
0300
,
2200
0000
0000
3300
,
0200
0310
0002
0103
,
0020
0230
0000
0300
,
2001
0100
0001
3100
,
0002
0103
0200
0310
,
2000
3100
0020
0031
,
0200
1300
0020
0130
,
0200
0301
0020
0030
,
0022
0000
0000
0033
,
2000
3001
0020
0130
,
2010
0100
0010
0100
,
3020
0000
0000
0030
,
0102
0103
2010
3010
,
2100
3100
0012
0013
,
1002
1003
0210
0310
,
2002
0000
0000
3003
,
0110
0000
1000
0100
0010
0000
0001
0010
,
0100
0000
0100
0010
0001
0000
0010
0100
,
1000
0000
0010
0100
0001
0000
0100
0010
,
1000
0000
0100
0010
0100
0000
0010
0001
,
1000
0000
0100
0001
0100
0000
0010
0001
,
0010
0000
0100
1000
0100
0000
0010
1000
,
0100
0000
0010
0100
0001
0000
0100
0010
,
0100
0000
0100
0001
1000
0000
0010
0000
,
0110
1000
0001
1000
,
1001
1000
0010
0100
,
0101
0001
0010
1000
,
1010
0000
1001
0110
,
1001
0000
0000
0000
;

//---------------dance-single - ----------------
#NOTES:
     dance-single:
     :
     Medium:
     5:
     0.316,0.416,0.186,0.650,0.000:
0000
0000
0000
0000
,
0000
0000
0000
0000
,
0000
0000
0000
0000
,
0000
0000
0000
0000
,
1000
0000
0001
0000
1000
0100
1000
0000
,
0010
0100
0001
0001
,
0010
0000
1000
0000
0001
0010
0001
0000
,
0100
0001
1000
1000
,
0001
0000
0010
0000
0010
0100
0010
0000
,
0001
0100
1000
1000
,
0010
0000
0001
0000
1000
0001
1000
0000
,
0001
0100
0010
0010
,
2000
0000
0000
3000
,
0002
0003
0200
0300
,
0002
0000
0000
0003
,
2000
3000
0020
0030
,
0002
0003
2000
3000
,
0020
0030
0200
0300
,
0220
0330
2002
3003
,
0002
0000
0003
0000
,
0002
0000
0000
0003
,
2000
3000
0200
0300
,
0020
0000
0030
0000
,
0200
0000
0000
0300
,
2000
3000
0200
0300
,
0002
0003
0020
0030
,
0002
0003
2000
3000
,
0200
0300
0020
0030
,
0220
0000
0000
0330
,
0200
0300
0020
0030
,
2000
0000
0000
3000
,
0002
0000
0000
0003
,
2000
3000
0020
0030
,
0200
0300
0002
0003
,
0020
0030
2000
3000
,
0020
0030
0200
0300
,
2200
0000
0000
3300
,
0020
0030
0002
0003
,
0200
0000
0000
0300
,
2000
0000
0000
3000
,
0002
0003
0200
0300
,
2000
3000
0002
0003
,
0200
0300
0020
0030
,
0200
0300
0020
0030
,
0022
0000
0000
0033
,
2000
3000
0020
0030
,
2000
0000
0000
0000
,
3020
0000
0000
0030
,
0102
0003
2010
3000
,
2100
3000
0012
0003
,
1002
0003
0210
0300
,
2002
0000
0000
3003
,
0110
0001
1000
0100
,
0010
0001
0100
0010
,
1000
0100
0001
0100
,
0010
1000
0001
0100
,
1000
0001
0010
1000
,
1000
0001
0001
0010
,
0010
0100
0100
1000
,
1000
0001
0001
0010
,
0110
1000
0001
1000
,
1001
1000
0010
0100
,
0101
0001
0010
1000
,
1010
0000
1001
0110
,
1001
0000
0000
0000
;
