#TITLE:Party 4U;
#SUBTITLE:(Holy Nite Mix);
#ARTIST:Cranky;
#TITLETRANSLIT:;
#SUBTITLETRANSLIT:;
#ARTISTTRANSLIT:;
#CREDIT:Timer Rabbit;
#BANNER:party4u_bn.png;
#BACKGROUND:party4u_bg.png;
#LYRICSPATH:;
#CDTITLE:timerrabbit.png;
#MUSIC:party4u.mp3;
#OFFSET:0.000;
#SAMPLESTART:37.500;
#SAMPLELENGTH:12.000;
#SELECTABLE:YES;
#BPMS:0.000=159.000;
#STOPS:;
#BGCHANGES:;

//---------------dance-single - ----------------
#NOTES:
     dance-single:
     :
     Easy:
     3:
     0.242,0.416,0.190,0.123,0.000: // measure 1
0000
0000
0000
0000
,  // measure 2
0000
0000
0000
0000
,  // measure 3
0000
0000
0000
0000
,  // measure 4
0000
0000
0000
0000
,  // measure 5
0000
0000
0000
0000
,  // measure 6
0000
0000
0000
0000
,  // measure 7
0000
0000
0000
0000
,  // measure 8
0000
0000
0000
0000
,  // measure 9
0000
0000
0000
0000
,  // measure 10
1000
1000
1000
0000
,  // measure 11
0000
0000
0000
0000
,  // measure 12
0000
0000
0000
0000
,  // measure 13
0000
0000
0000
0000
,  // measure 14
0001
0001
0000
0000
,  // measure 15
0000
0000
0002
0000
,  // measure 16
0000
0000
0000
0000
,  // measure 17
0000
0000
0000
0000
0003
2000
0000
0000
,  // measure 18
0000
0000
3000
0000
,  // measure 19
0001
0001
0001
0001
,  // measure 20
0002
0000
0000
0003
,  // measure 21
1000
1000
1000
1000
,  // measure 22
2000
0000
0000
3000
,  // measure 23
0100
0100
0100
0100
,  // measure 24
0200
0000
0000
0300
,  // measure 25
0010
0010
0010
0010
,  // measure 26
0020
0000
0000
0030
,  // measure 27
1001
1001
1001
1001
,  // measure 28
1000
1000
1000
1000
,  // measure 29
0001
0001
0001
0001
,  // measure 30
0010
0010
0010
0010
,  // measure 31
0100
0100
0100
0100
,  // measure 32
0010
1000
0010
1000
,  // measure 33
0100
0001
0100
0001
,  // measure 34
0010
0001
0010
0001
,  // measure 35
0100
1000
0100
1000
,  // measure 36
1000
0100
0010
0001
,  // measure 37
0000
0000
0000
0000
,  // measure 38
0001
0010
0100
1000
,  // measure 39
0000
0000
0000
0000
,  // measure 40
1000
0010
0100
0001
,  // measure 41
0000
0000
0000
0000
,  // measure 42
0001
0100
0010
1000
,  // measure 43
1001
1001
1001
1001
,  // measure 44
0200
0000
0000
0300
,  // measure 45
0020
0000
0000
0000
,  // measure 46
0030
0002
0000
0000
0000
0000
0003
0000
,  // measure 47
1000
1000
1000
1000
,  // measure 48
0100
0100
0100
0100
,  // measure 49
0010
0010
0010
0010
,  // measure 50
0001
0001
0001
0001
,  // measure 51
1000
1000
1000
1000
,  // measure 52
0100
0010
0001
0100
,  // measure 53
1000
1000
1000
0000
,  // measure 54
0001
0010
0100
1000
,  // measure 55
0100
0100
0100
0000
,  // measure 56
0010
0001
0100
0010
,  // measure 57
0001
0001
0001
0000
,  // measure 58
0010
1000
0100
0010
,  // measure 59
1000
1000
1000
0000
,  // measure 60
1001
0000
0000
0000
,  // measure 61
0110
0000
0000
0000
,  // measure 62
1001
0000
0000
0000
,  // measure 63
0110
0110
0110
0110
,  // measure 64
0011
0000
0000
0000
,  // measure 65
1100
0000
0000
0000
,  // measure 66
1010
0000
0000
0000
,  // measure 67
2002
0000
3003
0220
,  // measure 68
0000
0000
0330
0000
;

//---------------dance-single - ----------------
#NOTES:
     dance-single:
     :
     Hard:
     8:
     0.532,0.640,0.654,0.095,0.142:
0000
0000
0000
0000
,
0000
0000
0000
0000
,
0000
0000
0000
0000
,
0000
0000
0000
0000
,
0000
0000
0000
0000
,
0000
0000
0000
0000
,
0000
0000
0000
0000
,
0000
0000
0000
0000
,
0000
0000
0000
0000
,
1000
0100
0010
0001
0000
0000
0000
1000
,
0010
1000
0000
0001
0100
0001
0000
0010
,
1000
0010
0000
0100
0001
0100
0000
1000
,
0010
1000
0000
0001
0100
0001
0000
0000
,
0001
0010
0100
1000
0000
0000
0000
1000
,
0100
1000
0000
0010
0001
0010
0000
1000
,
0100
1000
0000
0010
0001
0010
0000
1000
,
0100
1000
0000
0010
0001
0010
2000
0000
,
0000
0000
0000
3000
0000
0000
0000
0000
,
0011
0011
0011
0011
,
0001
0010
0001
0000
0001
0000
0001
0000
,
1100
1100
1100
1100
,
1000
0100
1000
0000
1000
0000
1000
0000
,
1010
1010
1010
1010
,
1000
0010
1000
0000
1000
0000
1000
0000
,
0101
0101
0101
0101
,
0001
0100
0001
0000
0001
0000
0001
0000
,
1001
1001
1001
1001
,
1100
0000
0000
0100
0000
0000
1000
0000
0000
0100
0000
0000
1000
0000
0000
0000
,
0101
0000
0000
0001
0000
0000
0100
0000
0000
0001
0000
0000
0100
0000
0000
0000
,
0011
0000
0000
0001
0000
0000
0010
0000
0000
0001
0000
0000
0010
0000
0000
0000
,
1010
0000
0000
0010
0000
0000
1000
0000
0000
0010
0000
0000
1000
0000
0000
0000
,
1001
0000
0000
0001
0000
0000
1000
0000
0000
0001
0000
0000
1000
0000
0000
0000
,
0110
0000
0000
0100
0000
0000
0010
0000
0000
0100
0000
0000
0010
0000
0000
0000
,
1001
0000
0000
1000
0000
0000
0001
0000
0000
1000
0000
0000
0001
0000
0000
0000
,
0220
0000
0000
0000
0000
0000
0000
0330
,
1000
0100
0010
0001
0010
0100
1000
0000
,
0001
0010
0001
0010
0100
1000
0100
1000
,
0001
0010
0100
1000
0100
0010
0001
0000
,
1000
0100
1000
0100
0010
0001
0010
0001
,
1000
0100
0010
0001
0010
0100
1000
0000
,
0001
0100
0001
0100
0010
1000
0010
1000
,
0001
0010
0100
1000
0100
0010
0001
0000
,
0001
0010
0001
0010
0100
1000
0100
1000
,
1001
0001
1000
0002
0000
0000
0003
0000
,
0110
0100
0010
0200
0000
0000
0000
0300
,
1001
1000
0001
2000
0000
0000
0000
3000
,
0110
0110
0110
0110
,
0001
0100
0001
0100
0001
0100
0001
0100
,
0101
1000
0010
1000
0010
1000
0010
1000
,
1010
1000
0100
1000
0100
1000
0100
1000
,
1100
0001
0010
0001
0010
0001
0010
0001
,
0011
0000
0000
1100
0000
0000
0101
0000
0000
1010
0000
0000
1001
0000
0000
0001
,
0000
0000
0001
0000
0000
0001
0000
0000
0000
0000
0000
0000
0000
0000
0000
0000
,
1100
0000
0000
0101
0000
0000
0011
0000
0000
1100
0000
0000
0110
0000
0000
0100
,
0000
0000
0100
0000
0000
0100
0000
0000
0000
0000
0000
0000
0000
0000
0000
0000
,
0101
0000
0000
1010
0000
0000
1100
0000
0000
0011
0000
0000
1001
0000
0000
1000
,
0000
0000
1000
0000
0000
1000
0000
0000
0000
0000
0000
0000
0000
0000
0000
0000
,
1100
0000
0000
0011
0000
0000
1010
0000
0000
0101
0000
0000
0110
0000
0000
0010
,
0000
0000
0010
0000
0000
0010
0000
0000
0000
0000
0000
0000
0000
0000
0000
0000
,
1000
0100
1000
0010
0001
0010
0100
0010
,
1001
0001
0010
0001
0100
1000
0100
0010
,
1001
0100
0010
0100
0001
1000
0001
0100
,
1001
0110
0110
0110
,
1001
1000
0100
0010
0001
0010
0100
1000
,
1001
0001
0010
0100
1000
0100
0010
0001
,
1001
0001
1000
0001
0100
0010
0100
0000
,
2002
0000
0000
0000
0000
3003
0220
0000
,
0000
0000
0330
0000
;

//---------------dance-single - ----------------
#NOTES:
     dance-single:
     :
     Medium:
     5:
     0.387,0.512,0.265,0.123,0.156:
0000
0000
0000
0000
,
0000
0000
0000
0000
,
0000
0000
0000
0000
,
0000
0000
0000
0000
,
0000
0000
0000
0000
,
0000
0000
0000
0000
,
0000
0000
0000
0000
,
0000
0000
0000
0000
,
0000
0000
0000
0000
,
1000
0100
0010
0001
,
0001
0001
0001
0001
,
1000
1000
1000
1000
,
0100
0100
0100
0100
,
0001
0010
0100
1000
,
1000
1000
1000
1000
,
0001
0001
0001
0001
,
0001
0010
0010
0020
,
0030
0000
0000
0000
,
0001
0001
0001
0001
,
0001
0010
0001
0000
0001
0000
0001
0000
,
1000
1000
1000
1000
,
1000
0100
1000
0000
1000
0000
1000
0000
,
0100
0100
0100
0100
,
0100
0010
0100
0000
0100
0000
0100
0000
,
0010
0010
0010
0010
,
0010
0100
0010
0000
0010
0000
0010
0000
,
1001
1001
1001
1001
,
1000
0000
0100
0000
0000
1000
0000
0000
1000
0000
0000
1000
0000
0000
0010
0000
,
0001
0000
0000
0100
0000
0000
0100
0000
0000
0100
0000
0000
0001
0000
0100
0000
,
0000
0010
0000
0000
0010
0000
0000
0010
0000
0000
0010
0000
0000
0000
0000
0000
,
1001
1001
1001
1001
,
1000
0000
0100
0000
0001
0000
0000
0001
0000
0000
0001
0000
0000
0001
0000
0000
,
0001
0000
0010
0000
1000
0000
0000
1000
0000
0000
1000
0000
0000
1000
0000
0000
,
1000
0000
0010
0000
0100
0000
0000
0100
0000
0000
0100
0000
0000
0100
0000
0000
,
2002
0000
0000
3003
,
1000
0010
0100
0001
,
1000
1000
1000
1000
,
0001
0100
0010
1000
,
0001
0001
0001
0001
,
0010
0100
1000
0001
,
0100
0100
0100
0100
,
0100
0010
0001
1000
,
0010
0010
0010
0010
,
2001
0001
0001
3001
,
0120
0100
0100
0130
,
1002
1000
1000
1003
,
0110
0110
0110
0110
,
1000
0100
0001
0000
0001
0000
0001
0000
,
0001
0010
1000
0000
1000
0000
1000
0000
,
1000
0100
0010
0000
0010
0000
0010
0000
,
0010
0001
0100
0000
0100
0000
0100
0000
,
1000
0000
0000
0001
0000
0000
1000
0000
0000
0001
0000
0000
1000
0000
0000
0001
,
0000
0000
1000
0000
0000
1000
0000
0000
1000
0000
0000
0000
0000
0000
0000
0000
,
0100
0000
0000
0010
0000
0000
0100
0000
0000
0010
0000
0000
0100
0000
0000
0010
,
0000
0000
0010
0000
0000
0010
0000
0000
0000
0000
0000
0000
0000
0000
0000
0000
,
1000
0000
0000
0001
0000
0000
1000
0000
0000
0001
0000
0000
1000
0000
0000
0000
,
0001
0000
0000
0001
0000
0000
0001
0000
0000
0000
0000
0000
0000
0000
0000
0000
,
0100
0000
0000
0010
0000
0000
0100
0000
0000
0010
0000
0000
0100
0000
0000
0010
,
0000
0000
0010
0000
0000
0010
0000
0000
0000
0000
0000
0000
0000
0000
0000
0000
,
1001
0000
0000
0010
0000
0000
0100
0000
0000
1000
0000
0000
0100
0000
0000
0000
,
0110
0000
0000
0010
0000
0000
0001
0000
0000
0100
0000
0000
1000
0000
0000
0000
,
1001
0000
0000
0010
0000
0000
0100
0000
0000
1000
0000
0000
0100
0000
0000
0000
,
0110
0110
0110
0110
,
2100
0100
0100
3100
,
2001
0001
0001
3001
,
0012
0010
0010
0013
,
2002
0000
0000
0000
0000
3003
0220
0000
,
0000
0000
0330
0000
;
