#TITLE:Over the Rainbow;
#SUBTITLE:;
#ARTIST:A-Moe;
#TITLETRANSLIT:;
#SUBTITLETRANSLIT:;
#ARTISTTRANSLIT:;
#CREDIT:Timer Rabbit;
#BANNER:overtherainbow_bn.png;
#BACKGROUND:overtherainbow_bg.png;
#LYRICSPATH:;
#CDTITLE:timerrabbit.png;
#MUSIC:overrainbow.mp3;
#OFFSET:0.000;
#SAMPLESTART:42.857;
#SAMPLELENGTH:12.000;
#SELECTABLE:YES;
#BPMS:0.000=140.000;
#STOPS:;
#BGCHANGES:;

//---------------dance-single - ----------------
#NOTES:
     dance-single:
     :
     Challenge:
     10:
     0.540,0.627,0.828,0.439,0.343: // measure 1
0000
0000
0000
0000
,  // measure 2
0000
0000
0000
0000
,  // measure 3
0000
0000
0000
0000
,  // measure 4
0000
0000
0000
0000
,  // measure 5
0000
0000
0000
0000
,  // measure 6
0000
0000
0000
0000
,  // measure 7
0000
0000
0000
0000
,  // measure 8
0000
0000
0000
0000
,  // measure 9
0000
0000
0000
0000
,  // measure 10
2200
3300
0022
0033
,  // measure 11
0102
0000
0000
0000
0013
0000
0000
0000
1000
0100
0000
0000
0020
0000
0000
0000
,  // measure 12
0030
0000
0202
0303
,  // measure 13
0010
2200
0000
0000
0000
0000
3300
0000
,  // measure 14
0220
0330
2002
3003
,  // measure 15
2100
0000
0000
0000
3010
0001
0000
0000
0100
0000
0000
0000
0010
0000
0000
0000
,  // measure 16
0101
0000
0000
0000
0010
1000
0000
0000
0200
0000
0000
0000
0320
0000
0000
0000
,  // measure 17
0032
0000
0000
0000
0000
0000
0003
0000
1000
0001
1000
0001
1000
0000
0000
0000
,  // measure 18
2002
0000
0000
3003
1000
0001
1000
0000
,  // measure 19
1000
0001
0000
0000
0001
1000
0000
0000
1000
0001
0000
0000
0000
0000
0000
0000
,  // measure 20
0110
1001
0220
0000
,  // measure 21
0000
0330
0000
0000
,  // measure 22
1100
0000
1100
0000
1100
0000
1100
0110
,  // measure 23
0011
0000
0011
0000
0011
0000
0011
0101
,  // measure 24
1001
0000
1001
0000
1001
0000
1001
0110
,  // measure 25
1100
0000
1100
0000
1100
0000
1100
0110
,  // measure 26
0011
0000
0011
0000
0011
0000
0011
1001
,  // measure 27
0110
0000
0110
0000
0110
0000
0110
1001
,  // measure 28
1100
0000
1100
0000
1100
0000
1100
0110
,  // measure 29
0011
0011
0011
0011
,  // measure 30
1000
0100
0000
0000
1000
0100
0000
0000
1000
0100
0000
0000
1000
0100
0000
0000
,  // measure 31
0010
0001
0000
0000
0010
0001
0000
0000
0010
0001
0000
0000
0010
0001
0000
0000
,  // measure 32
0001
0100
0000
0000
0001
0100
0000
0000
0001
0100
0000
0000
0001
0100
0000
0000
,  // measure 33
0010
1000
0000
0000
0010
1000
0000
0000
0010
1000
0000
0000
0010
1000
0000
0000
,  // measure 34
0010
0100
0000
0000
0010
0100
0000
0000
0010
0100
0000
0000
0010
0100
0000
0000
,  // measure 35
0001
0100
0000
0000
0001
0100
0000
0000
0001
0100
0000
0000
0001
0100
0000
0000
,  // measure 36
0010
1000
0000
0000
0100
0010
0000
0000
0001
0100
0000
0000
0100
0010
0000
0000
,  // measure 37
1001
0110
1001
1100
,  // measure 38
0220
0330
0202
0303
,  // measure 39
0012
0000
0000
0000
0013
0000
0000
0000
1000
0100
0000
0000
0202
0000
0000
0000
,  // measure 40
0303
0000
0220
0330
,  // measure 41
0001
2002
0000
0000
0000
0000
3003
0000
,  // measure 42
0202
0303
2200
3300
,  // measure 43
0210
0000
0000
0000
0301
0100
0000
0000
1000
0000
0000
0000
0010
0000
0000
0000
,  // measure 44
0110
0000
0000
0000
0100
0010
0000
0000
0002
0000
0000
0000
0203
0000
0000
0000
,  // measure 45
0320
0000
0030
0000
,  // measure 46
0202
0303
2020
3030
,  // measure 47
2100
0000
0000
0000
3100
0000
0000
0000
0100
0010
0000
0000
0022
0000
0000
0000
,  // measure 48
0033
0000
0202
0303
,  // measure 49
0100
0220
0000
0000
0000
0000
0330
0000
,  // measure 50
2200
3300
0202
0303
,  // measure 51
2001
0000
0000
0000
3001
0100
0000
0000
1000
0000
0000
0000
0001
0000
0000
0000
,  // measure 52
1001
0000
0000
0000
0001
0100
0000
0000
2000
0000
0000
0000
3020
0000
0000
0000
,  // measure 53
0230
0000
0300
0000
,  // measure 54
2002
0000
0000
3003
,  // measure 55
0000
0000
0000
0000
1000
0001
1000
0001
1000
0001
0000
0000
0101
0000
0000
0000
,  // measure 56
0010
1000
0000
0000
0000
0000
0000
0000
0100
0010
0000
0000
0010
0100
0000
0000
,  // measure 57
0000
0000
0000
0000
1000
0001
0000
0000
0001
1000
0000
0000
1000
0001
0000
0000
,  // measure 58
0000
0000
0000
0000
1100
0000
0000
0000
0010
0001
0000
0000
0000
0000
0000
0000
,  // measure 59
0000
0000
0100
0010
0100
0010
0100
0010
0000
0000
0000
0000
1001
0000
0000
0000
,  // measure 60
1000
0001
0000
0000
0000
0000
0000
0000
0001
0100
0000
0000
0100
0001
0000
0000
,  // measure 61
0000
0000
0000
0000
0001
1000
0000
0000
1000
0001
0000
0000
0001
1000
0000
0000
,  // measure 62
0000
0000
0000
0000
1100
0000
0000
0000
0100
0010
0000
0000
0000
0000
0000
0000
,  // measure 63
0000
0000
0001
1000
0001
1000
0001
1000
0000
0000
0000
0000
2100
0000
0000
0000
,  // measure 64
0100
3100
0000
0000
0000
0000
0000
0000
1000
0100
0000
0000
0100
1000
0000
0000
,  // measure 65
0000
0000
0000
0000
0001
0001
0000
0000
0001
0001
0000
0000
0001
0001
0000
0000
,  // measure 66
0000
0000
0000
0000
0102
0000
0000
0000
0100
0103
0000
0000
0000
0000
0000
0000
,  // measure 67
0000
0000
0000
0000
1000
0100
1000
0100
1000
0100
0000
0000
0210
0000
0000
0000
,  // measure 68
0010
0310
0000
0000
0000
0000
0000
0000
0010
0100
0000
0000
0100
0010
0000
0000
,  // measure 69
0000
0000
0000
0000
1000
1000
0000
0000
1000
1000
0000
0000
1000
1000
0000
0000
,  // measure 70
0000
0000
0000
0000
2001
0000
0000
0000
0001
3001
0000
0000
0000
0000
0000
0000
,  // measure 71
0000
0000
0000
0000
0100
0010
0100
0010
0100
0010
0000
0000
0000
0000
0000
0000
,  // measure 72
0102
0100
0103
0000
2010
0010
3010
0000
,  // measure 73
1000
0001
0000
0000
0001
1000
0000
0000
1000
0001
0000
0000
0001
1000
0000
0000
,  // measure 74
0000
0000
0102
0103
,  // measure 75
2010
0010
0010
3010
,  // measure 76
2100
0100
3100
0000
0012
0010
0013
0000
,  // measure 77
0001
0100
0000
0000
0100
0001
0000
0000
0001
0100
0000
0000
0100
0001
0000
0000
,  // measure 78
1100
0000
0000
0000
0100
0010
0100
0000
0101
0000
0000
0000
1010
0000
0000
0000
,  // measure 79
2200
0000
3300
0000
,  // measure 80
1000
0100
1000
0000
0001
0100
0001
0000
,  // measure 81
1001
0110
1001
0110
,  // measure 82
0000
0000
2100
3100
,  // measure 83
0012
0010
0010
0013
,  // measure 84
0001
0010
0001
0000
1000
0100
1000
0000
,  // measure 85
0110
1001
0110
1001
,  // measure 86
0001
1000
1010
0101
,  // measure 87
0220
0000
0000
0000
0330
0000
0000
0000
0100
0010
0100
0010
0100
0010
0000
0000
,  // measure 88
0010
1000
0000
0000
0010
1000
0000
0000
0010
1000
0000
0000
0010
1000
0000
0000
,  // measure 89
1000
0100
0000
0000
1000
0100
0000
0000
1000
0100
0000
0000
1000
0100
0000
0000
,  // measure 90
0010
0001
0000
0000
0010
0001
0000
0000
0010
0001
0000
0000
0010
0001
0000
0000
,  // measure 91
0001
0100
0000
0000
0001
0100
0000
0000
0001
0100
0000
0000
0001
0100
0000
0000
,  // measure 92
1000
0100
0000
0000
1000
0100
0000
0000
1000
0100
0000
0000
1000
0100
0000
0000
,  // measure 93
0010
0001
0000
0000
0010
0001
0000
0000
0010
0001
0000
0000
0010
0001
0000
0000
,  // measure 94
0001
0100
0000
0000
0010
1000
0000
0000
0100
0010
0000
0000
0010
0001
0000
0000
,  // measure 95
1001
0110
1001
0110
,  // measure 96
1100
0000
1100
0000
1100
0000
1100
0110
,  // measure 97
0011
0000
0011
0000
0011
0000
0011
0101
,  // measure 98
0110
0000
0110
0000
0110
0000
0110
1100
,  // measure 99
1001
0000
1001
0000
1001
0000
1001
1100
,  // measure 100
0101
0000
0101
0000
0101
0000
0101
0011
,  // measure 101
1100
0000
1100
0000
1100
0000
1100
1001
,  // measure 102
0011
0011
0011
0011
,  // measure 103
1001
0110
1001
1001
,  // measure 104
2002
0000
0000
0000
,  // measure 105
3003
0000
0000
0000
;
