#TITLE:Over the Night;
#SUBTITLE:(Lady Metal);
#ARTIST:Good-Cool;
#TITLETRANSLIT:;
#SUBTITLETRANSLIT:;
#ARTISTTRANSLIT:;
#CREDIT:Timer Rabbit;
#BANNER:overthenight_bn.PNG;
#BACKGROUND:overthenight_bg.PNG;
#LYRICSPATH:;
#CDTITLE:timerrabbit.png;
#MUSIC:overthenight.mp3;
#OFFSET:0.000;
#SAMPLESTART:48.387;
#SAMPLELENGTH:12.000;
#SELECTABLE:YES;
#BPMS:0.000=124.000;
#STOPS:;
#BGCHANGES:;

//---------------dance-single - ----------------
#NOTES:
     dance-single:
     :
     Easy:
     4:
     0.268,0.322,0.050,0.377,0.010: // measure 1
0000
0000
0000
0000
,  // measure 2
0000
0000
0000
1000
0000
1000
0000
1000
,  // measure 3
0000
1000
0000
0001
0000
0001
0000
0001
,  // measure 4
0000
0001
0000
0100
0000
0100
0000
0100
,  // measure 5
0000
0100
0000
0002
0000
0003
2000
0000
,  // measure 6
3000
0000
0000
0010
0000
0010
0000
0010
,  // measure 7
0000
0010
0000
1000
0000
1000
0000
1000
,  // measure 8
0000
1000
0000
0100
0000
0100
0000
0100
,  // measure 9
0000
0100
0000
0020
0000
0030
0200
0000
,  // measure 10
0300
0000
0000
1000
0000
0001
0000
1000
,  // measure 11
0000
0000
0000
0100
0000
0010
0000
0001
,  // measure 12
0000
1000
0000
0000
0000
0000
0000
0100
,  // measure 13
0000
0001
0000
0100
0000
0010
0000
1000
,  // measure 14
0000
2000
0000
3000
0000
0001
0000
0010
,  // measure 15
0000
0001
0000
1000
0000
0100
0000
0001
,  // measure 16
0000
0010
0000
0000
0000
0000
0000
0001
,  // measure 17
0000
0010
0000
0001
0000
1000
0000
0100
,  // measure 18
0000
0200
0000
0300
0002
0000
0003
0000
,  // measure 19
1000
0100
1000
0010
,  // measure 20
0000
2000
3000
0001
,  // measure 21
0010
0001
0100
0010
,  // measure 22
0100
0000
0000
1001
0000
0000
2000
0000
0000
0000
3000
0000
0000
0000
0001
0000
,  // measure 23
0000
0100
0000
0010
0000
2000
3000
0002
,  // measure 24
0003
0200
0000
0300
0020
0000
0030
2000
,  // measure 25
0000
3000
0002
0000
0000
0000
0000
0003
,  // measure 26
0000
1000
0001
1000
,  // measure 27
0000
0100
0000
0010
0000
0100
0000
0000
,  // measure 28
0010
0000
0001
0000
0020
0000
0000
0030
,  // measure 29
0000
0000
2000
3000
0002
0003
0200
0000
,  // measure 30
0000
0300
0000
1000
0000
0010
0000
1000
,  // measure 31
0000
0100
0001
0100
,  // measure 32
0000
0010
0000
0100
0000
0002
0000
0000
,  // measure 33
0000
0000
0000
0003
0000
0000
0000
1001
,  // measure 34
0000
2002
0000
0000
,  // measure 35
0000
0000
0000
0000
,  // measure 36
0000
0000
0000
0000
0000
3003
0000
0000
,  // measure 37
0000
0002
0000
0000
0003
2000
0000
0000
,  // measure 38
3000
0001
0001
0001
,  // measure 39
0001
1000
1000
1000
,  // measure 40
1000
0000
0200
0300
0020
0030
0200
0300
,  // measure 41
0002
0000
0003
0000
2000
0000
3000
0000
0002
0000
0003
0000
1000
0000
0000
0001
,  // measure 42
0000
0110
0000
0001
0000
0100
0000
0001
,  // measure 43
0000
0010
0000
1000
0000
0010
0000
0100
,  // measure 44
0000
1000
0000
0100
0000
0010
0000
0001
,  // measure 45
0000
0010
2000
0000
3000
0002
0000
0003
,  // measure 46
0000
0100
0001
0100
,  // measure 47
0001
1000
0010
1000
,  // measure 48
0010
0000
0002
0000
0000
0003
2000
0000
,  // measure 49
0000
3000
0000
0220
0000
0000
0330
0000
,  // measure 50
0000
2000
0002
0000
0000
0000
0000
3003
;

//---------------dance-single - ----------------
#NOTES:
     dance-single:
     :
     Medium:
     7:
     0.329,0.322,0.030,0.258,0.089:
0000
0000
0000
0000
,
0000
0000
0000
1000
0000
1000
0000
1000
,
0000
2000
3000
0001
0000
0001
0000
0001
,
0000
0002
0003
0100
0000
0100
0000
0100
,
0000
0200
0300
1000
0100
1000
0000
0010
,
0001
0010
0000
0010
0000
0010
0000
0010
,
0000
0020
0030
0001
0000
0001
0000
0001
,
0000
0002
0003
0100
0000
0100
0000
0100
,
0000
0200
0300
1000
0010
1000
0000
0010
,
0001
0010
0000
1000
0100
1000
0000
0000
,
0000
0000
0000
0001
0000
0010
0000
0001
,
0000
0100
0000
0000
0000
0000
0000
1000
,
0010
1000
0000
0010
0000
0100
0000
0001
,
0000
0100
0000
0001
0010
0001
0000
0000
,
0000
0000
0000
1000
0000
0010
0000
1000
,
0000
0100
0000
0000
0000
0000
0000
0001
,
0100
0001
0000
0010
0000
1000
0000
0100
,
0000
1000
0000
0001
1000
0001
0000
0001
,
0000
1000
0000
0100
0000
0010
0000
0001
,
0000
0000
0000
0100
0010
0100
0000
1000
,
0000
0001
0000
0010
0000
0100
0000
1000
,
0000
0001
0000
1000
0000
0000
1000
0000
0010
0000
1000
0000
0000
0000
0100
0000
,
0000
0010
0000
1000
0000
0001
0000
0100
,
0000
0000
0000
0000
1000
0000
0000
0001
0000
0000
1000
0000
0000
0100
0000
0000
,
0010
0000
0000
2002
0000
0000
0000
0000
0000
0000
0000
0000
0000
0000
3003
0000
,
0000
0000
0001
1000
0001
1000
0001
2000
,
3000
0000
0100
0010
0100
0010
0100
0020
,
0030
0000
0000
0000
0001
0000
0000
0100
0000
0000
2000
0000
0000
0000
0000
0000
,
3000
0000
2000
3000
0200
0300
0002
0000
,
0000
0003
0010
0001
0010
0001
0020
0030
,
0000
0000
1000
0100
1000
0100
2000
3000
,
0000
0000
0001
0000
0000
1000
0000
0000
0002
0000
0000
0000
0000
0000
0000
0000
,
0000
0003
0000
0000
0000
0000
0000
0110
,
0000
2002
0000
0000
0000
0000
0000
0000
,
0000
3003
0000
0001
0000
0001
0000
0001
,
0000
0002
0003
1000
0000
1000
0000
1000
,
0000
2000
3000
0010
0001
0010
0000
1000
,
0100
1000
0000
0001
0000
0100
0000
1000
,
0000
2000
0000
3000
0000
1000
0000
0100
,
0000
0002
0000
0003
0000
0001
0000
0010
,
0000
0000
2000
0000
0000
0000
3000
0000
0000
0000
0000
0000
0001
0000
0000
1000
,
0000
0001
0000
1000
0100
1000
0000
0010
,
0001
0010
0000
0010
1000
0010
0000
0100
,
0001
0100
0000
1000
0100
0001
0000
0001
,
0010
1000
0000
1000
0010
0001
0000
0001
,
0100
0000
1000
0000
0000
1000
0000
0000
0000
0001
0000
0000
0000
0100
0000
0010
,
0000
0100
0000
0000
0000
0010
0000
0000
0000
0100
0000
0000
0000
0001
0000
1000
,
0000
0001
0000
0000
0000
0000
1000
0000
0100
0000
1000
0000
0000
0000
0010
0000
,
0001
0010
0000
0001
1000
0001
1000
0001
,
0000
2000
0002
0000
0000
0000
0000
3003
;

//---------------dance-single - ----------------
#NOTES:
     dance-single:
     :
     Hard:
     8:
     0.463,0.470,0.129,0.516,0.089:
0000
0000
0000
0000
,
0000
0000
0000
1000
0000
1000
0000
1000
,
0000
2000
3000
0001
0000
0001
0000
0001
,
0000
0002
0003
0100
0000
0100
0000
0100
,
0000
0000
0200
0000
0300
0000
0100
0010
0100
0010
0100
0000
0000
0000
0001
1000
,
0001
1000
0001
0000
0000
0000
0010
0000
0000
0000
0010
0000
0000
0000
0010
0000
,
0000
0020
0030
1000
0000
1000
0000
1000
,
0000
2000
3000
0001
0000
0001
0000
0001
,
0000
0000
0002
0000
0003
0000
1000
0100
1000
0100
1000
0000
0000
0000
0010
0001
,
0010
0001
0010
0000
0000
0000
0000
0000
1000
0000
0100
0000
0010
0000
0002
0000
,
0003
0002
0003
0001
0100
0010
2000
3200
,
0320
0000
0000
0030
0000
0000
0000
0010
,
0100
0010
0100
0010
0100
0010
0001
1000
,
0001
1000
0001
0000
0001
0010
1000
0200
,
0300
0200
0300
0010
0001
0100
0200
2300
,
3002
0000
0003
0002
0000
0000
0003
0000
0000
0000
0000
0000
0000
0000
0100
0000
,
1000
0100
1000
0100
1000
0100
0010
0001
,
0010
0001
0000
0001
0100
1100
0000
1000
,
0100
0010
0001
0010
0100
2000
3000
0002
,
0003
0000
0000
0100
0010
0011
0000
0001
,
0010
0100
1000
0100
0010
0002
0003
2000
,
3000
0002
0003
0010
0100
1001
0000
0001
,
0010
1000
0100
0010
0001
0200
0300
2000
,
3000
0000
0000
0000
0001
0000
0000
1000
0000
0000
0001
0000
0000
0100
0000
0000
,
0010
0002
0000
0000
0000
0000
0000
0003
,
0000
0000
0001
0010
0001
0010
0002
0003
,
2000
3000
0100
1000
0100
1000
0200
0300
,
0020
0130
0010
0100
,
0000
0011
1100
0101
,
1000
0010
0001
1000
0010
1000
0020
0030
,
0002
0003
0100
0001
0100
0001
0200
0300
,
0020
0000
0030
0000
1000
0000
0000
0001
0000
0000
2000
0000
0000
0000
0000
0000
,
0000
0000
0000
3000
0000
0000
0000
0020
,
2030
0000
3000
0100
0000
0002
1000
0000
0000
0000
1000
0000
0000
0000
1000
0000
,
0000
2000
3000
0100
0000
0100
0000
0100
,
0000
0200
0300
0010
0000
0010
0000
0013
,
0000
0000
0020
0000
0030
0000
1000
0010
1000
0010
1000
0000
0000
0000
0100
0001
,
0100
0001
0100
0000
0000
0000
1000
0000
0100
0000
1000
0000
0100
0000
0010
0000
,
0001
0010
0001
0010
1000
0010
1000
0010
,
1000
0100
0002
0203
0320
2030
3000
0002
,
0000
0000
0000
2003
0000
0000
0000
0000
,
0000
0000
3000
0010
0100
0010
0100
0010
,
0001
1000
0001
1000
0100
0001
0100
0002
,
0003
2000
3000
0200
0300
0020
0030
0001
,
0010
0001
1000
0010
1000
0100
0010
0100
,
0000
1100
1100
1100
,
1000
0001
1000
0000
0011
0000
0011
0000
,
0011
0000
0100
0010
0100
0010
0100
0001
,
1000
0001
1000
0100
0001
0100
0001
0000
,
0110
2000
0002
0000
0000
0000
0000
3003
;
