#TITLE:Otome Rumba;
#SUBTITLE:(Hanya~ Hanya~ Remix (V2));
#ARTIST:RuRuRu SYSTEM;
#TITLETRANSLIT:;
#SUBTITLETRANSLIT:;
#ARTISTTRANSLIT:;
#CREDIT:Timer Rabbit;
#BANNER:CHhanya_bn.PNG;
#BACKGROUND:CHhanya_bg.PNG;
#LYRICSPATH:;
#CDTITLE:timerrabbit.png;
#MUSIC:chibikkohanya.mp3;
#OFFSET:0.000;
#SAMPLESTART:131.686;
#SAMPLELENGTH:12.000;
#SELECTABLE:YES;
#BPMS:0.000=168.000;
#STOPS:253.500=0.200
,254.500=0.200
,255.500=0.200
,315.500=0.500
,316.500=0.500
,343.500=1.800
,419.500=0.400
,421.000=0.300
,478.000=0.200
,479.000=0.200
,480.000=0.940
,602.500=0.200
,603.500=0.200
,604.500=0.200
,605.500=0.200
,606.500=0.200
;
#BGCHANGES:;

//---------------dance-single - ----------------
#NOTES:
     dance-single:
     :
     Challenge:
     9:
     0.436,0.554,0.233,0.304,0.020: // measure 1
0000
0000
0000
0000
,  // measure 2
0000
0000
0000
0000
,  // measure 3
0000
0000
0000
0000
,  // measure 4
0000
0000
0000
0000
,  // measure 5
0000
0000
0000
0000
,  // measure 6
0000
0011
0000
1100
,  // measure 7
0000
2000
3020
0000
,  // measure 8
0030
0000
0000
0000
,  // measure 9
0000
0000
0000
0000
,  // measure 10
0000
0101
0000
1010
,  // measure 11
0000
0100
0002
0000
,  // measure 12
0003
0000
1000
0100
0010
0001
0010
0100
,  // measure 13
1000
0100
0010
0001
0010
0100
1000
0000
,  // measure 14
0000
1100
0000
0011
,  // measure 15
0000
0020
2030
0000
,  // measure 16
3000
0000
0001
1000
0010
0100
1000
0001
,  // measure 17
0100
0000
0010
0000
0001
0000
1000
0000
0010
0000
0100
0000
1000
0001
0000
0000
,  // measure 18
0001
1000
0000
0000
0001
0000
0000
0000
1000
0000
0100
0000
0000
0000
0010
0000
,  // measure 19
0001
0000
0100
0000
0010
1000
0000
0100
,  // measure 20
0001
0000
0010
0000
0100
1000
0000
0001
,  // measure 21
0010
0000
1000
0000
0100
0001
0000
1000
,  // measure 22
0010
0000
1001
0000
0010
0100
0000
0100
,  // measure 23
0001
0000
0110
0000
0010
1000
0000
0001
,  // measure 24
1000
0000
1100
0000
1000
0100
0000
0010
,  // measure 25
0001
0000
0011
0000
0001
0010
0000
0100
,  // measure 26
1000
0000
0100
0000
0100
0010
0000
0010
,  // measure 27
0100
0000
0001
0000
0001
0100
0000
0010
,  // measure 28
1000
0000
1000
0000
1000
0100
0000
0001
,  // measure 29
0010
0000
0010
0000
0001
1000
0000
1000
,  // measure 30
0001
0000
1100
0000
1000
0100
0000
0010
,  // measure 31
1000
0000
0011
0000
0100
0001
0000
0010
,  // measure 32
0001
0000
1010
0000
0010
1000
0000
0100
,  // measure 33
1000
0000
0101
0000
0010
0001
0000
0100
,  // measure 34
0001
0010
1000
0002
0000
0000
0000
0000
,  // measure 35
0000
0000
0000
0003
0001
0010
0100
1000
,  // measure 36
0000
2000
0000
0000
0000
0000
0000
0000
,  // measure 37
0000
0000
0000
3000
1000
0100
0010
0001
,  // measure 38
0000
0000
0011
0000
0000
1100
0000
2020
,  // measure 39
0000
0000
0000
3030
,  // measure 40
1000
0000
0001
0000
0001
0010
0100
1000
,  // measure 41
0000
0000
1000
0010
0100
0001
0020
0000
,  // measure 42
1030
0100
1000
0100
0000
0000
0020
0000
0000
0000
0000
0000
0000
0000
0000
0000
,  // measure 43
0000
0000
0000
0030
0010
0100
1000
0100
,  // measure 44
0000
0200
0000
0000
0000
0000
0000
0000
,  // measure 45
0000
0000
0000
0300
0100
0010
0001
0010
,  // measure 46
0000
0000
0101
0000
0000
1010
0000
0202
,  // measure 47
0000
0000
0000
0303
,  // measure 48
0100
0000
0010
0000
1000
0100
0010
0001
,  // measure 49
0000
0000
0001
0100
0010
1000
0200
0300
,  // measure 50
0001
0100
0001
0000
1000
0000
0000
0000
0100
0000
0010
0000
0001
0000
0100
0000
,  // measure 51
0000
0010
0000
0100
0010
1000
0100
0000
,  // measure 52
0001
0000
0001
0100
0010
0001
0000
1000
,  // measure 53
0000
1000
0010
0100
1000
0000
0100
0000
,  // measure 54
0010
0100
0001
0010
0000
0010
0000
0100
,  // measure 55
1000
0010
0100
0000
1000
0000
0001
1000
,  // measure 56
0100
0010
0200
0000
0000
0320
0000
0000
,  // measure 57
0230
0000
0000
0000
0000
0000
0000
0000
0000
0000
0300
0000
0001
0010
0001
0000
,  // measure 58
1000
0100
1000
0000
0002
0000
0000
0000
0000
0000
0023
0000
0000
0000
0000
0000
,  // measure 59
0230
0000
0000
0000
0000
0000
0000
0300
,  // measure 60
0000
0000
2000
0000
0000
3020
0000
0000
,  // measure 61
0032
0000
0000
0000
0000
0000
0000
0003
,  // measure 62
0000
0000
0200
0000
0000
0320
0000
0000
,  // measure 63
2030
0000
0000
0000
0000
3000
0001
0000
,  // measure 64
1000
0000
1000
0100
0010
0001
0100
1000
,  // measure 65
1000
0100
0010
0001
0010
0100
1000
0001
,  // measure 66
0100
0010
0001
0000
0001
1000
0100
0010
,  // measure 67
0100
1000
1000
0000
0001
1000
0100
0110
,  // measure 68
0000
0010
0110
0000
1000
1000
0001
1000
,  // measure 69
1001
0000
0000
0000
0001
1000
0010
0100
,  // measure 70
0001
0001
0000
0000
0010
0100
0010
1000
,  // measure 71
0000
1000
1000
0000
0001
1000
0001
1001
,  // measure 72
0000
0010
0100
0000
0001
1000
2002
0000
,  // measure 73
3003
0000
0000
0000
0010
0100
0010
0100
,  // measure 74
0001
0100
0000
0000
0100
0001
0010
2000
,  // measure 75
0000
0000
3100
0000
0000
1000
0010
1000
,  // measure 76
0000
0100
0001
0000
0001
0000
0010
1000
,  // measure 77
0100
0000
0000
0000
1000
0001
1000
0100
,  // measure 78
1000
0100
0000
0010
0000
0001
0200
0000
,  // measure 79
0000
0310
2000
0000
3200
0000
0300
0110
,  // measure 80
0000
1001
0000
0000
0000
1100
0000
0011
,  // measure 81
0000
0101
0000
0000
1000
0000
0010
0000
,  // measure 82
0001
0200
0000
0000
0300
0000
0000
0000
,  // measure 83
1000
0010
0200
0000
0302
0000
0023
0000
,  // measure 84
0230
0000
0000
0000
0000
0300
0000
0101
,  // measure 85
0000
1010
0000
0000
1000
0100
0001
0020
,  // measure 86
0000
0032
0000
0000
0000
0103
0000
0000
,  // measure 87
0000
0001
0100
0001
0100
0010
0001
0000
,  // measure 88
0000
1000
0100
1000
0100
0010
1000
0000
,  // measure 89
0000
1000
0001
1000
0001
0100
0010
0000
,  // measure 90
0000
0000
0100
0000
0010
0000
0100
0000
0010
0000
0001
1000
0001
0000
2001
0000
,  // measure 91
0000
0000
0000
0100
0000
0000
0000
0010
,  // measure 92
0000
3001
0000
0000
0000
1002
0000
0100
,  // measure 93
0000
0000
0000
0010
0000
1000
0000
0103
,  // measure 94
0000
0000
0000
0011
0000
1100
0000
1000
,  // measure 95
0100
0010
0100
1000
0000
0010
0100
0000
,  // measure 96
0001
0010
0100
0010
0002
0003
0000
0001
,  // measure 97
1000
0001
0000
0100
0010
0100
0000
0000
,  // measure 98
1100
1100
1100
0011
0000
0011
0000
0201
,  // measure 99
0000
0000
0000
0010
0000
0000
0000
0001
,  // measure 100
0000
1300
0000
0000
0000
1020
0000
0100
,  // measure 101
0000
0000
0000
0001
0000
0100
0000
1030
,  // measure 102
0000
0000
0000
1010
0000
0101
0000
0010
,  // measure 103
0100
0001
0010
0100
0000
0001
1000
0000
,  // measure 104
0010
0100
1000
0010
1000
1000
0000
1000
,  // measure 105
0010
1000
0000
0001
0100
0001
0000
2002
,  // measure 106
3003
0000
0220
0330
0001
0000
0010
1000
,  // measure 107
0100
0010
0000
1000
0000
0010
0100
0001
,  // measure 108
0010
0000
0100
0000
0010
1000
0100
0001
,  // measure 109
0000
0010
0000
0100
0001
1000
0010
0000
,  // measure 110
1000
0000
0001
1000
0100
0010
0000
0001
,  // measure 111
0000
1000
0001
0010
0100
0000
0010
0000
,  // measure 112
0100
0010
0100
0010
0110
0000
0000
1001
,  // measure 113
0000
0000
0000
0000
0220
0000
0000
0000
0000
0000
0000
0000
0330
0000
1000
0100
,  // measure 114
1000
0000
0010
0001
0010
0000
2000
0000
0000
0000
0000
0000
3002
0000
0000
0000
,  // measure 115
0000
0203
0000
0000
0000
0000
0000
0000
,  // measure 116
0000
0300
0000
0020
0000
0000
0032
0000
,  // measure 117
0000
2003
0000
0000
0000
0000
0000
0000
,  // measure 118
0000
3000
0000
0200
0000
0000
2300
0000
,  // measure 119
0000
3020
0000
0000
0000
0000
0000
0030
,  // measure 120
0100
0000
0010
0001
0100
0010
1000
0100
,  // measure 121
0001
0000
2002
3003
0000
1000
0100
1000
,  // measure 122
0100
0000
0010
0001
0000
0001
0010
0100
,  // measure 123
1000
0000
0000
0001
0010
0001
0010
0000
,  // measure 124
0100
1000
0100
0000
1000
0100
0010
0001
,  // measure 125
0000
0000
0000
0001
0010
0100
0000
1000
,  // measure 126
0100
0010
0000
0010
0100
0001
1000
0001
,  // measure 127
0000
0100
0010
0100
0000
1000
0000
0001
,  // measure 128
0000
1000
0000
0001
0010
0001
0010
0100
,  // measure 129
1000
0100
2002
3003
1000
0010
0100
0000
,  // measure 130
0100
0001
0010
0000
0001
0010
0100
1000
,  // measure 131
0000
0000
1000
0010
0100
0000
0010
0100
,  // measure 132
0001
0000
1000
0100
0010
0000
0001
1000
,  // measure 133
0010
0100
0001
0000
1000
0001
1000
0000
,  // measure 134
0100
0010
0100
0000
0001
0010
0001
0000
,  // measure 135
1000
0100
1000
0000
0100
0000
0010
0000
,  // measure 136
0100
0000
0010
0000
1000
0100
1000
0100
,  // measure 137
0010
0001
0010
0002
0000
0000
0000
0000
,  // measure 138
0000
0000
0000
0003
,  // measure 139
0000
0000
0000
2000
0000
0000
3002
0000
,  // measure 140
0000
0023
0000
0000
,  // measure 141
0000
0030
0000
0000
2000
0000
0000
3002
,  // measure 142
0000
0000
0203
0000
0000
0000
0000
0300
,  // measure 143
0010
0000
0100
0000
0110
0000
0000
1001
,  // measure 144
0000
0000
0220
0000
0000
0000
0000
0330
,  // measure 145
0001
1000
0022
0000
,  // measure 146
0000
0000
0000
0000
,  // measure 147
0000
0033
2200
0000
,  // measure 148
0000
0000
0000
0000
,  // measure 149
0000
0000
3300
0000
0001
0000
0000
1000
,  // measure 150
0000
0001
0000
0000
,  // measure 151
0100
0000
0010
0000
0010
1000
0100
0001
,  // measure 152
0010
0100
0001
1000
0110
1001
1000
0000
,  // measure 153
0000
0010
0000
0001
,  // measure 154
0001
0000
0000
0000
,  // measure 155
0000
0000
0000
0000
,  // measure 156
0000
0000
0000
0001
,  // measure 157
0000
0010
0000
1000
,  // measure 158
1000
0000
0000
0000
,  // measure 159
0000
0000
0000
0000
,  // measure 160
0000
0000
0000
1000
,  // measure 161
0000
0100
0000
0010
,  // measure 162
0010
0000
0000
0000
,  // measure 163
0000
0000
0000
0000
,  // measure 164
0000
0000
0000
0001
,  // measure 165
0000
0010
0000
0100
,  // measure 166
0100
0000
0000
0000
;
