#TITLE:NEW CENTURY GENERATION;
#SUBTITLE:(Timer's Step REMAKE);
#ARTIST:MAGIC PROJECT;
#TITLETRANSLIT:;
#SUBTITLETRANSLIT:;
#ARTISTTRANSLIT:;
#CREDIT:Timer Rabbit;
#BANNER:spark_bn.png;
#BACKGROUND:spark_bg.png;
#LYRICSPATH:;
#CDTITLE:timerrabbit.png;
#MUSIC:spark.mp3;
#OFFSET:0.000;
#SAMPLESTART:45.802;
#SAMPLELENGTH:12.000;
#SELECTABLE:YES;
#BPMS:0.000=131.000;
#STOPS:;
#BGCHANGES:;

//---------------dance-single - ----------------
#NOTES:
     dance-single:
     :
     Challenge:
     8:
     0.446,0.479,0.343,0.109,0.309:
0000
0000
0000
0000
,
0000
0000
0000
0011
,
0000
0000
0000
1100
,
0010
0101
0100
1010
,
0100
0000
0000
0000
1000
0001
1000
0000
0000
0001
1000
0001
0000
0000
0001
0000
,
1000
0010
0100
0001
0000
0001
1000
0010
,
0100
0001
0100
0010
1000
0000
0101
0000
,
1010
0000
1100
0000
1000
0001
1000
0000
,
0001
0010
0100
1000
1000
0000
0000
0010
,
0100
1001
0110
1001
0000
0100
0100
0010
,
0100
0010
0010
1000
0001
1000
0000
0011
,
0000
0000
0110
0000
0000
0000
1100
0000
0000
0000
0001
0000
0000
0000
1000
0001
,
1000
0000
0002
2003
,
3000
0002
0000
0000
0000
0000
0000
0000
,
0000
0000
0000
0000
0000
0000
0003
0000
0000
0000
0000
0000
0000
0100
0000
0100
,
0000
0100
0000
0100
0000
0000
0000
0010
0000
0001
0000
0000
0000
1000
0000
1000
,
0000
1000
0000
0001
0000
1000
0000
0000
0001
1000
0001
0000
0000
0010
0000
0010
,
0000
0010
0000
0010
0000
0000
0000
0100
0000
1000
0000
0000
0000
0001
0000
0001
,
0000
0001
0000
1000
0000
0001
0000
0000
0100
0010
0000
0100
0000
0000
0001
0000
,
0000
0000
1000
0100
0010
0000
0000
0000
0001
0000
0100
0000
0010
0000
0000
0000
,
1000
0000
0000
0000
1000
0000
0000
0000
0000
0000
0000
0000
1000
0001
0000
0000
,
0100
0000
0010
1000
0100
0000
0010
0000
,
0001
0000
0100
0000
0010
0000
1000
0001
1000
0000
0001
1000
0001
0000
0100
0000
,
0000
0010
0100
0001
0001
0000
1000
0000
,
0100
0000
0010
0001
0100
0000
0000
0000
0000
0000
1000
0000
0001
0000
1000
0000
,
0001
0000
1000
0000
0001
0000
0100
0000
0010
0000
0100
0000
0010
0100
0010
0000
,
0000
1100
0011
0001
,
1000
0001
0000
0100
0010
0100
0000
0011
,
0000
0000
1100
0000
1001
0000
0000
0000
0000
0000
0001
0000
1000
0001
0000
0000
,
0000
0000
1000
0000
1000
0100
1000
0000
0000
0000
0010
0000
0001
0000
0100
0000
,
0020
0030
0020
0030
0000
0000
0001
0000
,
1000
0000
0000
0001
0000
0000
0000
0000
0100
0000
0000
0010
0000
0000
0100
0000
,
0000
0000
0100
0000
0000
0100
0000
0000
0000
0000
0000
0000
1000
0001
1000
0000
,
0000
0000
0100
0010
0100
0020
0000
0030
,
0000
0001
2000
0000
0000
0000
0000
0000
,
3000
0000
0000
0000
1000
0001
1000
0000
0000
0001
1000
0001
0000
0000
0001
0000
,
1000
0010
0100
0001
0000
0001
1000
0010
,
0100
0001
0100
0010
1000
0000
0101
0000
,
1010
0000
1100
0000
1000
0001
1000
0000
,
0001
0010
0100
1000
1000
0000
0000
0010
,
0100
1001
0110
1001
0000
0100
0100
0010
,
0100
0010
0010
1000
0001
1000
0000
0011
,
0000
0000
0110
0000
0000
0000
1100
0000
0000
0000
0001
0000
0000
0000
1000
0001
,
1000
0000
0002
2003
,
3000
0002
0000
0000
0000
0000
0000
0000
,
0000
0000
0000
0000
0000
0000
0003
0000
0000
0000
0000
0000
0000
0100
0000
0100
,
0000
0100
0000
0100
0000
0000
0000
0010
0000
0001
0000
0000
0000
1000
0000
1000
,
0000
1000
0000
0001
0000
1000
0000
0000
0001
1000
0001
0000
0000
0010
0000
0010
,
0000
0010
0000
0010
0000
0000
0000
0100
0000
1000
0000
0000
0000
0001
0000
0001
,
0000
0001
0000
1000
0000
0001
0000
0000
0100
0010
0000
0100
0000
0000
0000
0000
,
0000
0000
0000
0011
,
0000
0000
0000
1100
,
0010
0101
0100
1010
,
0100
0000
0000
0000
0010
0100
0010
0000
0000
0100
0010
0100
0000
0000
1000
0000
,
0010
0100
0001
1000
0000
0100
0001
0010
,
1000
0100
0010
1000
0001
0000
1010
0000
,
0101
0000
0011
0000
0100
0010
0100
0000
,
1000
0100
0010
0001
0001
0000
0000
0001
,
1000
0110
1001
0110
0000
0001
0001
1000
,
0001
1000
1000
0010
0100
0010
0000
1010
,
0000
0000
0110
0000
0000
0000
0101
0000
0000
0000
0001
0000
0000
0000
1000
0001
,
1000
0000
0002
2003
,
3000
0002
0000
0000
0000
0000
0000
0000
,
0000
0000
0000
0003
0000
0000
1001
0000
;

//---------------dance-single - ----------------
#NOTES:
     dance-single:
     :
     Medium:
     4:
     0.263,0.320,0.217,0.100,0.000:
0000
0000
0000
0000
,
0000
0000
0000
0001
,
0000
0000
0000
1000
,
1000
1000
1000
1000
,
1000
2000
3000
0001
,
0010
0001
1000
0100
,
0010
0100
1000
0101
,
0000
1010
0000
1100
,
0000
0010
0001
1000
,
0010
1000
0001
0010
,
0100
0001
0001
1001
,
0110
1001
0100
0010
,
0100
0010
0000
0000
0002
0000
0000
2003
,
0000
3002
0000
0000
0000
0000
0000
0000
,
0000
0000
0000
0000
0000
0003
0000
1000
,
0000
1000
0000
1000
0000
0000
0000
0001
,
0000
0001
0000
0001
0000
0000
0000
0010
,
0000
0010
0000
0010
0000
0000
0000
0100
,
0000
0100
0000
0100
0000
0000
0000
1000
,
0000
0100
0000
0001
0000
0000
0000
0001
,
0000
0010
0000
1000
0000
0000
0010
0000
,
0100
0010
0000
1000
,
0001
0000
1000
0000
0000
0000
0000
0001
,
0000
0100
0000
0001
0000
0000
0000
1000
,
0000
0010
0000
1000
0000
0000
0010
0000
,
0100
0000
0001
0000
1000
0001
1000
0000
,
0000
0000
0110
0000
1001
0000
0000
1000
,
0000
0001
0000
1000
0000
0000
0100
0000
,
0010
0100
0000
0001
,
0000
1000
0000
0100
,
0010
0110
0000
0001
,
0010
0000
0100
0000
0000
0000
0000
1000
,
0000
0100
0000
0010
0000
0000
0000
1001
,
0000
0000
0000
0110
0000
0000
0000
0011
,
0000
0000
0000
1100
0000
0000
0000
0000
,
0000
2000
3000
0001
,
0010
0001
1000
0100
,
0010
0100
1000
0101
,
0000
1010
0000
1100
,
0000
0010
0001
1000
,
0010
1000
0001
0010
,
0100
0001
0001
1001
,
0110
1001
0100
0010
,
0100
0010
0000
0000
0002
0000
0000
2003
,
0000
3002
0000
0000
0000
0000
0000
0000
,
0000
0000
0000
0000
0000
0003
0000
1000
,
0000
1000
0000
1000
0000
0000
0000
0001
,
0000
0001
0000
0001
0000
0000
0000
0010
,
0000
0010
0000
0010
0000
0000
0000
0100
,
0000
0100
0000
0100
0000
0000
0000
0000
,
0000
0000
0000
0010
,
0000
0000
0000
0100
,
0100
0100
0100
0100
,
0100
0200
0300
1000
,
0010
1000
0001
0010
,
0100
1000
0001
0011
,
0000
1100
0000
0101
,
0000
0100
0010
0001
,
0100
0001
1000
0100
,
0010
1000
1000
0110
,
1001
0110
1000
0001
,
1000
0001
0000
0000
0020
0000
0000
0230
,
0000
0320
0000
0000
0000
0000
0000
0000
,
0000
0000
0030
1001
;

//---------------dance-single - ----------------
#NOTES:
     dance-single:
     :
     Easy:
     3:
     0.146,0.213,0.058,0.092,0.000: // measure 1
0000
0000
0000
0000
,  // measure 2
0000
0000
0000
1000
,  // measure 3
0000
0000
0000
1000
,  // measure 4
1000
1000
1000
1000
,  // measure 5
1000
2000
3000
0001
,  // measure 6
0000
0000
0000
0100
,  // measure 7
0000
0000
0010
1000
,  // measure 8
0000
0000
0000
0100
,  // measure 9
0000
0000
0000
0010
,  // measure 10
0000
0000
0000
0001
,  // measure 11
0000
0000
0100
1000
,  // measure 12
0000
0000
0000
0010
,  // measure 13
0000
0000
0000
1001
,  // measure 14
0000
2002
0000
0000
,  // measure 15
0000
0000
0000
0000
3003
0000
0000
0001
,  // measure 16
0000
0001
0000
0001
0000
0000
0000
1000
,  // measure 17
0000
1000
0000
1000
0000
0000
0000
0100
,  // measure 18
0000
0100
0000
0100
0000
0000
0000
0010
,  // measure 19
0000
0010
0000
0010
0000
0000
0000
0001
,  // measure 20
0000
0000
0000
0000
0000
0000
0000
1000
,  // measure 21
0000
0000
0000
1000
0000
0000
1000
0000
,  // measure 22
0000
0000
0000
0001
,  // measure 23
0000
0000
0001
0000
0000
0000
0000
0100
,  // measure 24
0000
0000
0000
0000
0000
0000
0000
0100
,  // measure 25
0000
0000
0000
0100
0000
0000
0010
0000
,  // measure 26
0000
0000
0010
0010
,  // measure 27
0000
0001
1000
0001
,  // measure 28
0000
0000
0000
0010
,  // measure 29
0000
0100
0000
1000
,  // measure 30
0000
0000
0000
0001
,  // measure 31
0010
0001
0000
0100
,  // measure 32
0000
0000
0000
1000
,  // measure 33
0000
0000
0000
0000
0200
0000
0000
0300
,  // measure 34
0000
0000
0000
0001
,  // measure 35
0000
2000
3000
0000
,  // measure 36
0000
0002
0003
0001
,  // measure 37
0000
0000
0000
0100
,  // measure 38
0000
0000
0010
1000
,  // measure 39
0000
0000
0000
0100
,  // measure 40
0000
0000
0000
0010
,  // measure 41
0000
0000
0000
0001
,  // measure 42
0000
0000
0100
1000
,  // measure 43
0000
0000
0000
0010
,  // measure 44
0000
0000
0000
1001
,  // measure 45
0000
2002
0000
0000
,  // measure 46
0000
0000
0000
0000
3003
0000
0000
0010
,  // measure 47
0000
0010
0000
0010
0000
0000
0000
0100
,  // measure 48
0000
0100
0000
0100
0000
0000
0000
1000
,  // measure 49
0000
1000
0000
1000
0000
0000
0000
0001
,  // measure 50
0000
0001
0000
0001
0000
0000
0000
0000
,  // measure 51
0000
0000
0000
0001
,  // measure 52
0000
0000
0000
0001
,  // measure 53
0001
0001
0001
0001
,  // measure 54
0001
0002
0003
1000
,  // measure 55
0000
0000
0000
0010
,  // measure 56
0000
0000
0100
0001
,  // measure 57
0000
0000
0000
0010
,  // measure 58
0000
0000
0000
0100
,  // measure 59
0000
0000
0000
1000
,  // measure 60
0000
0000
0010
0100
,  // measure 61
0000
0000
0000
0001
,  // measure 62
0000
0000
0000
0110
,  // measure 63
0000
0220
0000
0000
,  // measure 64
0000
0000
0330
1001
;

//---------------dance-single - ----------------
#NOTES:
     dance-single:
     :
     Hard:
     7:
     0.389,0.426,0.267,0.201,0.013:
0000
0000
0000
0000
,
0000
0000
0000
0101
,
0000
0000
0000
1010
,
0010
0101
0100
0011
,
0010
0000
2200
0000
3300
0000
1000
0001
,
0100
0010
1000
0000
0001
0100
0001
0100
,
0010
1000
0010
1000
1000
0000
1001
0000
,
0110
0000
1001
0000
1000
0100
0001
0000
,
0001
0010
1000
1000
1000
0000
0001
1000
,
0010
0100
0001
0000
0010
1000
0010
1000
,
0100
0001
0100
0001
0001
0000
0011
0000
,
0101
0000
1010
0000
1000
0100
0010
0001
,
0010
0100
1000
0000
0002
0000
2003
0000
,
0000
3002
0000
0000
0000
0000
0000
0000
,
0000
0000
0003
0001
,
0001
0000
1000
0100
1000
0000
1000
0000
,
1000
0002
0003
0100
,
0100
0000
0001
0100
0001
0000
0010
0000
,
0010
0000
2000
0000
3000
1000
0000
0001
,
0000
0100
0010
1000
0000
0100
0000
0100
,
0000
0200
0000
0000
0300
0000
0001
0010
,
0000
1000
0000
1000
0000
1000
0000
1000
,
0000
1000
0100
0001
0000
0000
0001
0000
,
0010
0100
2000
3000
1000
0000
1000
0000
,
1000
0010
0001
0000
0000
0000
0010
0000
,
0010
0000
0010
0000
0010
0100
0010
0000
,
0000
0001
1000
1000
,
0100
0001
0000
0000
0001
0000
0001
0000
,
0010
0100
1000
0000
0000
0000
1000
0100
,
0000
0000
0010
0001
0000
0000
1000
0000
,
1000
0000
0000
0000
1000
0000
0000
0000
0000
0000
0000
0000
0001
0000
0000
0001
,
0000
0000
0001
0000
0000
0000
0000
0100
0000
0000
0000
0000
1000
0000
0000
1000
,
0000
2000
0000
3000
0000
0000
0010
0100
,
0000
0000
0001
1000
0001
0000
0100
0000
,
0000
0000
0011
2200
0000
0000
0000
3300
,
0000
0000
2002
0000
3003
0000
1000
0001
,
0100
0010
1000
0000
0001
0100
0001
0100
,
0010
1000
0010
1000
1000
0000
1001
0000
,
0110
0000
1001
0000
1000
0100
0001
0000
,
0001
0010
1000
1000
1000
0000
0001
1000
,
0010
0100
0001
0000
0010
1000
0010
1000
,
0100
0001
0100
0001
0001
0000
0011
0000
,
0101
0000
1010
0000
1000
0100
0010
0001
,
0010
0100
1000
0000
0002
0000
2003
0000
,
0000
3002
0000
0000
0000
0000
0000
0000
,
0000
0000
0003
0010
,
0010
0000
0100
0010
0100
0000
0010
0000
,
0010
0002
0003
0010
,
0010
0000
1000
0001
1000
0000
1000
0000
,
1000
0020
0030
0000
,
0000
0000
0000
0011
,
0000
0000
0000
1100
,
0100
0011
0010
1100
,
0100
0000
0022
0000
0033
0000
0001
0100
,
0010
1000
0100
0000
1000
0100
1000
0100
,
0010
0001
0010
0001
0001
0000
1100
0000
,
1001
0000
0011
0000
0001
0010
1000
0000
,
1000
0100
0001
0001
0001
0000
1000
0001
,
0100
0010
1000
0000
0100
0001
0100
0001
,
0010
1000
0010
1000
1000
0000
0011
0000
,
0110
0000
1100
0000
0001
0010
0100
1000
,
0100
0010
0001
0000
0020
0000
0230
0000
,
0000
0320
0000
0000
0000
0000
0000
0000
,
0000
0000
0030
1001
;
