#TITLE:NNK Cup Granprix;
#SUBTITLE:;
#ARTIST:DJ Sharpnel;
#TITLETRANSLIT:;
#SUBTITLETRANSLIT:;
#ARTISTTRANSLIT:;
#GENRE:;
#CREDIT:Timer Rabbit;
#MENUCOLOR:;
#NEWMETERSYSTEM:NO;
#BANNER:NNK_bn.PNG;
#BACKGROUND:NNK_bg.PNG;
#LYRICSPATH:;
#CDTITLE:timerrabbit.png;
#MUSIC:NNK.mp3;
#OFFSET:0.000;
#SAMPLESTART:68.100;
#SAMPLELENGTH:11.980;
#SELECTABLE:YES;
#LISTSORT:;
#BPMS:0.000=170.000;
#STOPS:;
#BGCHANGES:;
#ATTACKS:;

//---------------dance-single - ----------------
#NOTES:
     dance-single:
     :
     Challenge:
     10:
     0.626,0.811,0.767,0.077,0.096: // measure 1
0000
0000
0000
0000
,  // measure 2
0000
0000
0000
0000
,  // measure 3
0000
0000
0000
0000
,  // measure 4
0000
0000
0000
0000
,  // measure 5
0000
0000
0000
0000
,  // measure 6
1000
0100
0010
0000
0001
0000
0100
0000
,  // measure 7
0001
0010
0100
0010
,  // measure 8
1000
0100
1000
0010
,  // measure 9
0100
0000
0010
0000
0001
0000
0100
0010
,  // measure 10
0100
0001
0100
0010
,  // measure 11
1000
0100
0010
0100
,  // measure 12
0001
0100
0010
1000
,  // measure 13
0100
0000
0010
0000
0001
0000
1000
0010
,  // measure 14
0100
0010
0001
0010
,  // measure 15
0100
0010
1000
0100
,  // measure 16
0010
0001
0100
0010
,  // measure 17
1000
1000
1000
1000
,  // measure 18
0100
0010
0100
0000
0010
0000
2100
0000
,  // measure 19
0100
3100
0000
0010
,  // measure 20
0001
0010
0001
0102
,  // measure 21
0100
0103
0000
1000
,  // measure 22
0100
1000
0100
2001
,  // measure 23
0001
3001
0000
0100
,  // measure 24
0010
0100
0010
0000
0100
0000
2100
0000
,  // measure 25
0100
3100
0000
0010
,  // measure 26
0001
0010
0001
0000
0010
0000
0102
0000
,  // measure 27
0100
0103
0000
0001
,  // measure 28
0100
0001
0100
2010
,  // measure 29
0010
3010
0000
1000
,  // measure 30
0100
1000
0100
0012
,  // measure 31
0010
0000
0000
0000
0013
0000
0000
0000
0000
0000
0000
0000
0001
0100
0001
0100
,  // measure 32
0001
0100
0001
0100
0001
0100
0001
0100
0001
0100
0001
0100
0001
0100
0001
0100
,  // measure 33
0001
0100
0001
0100
0001
0100
0001
0100
0001
0100
0000
0000
1010
0000
0000
0000
,  // measure 34
0100
0010
0100
0000
0011
0000
1100
0000
,  // measure 35
1100
1100
0000
0110
,  // measure 36
1001
0110
1001
0101
,  // measure 37
0101
0101
0000
1010
,  // measure 38
0101
1010
0101
0110
,  // measure 39
0110
0110
0000
1100
,  // measure 40
0100
0010
0100
0000
0011
0000
0101
0000
,  // measure 41
0101
0101
0000
1010
,  // measure 42
0001
0000
0100
0000
0001
0000
0000
0000
1010
0000
0000
0000
1000
0100
0000
0000
,  // measure 43
1000
0100
0000
0000
1000
0100
0000
0000
0000
0000
0000
0000
0110
0000
0000
0000
,  // measure 44
1001
0000
0000
0000
0110
0000
0000
0000
1001
0000
0000
0000
0001
0100
0000
0000
,  // measure 45
0001
0100
0000
0000
0001
0100
0000
0000
0000
0000
0000
0000
1100
0000
0000
0000
,  // measure 46
1001
0000
0000
0000
0101
0000
0000
0000
0110
0000
0000
0000
0010
0100
0000
0000
,  // measure 47
0010
0100
0000
0000
0010
0100
0000
0000
0000
0000
0000
0000
0110
0000
0000
0000
,  // measure 48
1001
0000
0000
0000
0110
0000
0000
0000
0011
0000
0000
0000
1000
0100
0000
0000
,  // measure 49
1000
0100
0000
0000
1000
0100
0000
0000
0000
0000
0000
0000
0001
0000
0000
0000
,  // measure 50
0100
0010
0100
0000
1000
0000
0010
0100
,  // measure 51
0010
0100
0010
0100
0000
0000
0001
0100
,  // measure 52
0001
0000
0010
1000
0010
0000
0100
0010
,  // measure 53
0100
0010
0100
0010
0000
0000
0001
0100
,  // measure 54
0001
0000
1000
0010
1000
0000
0100
0010
,  // measure 55
0100
0010
0100
0010
0000
0000
0001
0100
,  // measure 56
0010
0000
1000
0100
0010
0000
0001
1000
,  // measure 57
0001
1000
0001
1000
0000
0000
0010
0001
,  // measure 58
0100
0000
0010
1000
0100
0000
0001
1000
,  // measure 59
0001
1000
0001
1000
0000
0000
1000
0010
,  // measure 60
1000
0000
0001
0100
0001
0000
0110
0000
,  // measure 61
0110
0000
0110
0000
0000
0000
1000
0100
,  // measure 62
1000
0000
0010
0001
0010
0000
1001
0000
,  // measure 63
1001
0000
0000
0000
1001
0000
0000
0000
0000
0000
0000
0000
1000
0100
1000
0100
,  // measure 64
1000
0100
1000
0100
1000
0100
1000
0100
1000
0100
1000
0100
0000
0000
0000
0000
,  // measure 65
0000
0000
0000
0000
0000
0000
1000
0100
,  // measure 66
0010
0000
0001
0100
0010
0000
0100
0000
,  // measure 67
0010
0000
0100
0000
0010
0000
1000
0100
,  // measure 68
1000
0000
0010
0001
0010
0000
0100
0000
,  // measure 69
0010
0000
0100
0000
0010
0000
0001
1000
,  // measure 70
0001
0000
0001
0100
0001
0000
0100
0000
,  // measure 71
0010
0000
0100
0000
0010
0000
1000
0010
,  // measure 72
1000
0000
0100
0010
0100
0000
0001
0000
,  // measure 73
0100
0000
0001
0000
0100
0000
0100
0010
,  // measure 74
1000
0000
0100
0010
0001
0000
0001
0000
,  // measure 75
1000
0000
0001
0000
1000
0000
0001
0100
,  // measure 76
0001
0000
0010
1000
0010
0000
0001
0000
,  // measure 77
1000
0001
1000
0001
,  // measure 78
1000
0100
0010
0000
0001
0100
0010
0000
,  // measure 79
1000
0001
1000
0001
,  // measure 80
0100
0010
0100
0000
0010
1000
0100
0000
,  // measure 81
0001
1000
0001
1000
,  // measure 82
0110
0011
1100
0100
,  // measure 83
0001
0100
0001
1010
,  // measure 84
1100
0101
0001
0100
,  // measure 85
0001
0100
0110
0011
,  // measure 86
0101
1000
0100
1000
,  // measure 87
0100
0110
0101
1010
,  // measure 88
1000
0100
1000
0100
,  // measure 89
1100
0101
0110
0100
,  // measure 90
0010
0100
0010
0101
,  // measure 91
1010
1100
0100
0010
,  // measure 92
0100
0010
1001
1100
,  // measure 93
0101
0001
1000
0001
,  // measure 94
1000
0110
0110
0110
,  // measure 95
0001
0100
0001
0100
,  // measure 96
1010
1010
2020
0000
,  // measure 97
0000
0000
3030
0100
,  // measure 98
0100
0100
0100
0100
,  // measure 99
1000
0100
1000
0100
,  // measure 100
0100
0100
0100
0100
,  // measure 101
0100
0100
0100
0010
,  // measure 102
0001
0001
0001
0001
,  // measure 103
0001
0001
0001
0001
,  // measure 104
0001
0001
1000
1000
,  // measure 105
1000
0000
1000
0000
1000
0000
1000
0001
,  // measure 106
1000
0100
0100
0100
,  // measure 107
0100
0100
0100
0100
,  // measure 108
0010
0010
0010
0010
,  // measure 109
0010
0010
0010
0010
,  // measure 110
0010
0010
1000
0001
,  // measure 111
0001
0001
0001
0001
,  // measure 112
0001
0001
0001
0220
,  // measure 113
0330
0000
0000
0000
0001
0000
0000
0000
1000
0001
1000
0000
0000
0000
0000
0000
,  // measure 114
1000
0001
1000
0001
1000
0001
1000
0001
1000
0001
1000
0001
1000
0001
1000
0001
,  // measure 115
1000
0001
1000
0001
1000
0001
1000
0001
1000
0001
0000
0000
1000
0000
0100
0000
,  // measure 116
0010
0000
0001
0100
0010
0000
1010
0000
,  // measure 117
1100
0000
0101
0000
0100
0010
0100
0000
,  // measure 118
0010
0001
0100
0000
1010
0000
1100
0000
,  // measure 119
0101
0000
0100
0010
1000
0000
0100
0001
,  // measure 120
0100
0101
0110
1010
,  // measure 121
1000
0100
1000
0000
0100
0010
0100
0000
,  // measure 122
0101
0000
0110
0000
1100
0000
0100
0010
,  // measure 123
0001
0000
0100
0010
1000
0000
1100
0000
,  // measure 124
0110
0000
0101
0000
0100
0100
0100
0000
,  // measure 125
0010
0010
0010
0000
0102
0100
0103
0000
,  // measure 126
2010
0010
3010
0000
1000
1000
1000
0000
,  // measure 127
0001
0001
0001
0000
1020
1000
1030
0000
,  // measure 128
0102
0100
0103
0000
1000
1000
1000
0000
,  // measure 129
0001
0001
0001
0000
0210
0010
0310
0000
,  // measure 130
2100
0100
3100
0000
0010
0010
0010
0000
,  // measure 131
0100
0100
0100
0000
0000
0000
1100
0000
,  // measure 132
0100
0011
0100
1010
,  // measure 133
1000
1100
0001
0101
,  // measure 134
0100
0110
1000
1100
,  // measure 135
0100
0110
0010
0011
,  // measure 136
0001
0101
0100
0110
,  // measure 137
0010
1010
1000
1100
,  // measure 138
0100
0101
0001
1001
,  // measure 139
1000
1100
0100
0110
,  // measure 140
0110
0000
0100
0010
0100
0000
0101
0000
,  // measure 141
1010
0000
1000
0100
1000
0000
1100
0000
,  // measure 142
0011
0000
0001
0100
0001
0000
0110
0000
,  // measure 143
1001
0000
1000
0001
1000
0000
1100
0000
,  // measure 144
0011
0000
0001
0100
0001
0000
0101
0000
,  // measure 145
1010
0000
0100
0010
0100
0000
1100
0000
,  // measure 146
0110
0000
0001
0100
0001
0000
0110
0000
,  // measure 147
1100
0000
0000
0000
0011
0000
0000
0000
0001
0000
0100
0000
0001
0001
0001
0000
,  // measure 148
0001
0001
0001
0001
1001
0000
1000
0001
,  // measure 149
1000
0001
0001
0001
0001
0000
0100
0010
,  // measure 150
1000
0001
0001
0001
0001
0000
0001
1000
,  // measure 151
0100
0001
0001
0001
0001
0000
0100
1000
,  // measure 152
0100
0001
0001
0001
0001
0000
0010
0001
,  // measure 153
0100
1000
1000
1000
1000
0000
0001
1000
,  // measure 154
0001
1000
1000
1000
1000
0000
0010
0001
,  // measure 155
0100
1000
1000
1000
1000
0000
0001
0100
,  // measure 156
0001
1000
1000
1000
1000
0000
0100
0010
,  // measure 157
0100
0010
0010
0010
0010
0000
1000
0001
,  // measure 158
0100
0010
0010
0010
0010
0000
0001
1000
,  // measure 159
0100
0010
0010
0010
0010
0000
1000
0100
,  // measure 160
0001
0010
0010
0010
0010
0000
0001
0100
,  // measure 161
0010
1000
1000
1000
1000
0000
0100
0010
,  // measure 162
0001
0100
0100
0100
0100
0000
0100
0010
,  // measure 163
1000
0001
0001
0001
0001
0000
0001
1000
,  // measure 164
0010
0100
0000
0000
0110
0000
1000
0001
,  // measure 165
0100
0110
0110
0110
0110
0000
0001
1000
,  // measure 166
0100
0101
0101
0101
0101
0000
0010
1000
,  // measure 167
0001
1100
1100
1100
1100
0000
0001
0100
,  // measure 168
0001
1010
1010
1010
1010
0000
1000
0100
,  // measure 169
1000
0011
0011
0011
0011
0000
0100
0010
,  // measure 170
0100
0110
0110
0110
0110
0000
1000
0001
,  // measure 171
1000
1001
1001
1001
1001
0000
1000
0100
,  // measure 172
0010
0011
0011
0011
0011
0000
0001
0100
,  // measure 173
0010
1010
1010
1010
1010
0000
0010
1000
,  // measure 174
0001
0101
0101
0101
0101
0000
0001
0010
,  // measure 175
0100
1100
1100
1100
1100
0000
0100
0010
,  // measure 176
0001
1001
1001
1001
1001
0000
0001
0100
,  // measure 177
0010
0110
0110
0110
0110
0000
1000
0001
,  // measure 178
1000
1100
1100
1100
1100
0000
0001
1000
,  // measure 179
0001
0101
0101
0101
0101
0000
1000
0001
,  // measure 180
1000
1001
1001
1001
1001
0000
0220
0000
,  // measure 181
0000
0000
0000
0000
,  // measure 182
0000
0000
0000
0000
,  // measure 183
0000
0000
0000
0330
,  // measure 184
0000
1000
0001
1000
0002
0000
0000
0003
;
