#TITLE:Michi;
#SUBTITLE:;
#ARTIST:pastel white;
#TITLETRANSLIT:;
#SUBTITLETRANSLIT:;
#ARTISTTRANSLIT:;
#CREDIT:Timer Rabbit;
#BANNER:michi_bn.png;
#BACKGROUND:michi_bg.png;
#LYRICSPATH:;
#CDTITLE:timerrabbit.png;
#MUSIC:michi.mp3;
#OFFSET:-0.060;
#SAMPLESTART:40.601;
#SAMPLELENGTH:12.000;
#SELECTABLE:YES;
#BPMS:0.000=114.000,29.000=148.000;
#STOPS:;
#BGCHANGES:;

//---------------dance-single - ----------------
#NOTES:
     dance-single:
     :
     Medium:
     5:
     0.264,0.291,0.061,0.216,0.000:
0000
0000
0000
0000
,
0000
0000
0000
0000
,
0000
0000
0000
0000
,
0000
0000
0000
0000
,
0000
0000
0000
0000
,
0000
0000
0000
0000
,
0000
0000
0000
0000
,
0000
1000
0000
0100
,
0000
0001
0000
0100
,
0000
0000
0010
0000
1000
0100
0000
0000
,
0000
0100
0000
0001
,
0000
0000
0010
0000
0100
0010
0000
0000
,
0001
1000
0001
0000
0000
0000
0000
0000
,
0110
0000
0000
0000
1001
0000
0000
0100
,
0010
0100
0000
0000
0000
0000
1000
0001
,
2000
0000
3000
0001
,
1000
0000
0100
0000
0000
0010
0000
0001
,
0000
0100
0000
0000
0000
0000
0010
0000
,
0100
0000
1000
0000
0010
0001
0000
0100
,
0000
1000
0000
0100
0010
0000
0000
0000
,
0001
0000
1000
0000
0100
0100
0000
0010
,
0000
0001
0000
1000
0000
0100
0000
0000
,
0001
1000
0001
0000
0100
0010
0000
0001
,
0000
0001
0000
0000
0000
0000
0000
0000
,
0000
1000
0000
0100
0000
0010
0000
0001
,
0000
0010
0000
0100
0000
1000
0000
1000
,
0000
0100
0000
0010
0000
0001
0000
0010
,
0000
0200
0000
0000
0300
2000
0000
3000
,
0000
1000
0000
0010
0000
0001
0000
0100
,
0000
0020
0000
0000
0030
0200
0000
0300
,
1001
0000
0110
0000
,
2002
0000
0000
3003
,
0000
1000
0000
0100
0000
1000
0000
0100
,
0000
0010
0000
0001
0000
0010
0000
0001
,
0000
0100
0000
0010
0000
0100
0000
0010
,
0000
0200
0000
0000
0300
0020
0000
0030
,
0000
1000
0000
0001
0000
1000
0000
0001
,
0000
2000
0000
0000
3000
0002
0000
0003
,
0000
0100
0010
0000
0001
1000
0000
0000
,
2002
0000
0000
0000
3003
0000
0000
1000
,
0000
0100
0000
0000
0000
0010
0000
0001
,
0000
0100
0000
0000
0000
1000
0000
0100
,
0000
0010
0000
0001
0000
0010
0000
0100
,
0000
0000
1000
1000
0000
0000
0000
1000
,
0000
0001
0000
0000
0000
0100
0010
0000
,
0000
1000
0000
0001
0000
1000
0000
0001
,
0100
0010
0000
0100
0000
0010
0000
0100
,
0000
0010
0000
0000
0000
0000
0000
0000
,
0000
0001
0000
0010
0000
0100
0000
1000
,
0000
0100
0000
0010
0000
0001
0000
0001
,
0000
0010
0000
0100
0000
1000
0000
0100
,
0000
0020
0000
0000
0030
0002
0000
0003
,
0000
1000
0000
0100
0000
0001
0000
0100
,
0000
0020
0000
0000
0030
0200
0000
0300
,
0010
0100
0000
1000
0001
0000
0100
0000
,
0020
0000
0030
0000
,
0000
1000
0000
0010
0000
1000
0000
0010
,
0000
0001
0000
0100
0000
0001
0000
0100
,
0000
1000
0000
0001
0000
1000
0000
0001
,
0000
2000
0000
0000
3000
0002
0000
0003
,
0000
0100
0000
0010
0000
0100
0000
0010
,
0000
0200
0000
0000
0300
0020
0000
0030
,
0000
1000
0001
0000
0010
0100
0000
0000
,
0220
0000
0000
0000
0000
0330
0000
0000
,
0000
1000
0000
0000
0000
0000
0000
0000
,
0000
0100
0000
0000
0000
0000
0000
0000
,
0000
0020
0000
0000
0000
0000
0000
0000
,
0000
0000
0000
0030
0000
0000
0000
0000
;

//---------------dance-single - ----------------
#NOTES:
     dance-single:
     :
     Hard:
     8:
     0.394,0.466,0.372,0.208,0.104: // measure 1
0000
0000
0000
0000
,  // measure 2
0000
0000
0000
0000
,  // measure 3
0000
0000
0000
0000
,  // measure 4
0000
0000
0000
0000
,  // measure 5
0000
0000
0000
0000
,  // measure 6
0000
0000
0000
0000
,  // measure 7
0000
0000
0000
0000
,  // measure 8
0000
1000
0000
0100
,  // measure 9
0000
0010
0001
0000
0000
0010
0100
0000
,  // measure 10
0000
0000
1000
0000
0100
0000
0000
0000
0010
0001
0100
0000
0000
0000
0000
0000
,  // measure 11
0000
0010
0100
0000
0000
0010
0001
0000
,  // measure 12
0000
0000
0100
0000
0010
0000
0000
0000
0010
0100
0001
0000
0000
0000
0000
0000
,  // measure 13
0022
0000
0033
0100
,  // measure 14
0000
2200
0000
0000
0300
3100
0000
0010
,  // measure 15
0100
0002
0000
0000
0000
0003
0100
1000
,  // measure 16
0010
0010
0020
0000
0030
0000
0000
0000
,  // measure 17
1000
0001
0100
0000
1000
1000
0000
0100
,  // measure 18
0000
0010
0000
0001
0000
0000
0000
0000
0000
0000
0000
0000
0100
0000
0000
0010
,  // measure 19
0000
1000
0000
1000
0000
0000
0100
0000
0001
0000
0000
0000
0010
0000
0000
0000
,  // measure 20
0100
0000
0000
0001
0000
0001
0000
0000
0000
0000
0000
0000
0000
0000
0000
0000
,  // measure 21
1000
0100
0010
0000
0001
0100
0000
0010
,  // measure 22
1000
0000
0000
0101
0000
0000
0000
1010
0000
0000
0000
1100
0000
0000
0000
0000
,  // measure 23
1000
0000
0001
0100
0000
0000
0010
0000
1000
0000
0000
0000
0000
0100
0000
0000
,  // measure 24
0000
0001
0000
0000
0000
0000
0000
0000
0000
0000
0000
0000
0000
0000
0000
0000
,  // measure 25
0000
1000
0100
1000
0000
0001
0010
0001
,  // measure 26
0000
0100
0010
0100
0000
1000
0100
0001
,  // measure 27
0000
0001
0010
0100
0000
1000
0010
0100
,  // measure 28
0000
0000
0002
0000
0000
0000
0003
0000
1000
0100
0010
0000
0000
0000
0000
0000
,  // measure 29
0000
0001
0100
0001
0000
1000
0010
1000
,  // measure 30
0000
0000
0200
0000
0000
0000
0000
0000
0310
0001
0100
0000
0000
0000
0000
0000
,  // measure 31
1000
0001
1000
0000
0100
0010
0000
0001
,  // measure 32
2000
0000
0000
3000
,  // measure 33
0000
0101
0000
1010
0000
1100
0000
0011
,  // measure 34
0000
0101
0000
0110
0000
1010
0000
0101
,  // measure 35
0000
1100
0000
1010
0000
1001
0000
0101
,  // measure 36
0000
0000
2002
0000
0000
0000
0000
0000
3003
0000
1000
0001
1000
0000
0000
0000
,  // measure 37
0000
1010
0000
0101
0000
0110
0000
0011
,  // measure 38
0000
0000
2200
0000
0000
0000
0000
0000
3300
0000
1000
0100
1000
0000
0000
0000
,  // measure 39
0001
0010
0100
0000
1000
0100
0000
0010
,  // measure 40
0001
0200
0000
0000
0000
0300
0000
1000
,  // measure 41
0010
0100
0000
0000
0001
0100
0000
0010
,  // measure 42
0000
1000
0100
0000
0000
1000
0000
0100
,  // measure 43
0010
0010
0000
0001
0100
0000
0010
0000
,  // measure 44
1000
0000
0100
0100
0000
0000
0000
0000
,  // measure 45
0100
0000
0010
0000
0100
0000
0000
0000
1000
0100
0000
0000
0000
0000
0010
0000
,  // measure 46
0001
0100
0000
1010
0000
0101
0000
1000
,  // measure 47
0100
0010
0000
0100
0001
0000
0010
0000
,  // measure 48
0100
0000
0000
0000
,  // measure 49
0000
0001
0010
0001
0000
0100
0010
0100
,  // measure 50
0000
0100
1000
0100
0000
0010
0001
0010
,  // measure 51
0000
0001
0010
0100
0000
1000
0100
0010
,  // measure 52
0000
0000
0002
0000
0000
0000
0000
0000
0003
0000
0010
0100
0001
0000
0000
0000
,  // measure 53
0000
1000
0010
0100
0000
0100
0001
0010
,  // measure 54
0000
0000
2000
0000
0000
0000
0000
0000
3000
0000
0001
1000
0100
0000
0000
0000
,  // measure 55
1000
0001
1000
0000
0100
0010
0000
0002
,  // measure 56
0000
0203
0000
0000
0000
0300
0000
0000
,  // measure 57
0000
0011
0000
1100
0000
0101
0000
1010
,  // measure 58
0000
0011
0000
0110
0000
1100
0000
0101
,  // measure 59
0000
0110
0000
1010
0000
0011
0000
0101
,  // measure 60
0000
0000
2200
0000
0000
0000
0000
0000
3300
0000
1000
0100
1000
0000
0000
0000
,  // measure 61
0000
1010
0000
0101
0000
0011
0000
0110
,  // measure 62
0000
0000
0202
0000
0000
0000
0000
0000
0303
0000
0001
0100
0001
0000
0000
0000
,  // measure 63
1000
0100
0010
0000
0001
0010
0000
1000
,  // measure 64
0001
2000
0000
0000
0000
0000
3000
0000
,  // measure 65
0001
0010
0100
0000
0000
0000
0000
1000
,  // measure 66
0000
0100
0000
0000
0000
0010
0000
0001
,  // measure 67
0000
0200
0000
0000
0000
0000
0000
0000
,  // measure 68
0000
0000
0000
0300
0000
0000
0000
0000
;

//---------------dance-single - ----------------
#NOTES:
     dance-single:
     :
     Easy:
     4:
     0.253,0.262,0.130,0.251,0.000:
0000
0000
0000
0000
,
0000
0000
0000
0000
,
0000
0000
0000
0000
,
0000
0000
0000
0000
,
0000
0000
0000
0000
,
0000
0000
0000
0000
,
0000
0000
0000
0000
,
0000
1000
0000
0100
,
0000
0001
0000
0100
,
0000
0000
0010
0000
0000
1000
0000
0000
,
0000
0000
0100
0000
0000
0001
0000
0000
,
0000
0010
0000
0000
0200
0000
0300
0000
,
1001
0000
0000
0000
,
0110
0000
0000
0000
1001
0000
0000
1000
,
0000
0001
0000
0000
0000
0000
0001
0000
,
2000
0000
3000
0000
,
1000
0000
0100
0000
0000
0010
0000
0001
,
0000
0100
0000
0000
0000
0000
0010
0000
,
0100
1000
0010
0100
,
1000
0002
0003
0000
,
0001
0000
1000
0000
0100
0000
0000
0010
,
0000
0001
0000
1000
0000
0100
0000
0000
,
0001
1000
0100
0010
,
0001
0000
0000
0000
,
0000
1000
0000
0100
0000
0010
0000
0001
,
0000
0010
0000
0100
0000
1000
0000
1000
,
0000
0100
0000
0010
0000
0001
0000
0010
,
0000
0200
0000
0000
0300
2000
0000
3000
,
0000
1000
0000
0010
0000
0001
0000
0100
,
0000
0020
0000
0000
0030
0200
0000
0300
,
0000
1001
0000
0000
0110
0000
0000
0000
,
2002
0000
0000
3003
,
0000
1000
0000
0100
0000
1000
0000
0100
,
0000
0010
0000
0001
0000
0010
0000
0001
,
0000
0100
0000
0010
0000
0100
0000
0010
,
0000
0200
0000
0000
0300
0020
0000
0030
,
0000
1000
0000
0001
0000
1000
0000
0001
,
0000
2000
0000
0000
3000
0002
0000
0003
,
0000
0110
0000
0000
1001
0000
0000
0000
,
2002
0000
0000
0000
3003
0000
0000
1000
,
0000
0100
0000
0000
0000
0010
0000
0001
,
0000
0100
0000
0000
0000
1000
0000
0100
,
0000
0010
0000
0001
0000
0010
0000
0100
,
0000
0000
2000
0000
3000
0000
0000
1000
,
0000
0001
0000
0000
0000
0100
0000
0010
,
0000
1000
0000
0001
0000
1000
0000
0001
,
0000
0010
0000
0100
0000
0010
0000
0100
,
0000
0010
0000
0000
0000
0000
0000
0000
,
0000
0001
0000
0010
0000
0100
0000
1000
,
0000
0100
0000
0010
0000
0001
0000
0001
,
0000
0010
0000
0100
0000
1000
0000
0100
,
0000
0020
0000
0000
0030
0002
0000
0003
,
0000
1000
0000
0100
0000
0001
0000
0100
,
0000
0020
0000
0000
0030
0200
0000
0300
,
0000
1001
0000
0000
0110
0000
0000
0220
,
0000
0000
0330
0000
,
0000
1000
0000
0010
0000
1000
0000
0010
,
0000
0001
0000
0100
0000
0001
0000
0100
,
0000
1000
0000
0001
0000
1000
0000
0001
,
0000
2000
0000
0000
3000
0002
0000
0003
,
0000
0100
0000
0010
0000
0100
0000
0010
,
0000
0200
0000
0000
0300
0020
0000
0030
,
0000
0110
0000
0000
1001
0000
0000
0000
,
0220
0000
0000
0000
0000
0330
0000
0000
,
0000
1000
0000
0000
0000
0000
0000
0000
,
0000
0100
0000
0000
0000
0000
0000
0000
,
0000
0020
0000
0000
0000
0000
0000
0000
,
0000
0000
0000
0030
0000
0000
0000
0000
;
