#TITLE:Mediational Field;
#SUBTITLE:;
#ARTIST:KAITO;
#TITLETRANSLIT:;
#SUBTITLETRANSLIT:;
#ARTISTTRANSLIT:;
#GENRE:;
#CREDIT:Timer Rabbit;
#MENUCOLOR:;
#NEWMETERSYSTEM:NO;
#BANNER:paprikaKAITO_bn.PNG;
#BACKGROUND:paprikaKAITO_bg.PNG;
#LYRICSPATH:;
#CDTITLE:timerrabbit.png;
#MUSIC:paprikaKAITO.mp3;
#OFFSET:0.000;
#SAMPLESTART:64.600;
#SAMPLELENGTH:11.980;
#SELECTABLE:YES;
#LISTSORT:;
#BPMS:0.000=120.000;
#STOPS:;
#BGCHANGES:;
#ATTACKS:;

//---------------dance-single - ----------------
#NOTES:
     dance-single:
     :
     Challenge:
     9:
     0.504,0.542,0.545,0.472,0.000: // measure 1
0000
0000
0000
0000
,  // measure 2
0000
0000
0000
0000
,  // measure 3
0000
0000
0000
0000
,  // measure 4
0000
0000
0000
0000
,  // measure 5
0000
0000
0000
0001
0100
0010
1000
0001
,  // measure 6
0100
0010
0001
0202
0303
2020
0000
0000
,  // measure 7
3030
0110
0000
1000
0100
0010
0001
0010
,  // measure 8
0100
0010
1000
2200
3300
0022
0000
0000
,  // measure 9
0033
0101
0000
0010
0100
1000
0001
0100
,  // measure 10
0010
1000
0001
0202
0303
2200
0000
0000
,  // measure 11
3300
0110
0000
0100
0001
1000
0100
0010
,  // measure 12
0100
0001
0100
0202
0303
2020
0000
0000
,  // measure 13
3030
1001
0000
1100
0100
0010
0101
0010
,  // measure 14
0100
0110
0000
2200
3300
2002
0000
0000
,  // measure 15
3003
0101
0000
0011
0100
0010
1010
0100
,  // measure 16
0010
1100
0000
0202
0303
2002
0000
0000
,  // measure 17
3003
1100
0000
0200
0000
0300
0010
0001
,  // measure 18
0000
0100
0010
1000
0000
0001
0100
0001
,  // measure 19
0000
0100
0010
0100
0000
1000
0100
1000
,  // measure 20
0000
0100
0010
0101
0010
1100
0100
0000
,  // measure 21
0100
0012
0010
0010
0010
0010
1003
0100
,  // measure 22
0000
0010
0102
0100
0100
0100
0013
1000
,  // measure 23
0000
1000
0100
0010
0000
0001
0100
0010
,  // measure 24
0000
1000
0001
0110
0100
0110
0010
0000
,  // measure 25
1000
0100
0010
0002
0000
0000
0103
0010
,  // measure 26
0000
0010
1000
0200
0000
0000
0310
0001
,  // measure 27
0000
0001
0100
0001
0000
0100
0010
0100
,  // measure 28
0000
1000
0100
2000
0000
0000
3001
0100
,  // measure 29
0000
0001
0100
0202
0000
0303
1010
1100
,  // measure 30
0000
1000
0100
2200
0000
3300
0011
0101
,  // measure 31
0000
0100
0010
0100
0000
0001
1000
0001
,  // measure 32
1000
0001
1001
1000
1001
0100
0110
0000
,  // measure 33
1001
0000
0000
0101
0100
0010
1010
1000
,  // measure 34
0100
1100
0000
2002
3003
0220
0000
0000
,  // measure 35
0330
0101
0000
0110
0010
0001
1001
1000
,  // measure 36
0100
0101
0000
2002
3003
0220
0000
0000
,  // measure 37
0330
1010
0000
0002
0003
1000
0100
0010
,  // measure 38
0000
0010
0001
0100
0000
1000
0100
1000
,  // measure 39
0000
0100
0010
0100
0000
0001
0100
0001
,  // measure 40
0000
0100
0010
0011
1000
1100
0100
0000
,  // measure 41
0100
0120
0100
0100
0100
0130
0010
0100
,  // measure 42
0000
0001
2010
0010
0010
3010
0001
1000
,  // measure 43
0000
0001
1000
0001
0000
0100
0010
0100
,  // measure 44
0000
0001
0100
0110
0010
0110
0100
0000
,  // measure 45
0001
0100
0010
2000
0000
0000
3100
0010
,  // measure 46
0000
0010
0001
0200
0000
0000
0310
1000
,  // measure 47
0000
0100
0010
0100
0000
0100
1000
0100
,  // measure 48
0000
0001
0100
0020
0000
0000
1030
0100
,  // measure 49
0000
0100
0010
2200
0000
3300
0011
0101
,  // measure 50
0000
0100
0010
0022
0000
0033
1100
0110
,  // measure 51
0000
0100
0001
0100
0000
1000
0001
1000
,  // measure 52
0001
1000
1001
0001
1001
0010
0110
0000
,  // measure 53
1001
2000
0000
3002
,  // measure 54
0000
0203
0000
0320
,  // measure 55
0000
0032
0000
2003
,  // measure 56
0000
3200
0000
0300
,  // measure 57
0000
1000
0100
0100
0100
0010
0001
0000
,  // measure 58
0010
1000
0001
0001
0001
1000
0100
0000
,  // measure 59
0100
0010
0010
0010
0010
0001
1000
0000
,  // measure 60
0001
0100
0100
0100
0100
1000
0001
0000
,  // measure 61
1100
0000
0022
0000
0033
0100
0100
0000
,  // measure 62
0000
1010
0000
2200
0000
3300
0010
0010
,  // measure 63
0000
2000
3000
0002
0000
0000
0103
0010
,  // measure 64
1100
0011
0101
1010
,  // measure 65
0000
0100
0010
0010
0010
0001
0100
0000
,  // measure 66
0010
1000
0100
0100
0100
0010
0001
0000
,  // measure 67
0001
1000
1000
1000
1000
0100
0010
0000
,  // measure 68
0100
0010
0010
0010
0010
0001
1000
0000
,  // measure 69
0101
0000
2200
0000
3300
0010
0010
0000
,  // measure 70
0000
0101
0000
0022
0000
0033
0100
0100
,  // measure 71
0000
0002
0003
2000
0000
0000
3001
0100
,  // measure 72
0101
1010
1100
0101
,  // measure 73
0000
0002
0000
0000
,  // measure 74
2003
0000
0000
0000
,  // measure 75
3200
0000
0000
0000
,  // measure 76
0320
0000
0000
0000
,  // measure 77
0030
0000
0001
0100
0000
0010
0010
0000
,  // measure 78
0000
0000
1000
0100
0000
0100
1000
0100
,  // measure 79
0010
0001
0000
0001
0000
0000
0001
0100
,  // measure 80
0000
0010
1000
0100
0001
1000
0000
0000
,  // measure 81
1001
0000
1000
0100
0010
0001
1000
0100
,  // measure 82
0010
1000
2200
3300
0022
0000
0000
0033
,  // measure 83
0110
0000
0001
0100
0010
1000
0100
0010
,  // measure 84
0001
0100
0220
0330
2200
0000
0000
3300
,  // measure 85
0101
0000
0110
0010
0100
1100
0010
0001
,  // measure 86
0101
0000
0220
0330
2200
0000
0000
3300
,  // measure 87
0011
0000
0101
0100
0010
1010
0010
0001
,  // measure 88
0101
0000
0202
0303
2200
0000
0000
3300
,  // measure 89
0110
0000
0000
0200
0000
0300
0010
1000
,  // measure 90
0000
0100
0010
0001
0000
1000
0100
1000
,  // measure 91
0000
0100
0010
0100
0000
0001
0100
0001
,  // measure 92
0000
0001
1000
1001
0001
0101
0100
0000
,  // measure 93
0001
2100
0100
0100
0100
0100
3001
0100
,  // measure 94
0000
0001
0102
0100
0100
0100
0013
1000
,  // measure 95
0000
0100
0010
0001
0000
0010
0100
1000
,  // measure 96
0000
0001
1000
1001
0001
1001
1000
0000
,  // measure 97
0001
1000
0100
0020
0000
0030
1000
0100
,  // measure 98
0000
0010
0001
2000
0000
0000
3001
1000
,  // measure 99
0000
0100
0010
0100
0000
0001
1000
0001
,  // measure 100
0000
0001
0100
0020
0000
0000
0130
0001
,  // measure 101
0000
0001
0100
0220
0000
0330
0101
1100
,  // measure 102
0000
0010
0001
0202
0000
0303
0110
1100
,  // measure 103
0000
0100
0010
0100
0000
0001
1000
0001
,  // measure 104
1000
0001
1001
1000
1001
0100
0110
0000
,  // measure 105
1001
0002
0000
2003
,  // measure 106
0000
0000
0000
0000
3002
0000
0000
0003
,  // measure 107
0000
0001
0100
0100
0100
0010
1000
0000
,  // measure 108
0010
0001
0100
0100
0100
0001
0010
0000
,  // measure 109
0010
1000
1000
1000
1000
0001
1000
0000
,  // measure 110
0100
0010
0010
0010
0010
0001
1000
0000
,  // measure 111
1100
0000
0220
0000
0330
0010
0010
0000
,  // measure 112
0000
0101
0000
2020
0000
3030
1000
1000
,  // measure 113
0000
0002
0003
2000
0000
0000
3100
0010
,  // measure 114
0101
1010
1100
0011
,  // measure 115
0000
0001
1000
1000
1000
0001
0100
0000
,  // measure 116
0010
0100
0010
0010
0010
0100
0001
0000
,  // measure 117
0001
1000
1000
1000
1000
0100
0010
0000
,  // measure 118
1000
0010
0010
0010
0010
0001
0100
0000
,  // measure 119
1100
0000
0220
0000
0330
0100
0100
0000
,  // measure 120
0000
1100
0000
0202
0000
0303
0100
0100
,  // measure 121
0000
0020
0030
2000
0000
0000
3001
0100
,  // measure 122
0101
1010
1100
0011
,  // measure 123
0000
1000
0100
0100
0100
0010
0001
0000
,  // measure 124
0010
1000
0001
0001
0001
1000
0100
0000
,  // measure 125
0100
0010
0010
0010
0010
0001
1000
0000
,  // measure 126
0001
0100
0100
0100
0100
1000
0001
0000
,  // measure 127
1100
0000
0022
0000
0033
0100
0100
0000
,  // measure 128
0000
1010
0000
2200
0000
3300
0010
0010
,  // measure 129
0000
2000
3000
0002
0000
0000
0103
0010
,  // measure 130
1100
0011
0101
1010
,  // measure 131
0000
0100
0010
0010
0010
0001
0100
0000
,  // measure 132
0010
1000
0100
0100
0100
0010
0001
0000
,  // measure 133
0001
1000
1000
1000
1000
0100
0010
0000
,  // measure 134
0100
0010
0010
0010
0010
0001
1000
0000
,  // measure 135
0101
0000
2200
0000
3300
0010
0010
0000
,  // measure 136
0000
0101
0000
0022
0000
0033
0100
0100
,  // measure 137
0000
0002
0003
2000
0000
0000
3001
0100
,  // measure 138
0101
1010
1100
0101
,  // measure 139
0000
0000
0001
0100
0010
1000
0001
0100
,  // measure 140
0010
0001
0202
0303
2020
0000
0000
3030
,  // measure 141
0110
0000
1000
0100
0010
0001
0010
0100
,  // measure 142
0010
1000
2200
3300
0022
0000
0000
0033
,  // measure 143
0110
0000
0000
0000
;
