#TITLE:MY;
#SUBTITLE:(STEP REMAKE);
#ARTIST:Yoshi-Kun to Aramaki Yoshi-San;
#TITLETRANSLIT:;
#SUBTITLETRANSLIT:;
#ARTISTTRANSLIT:;
#CREDIT:Timer Rabbit;
#BANNER:messagesong_bn.PNG;
#BACKGROUND:messagesong_bg.PNG;
#LYRICSPATH:;
#CDTITLE:timerrabbit.png;
#MUSIC:messagesong.mp3;
#OFFSET:0.000;
#SAMPLESTART:35.294;
#SAMPLELENGTH:12.000;
#SELECTABLE:YES;
#BPMS:0.000=170.000,180.000=85.000,212.000=170.000;
#STOPS:;
#BGCHANGES:;

//---------------dance-single - ----------------
#NOTES:
     dance-single:
     :
     Hard:
     8:
     0.372,0.438,0.238,0.183,0.044:
0000
0000
0000
0000
,
0000
0000
0000
0000
,
0000
0000
0000
0000
,
0000
0000
0000
0000
,
0000
0000
0000
0000
,
0000
0000
0000
0000
0000
0011
0000
1100
,
0000
1000
0000
0001
0000
0100
0000
0010
,
0000
1000
0000
0100
0000
0010
0000
0001
,
0000
0100
0000
1000
0000
1000
0000
1000
,
0010
0100
0000
0001
0010
0100
1000
2000
,
0000
0000
0000
0001
0000
0000
0000
0001
0000
0000
0000
0001
0000
0000
0000
3001
,
0000
0000
0000
0000
,
2010
0000
0010
3000
0010
0000
0010
0000
,
0010
0101
0010
0100
,
1100
0000
0010
0001
0000
0000
0000
0001
,
0000
1000
0000
0001
0000
2000
0000
0000
,
0000
3000
0001
1000
0000
0000
0000
0002
,
0000
1003
0000
0200
0000
0310
0000
0002
,
0000
0003
0000
0000
0001
0000
0101
0000
,
0000
0000
2020
0000
0000
3030
0000
0210
,
0000
0010
0300
0010
0000
0010
0000
0010
,
0000
1010
0000
0100
0000
0010
0000
0011
,
0000
0100
1000
0000
0000
0000
0100
0000
,
0010
0100
0002
0000
,
0003
1000
0100
0000
0000
0000
0001
0000
,
0010
0001
0000
1000
0100
0001
0000
0000
,
0000
0000
0001
0010
0001
0000
1000
0100
,
1000
0002
0000
0003
2000
0000
0000
3000
,
0011
0001
1100
0100
,
0010
0000
0100
0000
0020
0000
0030
0100
,
0000
0000
0000
0000
0001
0000
1000
0100
,
0000
0010
0001
0010
0000
0000
0100
0000
,
0000
0000
0000
0000
1000
0000
0001
1000
,
0000
0001
0000
0010
0000
0200
0000
0000
,
0300
0000
0000
0000
1000
0100
1000
0000
,
0010
0100
0001
1010
,
1000
0101
0010
1000
,
0100
0000
0002
0000
0000
0003
0010
0000
,
0000
0000
0000
0000
1000
0000
0010
0001
,
0100
0000
0100
0010
1000
0000
0101
0000
,
0000
0000
0000
0000
0001
0000
0010
0100
,
0000
1000
0001
0100
0000
0010
0000
0200
,
0000
0000
0000
0000
0000
0300
0000
0000
,
1000
0000
0001
1000
0000
0000
0100
0000
0000
0000
1000
0000
0100
0000
0010
0000
,
0001
0000
0000
0000
,
1000
0000
0000
0000
0100
0000
0000
0000
0010
0000
0000
0000
0001
0010
0001
0000
,
0010
0000
0000
0000
0100
0000
0000
0000
1000
0000
0000
0000
0100
0010
0100
0000
,
0001
0000
0000
0000
0010
0000
0000
0000
0100
0000
0000
0000
1000
0100
1000
0000
,
0100
0000
0010
0000
0001
0000
0110
1001
,
1000
0000
0000
0000
0010
0000
0000
0000
0100
0000
0000
0000
0001
0010
0001
0000
,
0100
0000
0000
0000
0010
0000
0000
0000
1000
0000
0000
0000
0100
0010
0100
0000
,
0001
0000
1000
0000
0010
0000
0110
1001
,
0000
0000
1001
0110
0000
0000
0000
0000
,
1100
0010
0011
0100
,
1000
0000
0010
0000
0002
0000
0003
1000
,
0000
0000
0000
0000
0100
0000
0010
0001
,
0000
0100
0010
0100
0000
0000
1000
0000
,
0000
0000
0000
0000
0001
0000
0010
0100
,
0000
1000
0000
0010
0000
0002
0000
0000
,
0003
0000
0000
0000
0001
0010
0001
0000
,
0100
0010
1000
1100
,
0010
0011
1000
0001
,
0100
0000
0020
0000
0000
0030
0100
0000
,
0000
0000
0000
0000
0001
0000
0010
1000
,
0100
0000
0100
0010
0001
0000
0011
0000
,
0000
0000
0000
0000
1000
0000
0100
0010
,
0000
0001
0010
1000
0000
0100
0000
0020
,
0000
0000
0000
0000
0000
0030
0000
0000
,
0001
0000
1000
0001
0000
0000
0010
0000
0000
0000
0001
0000
0010
0000
0100
0000
,
2000
0001
0001
0001
,
0001
0000
3001
0000
0001
0000
0000
1001
,
0000
0010
0000
0100
0000
1000
0000
0010
,
0000
0001
0000
0100
0000
0011
0000
1100
,
0000
1000
0000
0001
0000
0100
0000
0010
,
0000
1000
0000
0100
0000
0010
0000
0001
,
0000
0100
0000
1000
0000
1000
0000
1000
,
0010
0100
0000
0001
0010
0100
1000
2002
,
0000
0000
0000
0000
,
0000
0000
0000
3003
;

//---------------dance-single - Modified from Heavy----------------
#NOTES:
     dance-single:
     Modified from Heavy:
     Medium:
     5:
     0.310,0.344,0.167,0.207,0.016:
0000
0000
0000
0000
,
0000
0000
0000
0000
,
0000
0000
0000
0000
,
0000
0000
0000
0000
,
0000
0000
0000
0000
,
0000
0000
0000
0000
0000
0110
0000
1001
,
0000
1000
0000
0001
0000
0100
0000
0010
,
0000
1000
0000
0100
0000
0010
0000
0001
,
0000
0100
0000
1000
0000
1000
0000
0100
,
0000
0010
0000
0001
0000
0100
0000
2000
,
0000
0000
0000
0001
0000
0000
0000
0001
0000
0000
0000
0001
0000
0000
0000
3001
,
0000
0000
0000
0000
,
2000
0000
0000
3000
0000
0000
0000
0000
,
0001
0010
1000
0100
,
0001
0000
0100
1000
0000
0000
0000
0001
,
0000
1000
0000
0001
0000
2000
0000
0000
,
0000
3000
0002
0000
0003
0000
0000
0001
,
0000
1000
0000
0100
0000
0010
0000
0002
,
0000
0003
0000
0000
0001
0000
0110
0000
,
0000
0000
2002
0000
0000
3003
0000
0200
,
0000
0000
0300
0000
0000
0000
0000
0010
,
0000
1000
0000
0100
0000
0010
0000
0001
,
0000
1000
0100
0000
0000
0000
0100
0000
,
0010
0100
0002
0000
,
0003
2000
0000
3000
0000
0000
0001
0000
,
0011
0100
0100
1100
,
0000
0001
0010
0001
,
0100
0002
0000
0003
2000
0000
0000
3000
,
0011
0000
1100
0100
,
0010
0000
0100
0000
0020
0000
0030
0100
,
0000
0000
0000
0000
0001
0000
1000
0100
,
0000
0010
0000
0010
0000
0000
0100
0000
,
0000
0000
1000
0001
,
0100
0000
0020
0000
0030
0200
0000
0000
,
0300
0000
1000
0001
,
0010
0100
0001
1010
,
0000
0101
0010
1000
,
0100
0000
0002
0000
0000
0003
0010
0000
,
0000
0000
1000
0010
,
0100
0010
0001
0101
,
0000
0000
0000
0000
0001
0000
0000
1000
,
0000
0001
0000
0010
0000
1000
0000
0200
,
0000
0000
0000
0000
0000
0300
0000
0000
,
1000
0000
0001
0100
0000
0010
0000
0200
,
0000
0000
0000
0300
0000
0000
0000
0000
,
1000
0000
0100
0000
0010
0000
0001
0001
,
0010
0000
0100
0000
1000
0000
0100
0100
,
0001
0000
0010
0000
0100
0000
1000
1000
,
0100
0000
0010
0000
0001
0000
0000
0110
,
1000
0000
0010
0000
0100
0000
0001
0001
,
0100
0000
0010
0000
1000
0000
0100
0100
,
0001
0000
1000
0000
0010
0000
0000
0110
,
0000
0000
0000
1001
0000
0000
0000
0000
,
1100
0000
0011
0100
,
1000
0000
0010
0000
0002
0000
0003
1000
,
0000
0000
0100
0010
,
0100
0010
0001
1000
,
0000
0000
0000
0000
0001
0000
0200
0300
,
0000
1000
0000
0010
0000
0002
0000
0000
,
0003
0000
0001
1000
,
0100
0010
1000
1100
,
0000
0011
1000
0001
,
0100
0000
0020
0000
0000
0030
0100
0000
,
0000
0000
0001
0010
,
1000
0100
0010
0011
,
0000
0000
0000
0000
1000
0000
0000
0001
,
0000
0100
0000
0010
0000
1000
0000
0020
,
0000
0000
0000
0000
0000
0030
0000
0000
,
0001
1000
0010
0100
,
2000
0001
0001
0001
,
0001
0000
3001
0000
0001
0000
0000
1001
,
0000
0010
0000
0100
0000
1000
0000
0010
,
0000
0001
0000
0100
0000
0001
0000
1000
,
0000
1000
0000
0001
0000
0100
0000
0010
,
0000
1000
0000
0100
0000
0010
0000
0001
,
0000
0100
0000
1000
0000
1000
0000
0010
,
0000
0100
0000
1000
0000
0001
0000
2002
,
0000
0000
0000
0000
,
0000
0000
0000
3003
;

//---------------dance-single - ----------------
#NOTES:
     dance-single:
     :
     Easy:
     4:
     0.255,0.345,0.024,0.238,0.000: // measure 1
0000
0000
0000
0000
,  // measure 2
0000
0000
0000
0000
,  // measure 3
0000
0000
0000
0000
,  // measure 4
0000
0000
0000
0000
,  // measure 5
0000
0000
0000
0000
,  // measure 6
0000
0000
0000
0000
0000
1000
0000
0001
,  // measure 7
0000
1000
0000
0100
0000
1000
0000
0100
,  // measure 8
0000
0010
0000
0001
0000
0010
0000
0001
,  // measure 9
0000
0100
0000
0010
0000
0100
0000
0002
,  // measure 10
0000
0000
0000
0003
0000
0000
0000
2000
,  // measure 11
0000
0000
0000
0000
,  // measure 12
0000
3000
0000
0000
0000
0000
0000
0001
,  // measure 13
0000
0000
0000
0000
,  // measure 14
0000
0100
0000
0010
0000
1000
0000
0100
,  // measure 15
0000
0000
0002
0000
0000
0003
0000
0010
,  // measure 16
0000
0100
0000
0010
0000
0200
0000
0300
,  // measure 17
0000
0000
0001
2000
0000
3000
0000
0010
,  // measure 18
0000
0001
0000
0010
0000
0001
0000
0100
,  // measure 19
0000
0000
0000
0000
0000
1000
0000
0002
,  // measure 20
0000
0003
0000
2000
0000
3000
0000
1000
,  // measure 21
0000
0000
0000
0000
,  // measure 22
0000
0001
0000
0010
0000
0100
0000
1000
,  // measure 23
0000
0000
0020
0000
0000
0030
0000
1000
,  // measure 24
0000
0010
0000
0100
0000
0002
0000
0003
,  // measure 25
0000
0000
1000
0200
0000
0300
0000
0010
,  // measure 26
0000
0100
0000
0010
0000
0001
0000
0100
,  // measure 27
0000
0000
0000
0000
0000
0001
0000
0020
,  // measure 28
0000
0030
0000
0200
0000
0300
0000
0100
,  // measure 29
0000
0000
0000
0010
0000
0000
0001
0000
,  // measure 30
1000
0001
1000
0001
,  // measure 31
0000
0000
0000
0100
0000
0000
0000
0010
,  // measure 32
0000
0001
0000
0100
0000
1000
0000
0000
,  // measure 33
0000
0000
0000
1000
0000
0010
0000
0001
,  // measure 34
0000
0100
0000
0010
0000
0200
0000
0000
,  // measure 35
0000
0300
0000
1000
0000
0001
0000
0010
,  // measure 36
0000
0010
0000
0010
0000
0000
0001
0000
,  // measure 37
0000
0000
1000
0000
0000
0010
0000
0100
,  // measure 38
0000
0010
0000
0100
0000
0010
0000
0000
,  // measure 39
0000
0000
0000
0200
0000
0000
0000
0300
,  // measure 40
0010
0000
0001
0000
0100
0000
0000
1000
,  // measure 41
0000
0000
0000
0100
,  // measure 42
0010
0001
0200
0020
,  // measure 43
0330
0000
0000
0000
,  // measure 44
1000
0001
0100
0020
,  // measure 45
0000
0000
0000
0030
0000
0000
0000
0000
,  // measure 46
1000
0000
0100
0000
0010
0000
0002
0003
,  // measure 47
0010
0000
0100
0000
1000
0000
0200
0300
,  // measure 48
0010
0000
0001
0000
0100
0000
2000
3000
,  // measure 49
0100
0000
0010
0000
0001
0000
0000
1001
,  // measure 50
0000
0000
0010
0000
0002
0003
0010
0000
,  // measure 51
0100
0000
1000
0000
0200
0300
0010
0000
,  // measure 52
0001
0000
0020
0030
0100
0000
0000
1001
,  // measure 53
0000
0000
0000
0110
0000
0000
0000
0000
,  // measure 54
0010
0000
0000
0000
1000
0000
0000
0100
,  // measure 55
0000
0001
0000
0010
0000
1000
0000
0100
,  // measure 56
0000
0000
0010
0000
,  // measure 57
0001
0100
1000
0010
,  // measure 58
0000
0000
0001
0100
,  // measure 59
1000
0010
0100
0002
,  // measure 60
0000
0003
0100
0010
,  // measure 61
0100
0000
0100
0000
0100
0000
0000
1000
,  // measure 62
0000
0000
0000
0010
0000
0000
0001
0000
,  // measure 63
0100
0010
0100
0010
,  // measure 64
0000
0000
0020
0000
,  // measure 65
0030
0100
0000
1000
0000
0010
0000
0000
,  // measure 66
0001
0000
0000
0000
0000
0000
0000
0010
,  // measure 67
0000
0100
0000
0001
0000
0002
0000
2000
,  // measure 68
0000
3003
0000
0000
0000
0000
0000
0000
,  // measure 69
0000
0001
0000
0010
0000
1000
0000
0200
,  // measure 70
0000
0000
0000
0000
,  // measure 71
0000
0000
0000
0000
0000
0000
0000
0310
,  // measure 72
0000
1000
0100
1000
,  // measure 73
0100
0000
0001
0000
0000
1000
0000
0001
,  // measure 74
0000
1000
0000
0100
0000
1000
0000
0100
,  // measure 75
0000
0010
0000
0001
0000
0010
0000
0001
,  // measure 76
0000
0100
0000
0010
0000
0100
0000
0002
,  // measure 77
0000
0000
0000
0003
0000
0000
0000
2000
,  // measure 78
0000
0000
0000
0000
,  // measure 79
0000
0000
0000
0000
0000
0000
0000
3000
;
