#TITLE:Loveholic;
#SUBTITLE:(Emotional);
#ARTIST:Sana;
#TITLETRANSLIT:;
#SUBTITLETRANSLIT:;
#ARTISTTRANSLIT:;
#CREDIT:Timer Rabbit;
#BANNER:emotional_bn.PNG;
#BACKGROUND:emotional_bg.PNG;
#LYRICSPATH:;
#CDTITLE:timerrabbit.png;
#MUSIC:emotional.mp3;
#OFFSET:0.000;
#SAMPLESTART:63.531;
#SAMPLELENGTH:12.000;
#SELECTABLE:YES;
#BPMS:0.000=150.000;
#STOPS:;
#BGCHANGES:;

//---------------dance-single - ----------------
#NOTES:
     dance-single:
     :
     Easy:
     3:
     0.221,0.273,0.017,0.154,0.000: // measure 1
0000
0000
0000
0000
,  // measure 2
0000
0000
0000
0000
,  // measure 3
0000
0000
0000
0000
,  // measure 4
0000
0000
0000
0000
,  // measure 5
0000
0000
0000
0200
0000
0000
0300
0000
,  // measure 6
0000
0000
0000
0000
,  // measure 7
0000
0000
0000
0000
,  // measure 8
0000
0000
0000
0000
,  // measure 9
0000
2000
3000
0001
,  // measure 10
0000
0001
0000
0001
,  // measure 11
0000
0001
0000
0001
,  // measure 12
0000
0001
0000
0001
,  // measure 13
0000
0001
0000
1000
,  // measure 14
0000
1000
0000
1000
,  // measure 15
0000
1000
0000
1000
,  // measure 16
0000
1000
0000
1000
,  // measure 17
0000
2000
3000
0100
,  // measure 18
0100
0100
0000
0010
,  // measure 19
0010
0010
0000
0001
,  // measure 20
0001
0001
0000
1000
,  // measure 21
1000
1000
0000
0100
,  // measure 22
0100
0100
0000
0010
,  // measure 23
0010
0010
0000
0001
,  // measure 24
0001
0001
0000
1000
,  // measure 25
0000
0001
0000
0010
,  // measure 26
0010
0010
0000
0100
,  // measure 27
0100
0100
0000
0001
,  // measure 28
0001
0001
0000
1000
,  // measure 29
1000
1000
0000
0100
,  // measure 30
0100
0100
0000
0010
,  // measure 31
0010
0010
0000
0001
,  // measure 32
0001
0001
0000
1000
,  // measure 33
1000
2000
3002
0000
,  // measure 34
0000
0000
0000
0000
0000
0003
1000
0000
,  // measure 35
0000
0000
2000
0000
,  // measure 36
0000
0000
0000
0000
3000
0001
0000
0001
,  // measure 37
0000
0001
0000
0000
0200
0000
0000
0000
,  // measure 38
0000
0000
0000
0000
0320
0000
0000
0030
,  // measure 39
0000
0000
1000
0001
,  // measure 40
1000
0001
1000
0001
,  // measure 41
2000
0000
0000
0000
0000
3000
0001
0000
,  // measure 42
0000
1000
0000
0000
1000
0000
0000
0001
,  // measure 43
0000
0100
0100
0100
,  // measure 44
0100
0100
0010
0100
,  // measure 45
0000
0000
0001
0000
,  // measure 46
1000
0000
0100
0000
,  // measure 47
0010
0000
0100
0100
,  // measure 48
0000
0000
0000
2002
,  // measure 49
3003
0220
0000
0330
0000
0001
0000
0000
,  // measure 50
1000
0000
0000
0000
0100
0000
0000
0010
,  // measure 51
0000
0000
0001
1000
,  // measure 52
0010
0100
0100
0100
,  // measure 53
0000
0000
1000
0000
,  // measure 54
0001
0000
0100
0010
,  // measure 55
0100
0010
0001
1000
,  // measure 56
0001
0000
0002
0000
0000
0000
0000
0003
,  // measure 57
0000
1000
0000
1000
,  // measure 58
0000
1000
0000
1000
,  // measure 59
0000
1000
0000
0001
,  // measure 60
0000
0001
0000
0001
,  // measure 61
0000
0001
0000
0001
,  // measure 62
0000
0001
0000
0001
,  // measure 63
0000
0001
0000
0010
,  // measure 64
0010
0010
0010
0010
,  // measure 65
0010
0020
0030
0001
,  // measure 66
0001
0001
0001
0001
,  // measure 67
0001
0002
0003
1000
,  // measure 68
1000
1000
1000
1000
,  // measure 69
1000
2000
3000
0100
,  // measure 70
0100
0100
0100
0100
,  // measure 71
0100
0100
0200
0300
;

//---------------dance-single - ----------------
#NOTES:
     dance-single:
     :
     Hard:
     7:
     0.334,0.424,0.000,0.137,0.017:
0000
0000
0000
0000
,
0000
0000
0000
0000
,
0000
0000
0000
0000
,
0000
0000
0000
0000
,
0000
0000
0000
0200
0000
0000
0300
0000
,
0000
0000
0000
0000
,
0000
0000
0000
0000
,
0000
0000
0000
0000
,
0000
0000
1000
0001
1000
0000
0010
0000
,
0000
0001
0000
0000
0100
0000
0000
1000
,
0000
0010
0100
0010
0001
0100
0200
0000
,
0000
0000
0000
0000
0000
0300
0000
0000
,
0100
0000
0100
0010
,
0000
1000
0000
0000
0100
0000
0000
0001
,
0000
0000
1000
0100
0010
0100
1000
2000
,
0000
0000
0000
3000
,
0000
0000
0100
0010
0100
0000
1000
0100
,
1000
0100
0000
0010
0001
0010
0001
0000
,
0100
0010
0200
0301
1000
0001
0000
0000
,
0001
0010
0001
0000
1000
0100
1000
0000
,
0100
0000
0000
0000
0100
0000
0100
0010
,
0100
0010
0000
0001
1000
0001
1000
0000
,
1000
0010
0100
0001
0010
0100
2000
0000
,
0000
3000
1000
0000
,
1000
0000
0000
0000
1000
0000
0100
0010
,
0001
0100
0000
0100
0010
1000
0100
0000
,
0010
0001
0100
1000
0100
0002
0000
0003
,
0001
0010
0001
0000
1000
0100
1000
0000
,
0000
0000
0000
0000
1000
0010
1000
0010
,
1000
0000
0010
0001
0010
0001
0000
1000
,
0100
1000
0100
0010
0001
0002
0000
0000
,
0003
0001
0000
0001
,
0000
0000
0001
1000
0002
0000
0000
0000
,
0000
0000
0000
0000
1003
0100
1000
0000
,
0000
0000
0000
0000
1000
0100
2000
0000
,
0000
0000
0000
3000
0100
0010
0001
0010
,
0000
0010
1000
0010
0001
0010
0200
0000
,
0000
0000
0000
0000
0310
0001
1000
0000
,
0000
0000
0000
1000
0000
0010
0000
0100
,
0000
0000
0001
0000
0000
0000
0010
0000
0200
0000
0000
0000
0300
0000
0000
0001
,
0000
1000
0000
0000
0000
1000
0000
0001
0000
0000
1000
0000
0010
0000
0000
0000
,
0100
0001
0000
0000
0010
0001
0000
0100
,
1000
0000
0000
1000
0001
1000
0000
0100
,
0010
0100
0010
0200
0000
0000
0000
0000
,
0300
0000
0001
0010
,
1000
0100
0010
0001
,
0100
1000
0001
0200
,
0000
0000
0000
0000
0300
0000
1000
0100
,
1000
0010
0001
0010
0000
0001
0100
0000
,
1000
0010
0000
0000
0010
0100
0000
1000
,
0001
0000
0000
0001
0100
0001
0010
1000
,
0100
1000
0010
0100
0000
0010
0000
0000
,
0000
0000
1000
0001
,
0100
0010
0200
0000
,
0000
0000
0000
0000
0000
0000
0000
1300
,
0000
0000
0100
0000
0010
0000
0000
0001
,
0000
0100
0001
0100
0010
0001
0002
0000
,
0000
0000
0000
0003
1000
0000
0000
0000
,
1000
0000
1000
0001
,
0000
0100
0000
0000
1000
0000
0000
0001
,
0000
0010
0100
0010
1000
0001
0200
0000
,
0000
0000
0000
0300
0000
0000
0100
0000
,
0000
0100
0000
1000
,
1000
1000
1000
1000
,
1000
0000
1000
1000
1000
0000
0100
0000
,
0100
0100
0100
0100
,
0100
0000
0100
0100
0100
0000
0010
0000
,
0010
0010
0010
0010
,
0010
0000
0010
0010
0010
0000
0001
0000
,
0001
0001
0001
0001
,
0001
0000
0001
1000
0001
1000
0001
0000
;

//---------------dance-single - ----------------
#NOTES:
     dance-single:
     :
     Challenge:
     8:
     0.400,0.514,0.009,0.283,0.098:
0000
0000
0000
0000
,
0000
0000
0000
0000
,
0000
0000
0000
0000
,
0000
0000
0000
0000
,
0000
0000
0000
2002
0000
0000
3003
0000
,
0000
0000
0000
0000
,
0000
0000
0000
0000
,
0000
0000
0000
0000
,
0000
0000
0000
0000
1000
0100
1000
0100
1000
0100
0000
0000
0000
0000
0010
0000
,
0000
0000
0001
0000
0100
0000
0000
1000
,
0000
1000
0010
1000
0010
1000
0020
0000
,
0100
0000
0000
0030
0100
0000
0000
0000
,
0100
0000
0100
0100
,
0000
1000
0000
0000
0010
0000
0000
0001
,
0000
0001
0010
0001
0010
0001
0020
0000
,
0100
0000
0000
0030
0100
0000
0000
0000
,
0100
0000
0000
0000
0001
1000
0001
1000
0001
1000
0000
0000
0001
0000
0100
0000
,
1000
0100
0000
0010
0000
0001
0000
1000
,
0100
0002
0000
0013
0100
1000
0000
0000
,
0010
0100
2000
3010
0001
0002
0000
0000
,
0003
0000
1000
0000
0000
0000
0001
0100
,
0020
0000
0130
0010
2000
0000
3001
0010
,
0200
0000
0310
0100
0010
0100
0002
0000
,
0000
0003
0001
0000
0000
0000
0001
0000
,
0000
0000
0001
0000
0000
0000
0001
0100
,
0020
0000
0130
1000
0002
0000
0003
0100
,
0010
2000
0000
3010
0100
0001
0000
0000
,
0001
0010
0200
0000
1300
0100
0010
0000
,
0000
0000
0010
0000
0010
1000
0020
0031
,
0010
0000
0002
1003
0100
1000
0000
0100
,
0001
0200
0000
0310
1000
0020
0000
0000
,
0000
0030
0000
0000
0010
0000
0000
0000
,
0010
0000
0000
0010
0100
0010
0100
0010
0200
0000
0000
0000
0000
0000
0000
0000
,
0000
0000
0000
0000
0000
0000
0301
1000
0002
0000
0000
0000
0003
0000
0000
0000
,
0000
0000
0000
0000
0000
0000
0010
0100
0020
0000
0000
0000
0000
0000
0000
0000
,
0000
0000
0030
0100
0000
0001
0000
1000
,
0000
0000
0001
0000
0010
0000
0000
0000
1000
0100
0020
0000
0000
0000
0000
0000
,
0000
0000
0000
0030
0100
0001
0010
0000
,
0000
0000
0000
0001
0001
0000
1000
0000
,
0010
0000
0000
0000
0100
0000
0000
0000
0001
0000
0020
0000
0030
0000
0000
1000
,
0000
0001
0000
0000
0000
0001
0000
1000
0010
0000
0001
0000
0010
0000
1000
0000
,
0100
1000
0000
0100
0001
0100
0010
1000
,
0010
0000
0000
1000
0001
1000
0000
0100
,
0010
0100
0001
0100
0010
2000
0000
3000
,
0000
0000
0000
0000
1000
0100
0001
0010
,
1000
1000
0010
0100
0001
0001
0010
0100
,
0010
0000
0010
0100
0010
0200
0000
0000
,
0000
0000
0000
0000
0000
0000
0000
0000
0000
0000
0000
0000
0300
1000
0001
1000
,
0001
1000
0001
1000
0000
0000
0010
0000
0100
0000
0010
0000
1000
0000
0001
0000
,
1000
0001
0000
0010
1000
0100
0010
0001
,
0100
0000
0000
1000
0010
0002
0000
0103
,
1000
0100
0010
0002
0203
0000
0000
0000
,
0300
0000
0000
0000
1000
0100
0000
0010
,
0001
0000
0000
0010
1000
0100
0001
0010
,
0100
0010
1000
0100
0010
0002
0000
0000
,
0003
0002
0010
0000
1000
0000
0000
0103
,
0000
0010
1000
0100
1000
0010
0200
0000
,
0000
0000
0000
0300
0000
0000
0100
0000
,
0000
0100
0000
0100
,
0000
0010
0000
0000
0001
0000
0000
1000
,
0000
0010
1000
0100
1000
0010
0002
0000
,
0000
0000
0000
0003
0100
0000
0000
0000
,
0100
0000
0100
0010
,
0010
0010
0010
0010
,
0010
0000
0010
0010
0010
0000
0001
0000
,
0001
0001
0001
0001
,
0001
0000
0001
0001
0001
0000
1000
0000
,
1000
1000
1000
1000
,
1000
0000
1000
1000
1000
0000
0100
0000
,
0100
0100
0100
0100
,
0100
0000
0000
0000
0010
0100
0010
0100
0010
0100
0000
0000
0000
0000
0000
0000
;

//---------------dance-single - Copied from----------------
#NOTES:
     dance-single:
     Copied from:
     Medium:
     4:
     0.243,0.302,0.060,0.231,0.000:
0000
0000
0000
0000
,
0000
0000
0000
0000
,
0000
0000
0000
0000
,
0000
0000
0000
0000
,
0000
0000
0000
0002
0000
0000
0003
0000
,
0000
0000
0000
0000
,
0000
0000
0000
0000
,
0000
0000
0000
0000
,
0000
2002
3003
0010
,
0000
0010
0000
0000
0010
0000
0000
0010
,
0000
0010
0010
0020
,
0000
0000
0000
0000
0000
0030
0000
0000
,
0000
0000
0000
0100
,
0000
0100
0000
0000
0100
0000
0000
0100
,
0000
0100
0100
0200
,
0000
0000
0000
0000
0000
0000
0000
0300
,
0000
0220
0330
1000
,
0001
1000
0100
0010
,
0100
0001
0010
0001
,
0000
1000
0000
0100
0000
0010
0000
1000
,
0000
0000
0000
0100
,
0010
0100
0010
1000
,
0100
1000
0100
0010
,
0002
0000
0000
0003
0000
0000
0000
0000
,
0000
0000
0000
0001
,
0010
0001
1000
0010
,
1000
0100
1000
0010
,
0000
0100
0000
0010
0000
0001
0000
0002
,
0000
0003
0001
0010
,
1000
0100
0010
0001
,
0100
1000
0100
0020
,
0030
0000
0000
0000
,
0000
0000
0220
0000
0330
0001
0200
0000
,
0000
0000
0000
0300
1000
0010
1000
0000
,
0000
0000
2000
0000
,
0000
3001
0100
0010
,
1000
0000
0002
0000
,
0000
0000
0000
0000
0013
0100
0000
0000
,
0000
0000
1000
0001
,
0100
0010
0001
1000
,
1001
0000
0110
0000
0000
1000
0000
0000
,
0001
0000
0000
0000
0100
0000
0000
0010
,
0000
0000
1000
0001
,
1000
0100
0010
0100
,
0000
0001
0010
0100
,
1000
0100
0010
0001
,
0010
0100
1000
2000
,
0000
0000
0000
0000
0000
0000
3000
2002
,
0000
0000
0000
3003
0000
1000
0000
0000
,
0010
0000
0000
0000
0100
0000
0000
0001
,
0000
0000
0010
0100
,
1000
0010
0001
0002
,
0000
0003
0000
0000
1000
0000
0000
0000
,
1000
0000
0000
0001
,
0100
0010
0001
1000
,
0100
0000
0200
0000
0000
0000
0000
0300
,
0100
0100
0100
0200
,
0000
0000
0000
0000
0000
0000
0000
0300
,
0000
0000
0000
0000
0000
0000
0000
0010
,
0000
0000
0010
0000
0000
0010
0000
0000
,
0010
0010
0010
0020
,
0000
0000
0000
0000
0000
0000
0000
0030
,
0000
0000
0000
0001
,
0001
0001
0001
0001
,
0001
0002
0003
1000
,
1000
1000
1000
1000
,
1000
2000
3000
0100
,
0100
0100
0100
0100
,
0100
0200
0300
0010
,
0010
0010
0010
0010
,
0010
0000
0220
0000
0000
0330
0000
0000
;
