#TITLE:Late Riser;
#SUBTITLE:(Visual 3);
#ARTIST:Good-Cool;
#TITLETRANSLIT:;
#SUBTITLETRANSLIT:;
#ARTISTTRANSLIT:;
#CREDIT:Timer Rabbit;
#BANNER:lateriser_bn.PNG;
#BACKGROUND:lateriser_bg.PNG;
#LYRICSPATH:;
#CDTITLE:timerrabbit.png;
#MUSIC:lateriser.mp3;
#OFFSET:0.000;
#SAMPLESTART:32.609;
#SAMPLELENGTH:12.000;
#SELECTABLE:YES;
#BPMS:0.000=184.000;
#STOPS:;
#BGCHANGES:;

//---------------dance-single - ----------------
#NOTES:
     dance-single:
     :
     Hard:
     8:
     0.573,0.629,0.234,0.712,0.036:
0000
0000
0000
0000
,
0000
0000
0000
0000
,
0000
0000
0000
0000
0000
0000
0000
0001
,
0000
0100
0000
1000
0000
0010
0000
0001
,
0000
1000
0000
0001
0100
0001
0000
1000
,
0000
0100
0000
0010
0000
1000
0000
0001
,
0000
0100
0000
1001
0000
0000
0000
1001
,
0000
0100
0000
0010
0000
1000
0000
0100
,
0000
0010
0001
0010
0001
0000
0000
1000
,
0000
0010
0000
0001
0000
0100
0000
0100
,
0000
0010
0000
0100
0000
0110
0000
0000
,
1001
0001
0100
0001
0100
0000
1000
0000
,
0010
1000
0010
1000
0100
0001
0100
0010
,
0001
0010
0100
1000
0100
0000
1001
0000
,
0010
0100
0010
0100
0020
0030
0000
0000
,
1002
0000
1000
0000
1000
0003
1000
0100
,
0010
0000
2001
0001
,
0001
0000
3001
1000
0020
0000
0030
0001
,
0000
0100
0000
1000
0000
0010
0000
0000
,
0210
0000
0010
0000
0310
0000
0001
1000
,
0100
0000
0000
0000
0001
1000
0002
0103
,
0010
0200
0300
2000
3002
0023
0000
0000
,
1030
0001
1000
0001
1000
0001
1000
0001
,
0120
0000
0100
0000
0130
0000
0100
0010
,
0100
0000
2001
0001
,
0001
0000
3001
0100
0002
0000
0003
1000
,
0000
0100
0000
0001
0000
0010
0000
0210
,
0000
0010
0000
0310
1000
0001
2000
0000
,
3000
0000
0000
0000
0010
0100
2000
3001
,
0100
0020
0030
0002
2003
3200
0000
0300
,
0100
0010
0100
0010
0100
0010
0100
0020
,
0000
0000
0000
0000
0030
2000
0000
3002
,
0000
0203
0000
0320
0000
0030
0001
0010
,
0001
0000
0000
0000
0000
1000
0000
1100
,
0000
0000
0011
0000
2002
0000
3003
0110
,
0000
0000
0000
0000
0000
1000
0001
0100
,
0010
0200
0000
0300
0000
0001
1000
0002
,
0000
0000
0000
0000
0003
0010
0001
0200
,
0000
0301
1000
0001
1000
0001
1000
0001
,
0200
0000
0000
0000
0300
0020
0000
2030
,
0000
3002
0000
0203
0000
0300
1000
0100
,
1000
0000
0000
0000
0000
0001
0000
0011
,
0000
0000
1100
0000
0220
0000
0330
1002
,
0000
1000
0000
1000
0000
1000
0000
1003
,
0000
0000
0000
0000
0000
0000
0000
0000
0000
0000
0000
0000
0000
1000
0000
0000
,
0000
0001
0000
0000
0000
1000
0000
0000
0000
0001
0000
0000
0000
0110
0000
0000
,
0000
2002
0000
0000
0000
0000
0000
0000
0000
3003
0000
0000
0000
0000
0120
0000
,
0000
1000
0000
0100
0000
1000
0000
0100
,
0000
1030
0000
1000
0100
1000
0000
0201
,
0000
1000
0000
0001
0000
1000
0000
0301
,
0000
0001
1000
0001
0000
0000
0000
2010
,
0000
0001
0000
0010
0000
0001
0000
0010
,
0000
3001
0000
0010
0001
0010
0000
1002
,
0000
0100
0000
1000
0000
0100
0000
1003
,
0000
1000
0100
1000
0200
0300
0000
0100
,
0000
0001
0000
0100
0000
1000
0000
0010
,
0000
1000
0000
0100
0000
0001
0000
0002
,
0000
0000
0000
0000
0000
0000
0000
0003
,
0000
0000
0000
0000
0000
1000
0000
2000
,
0000
0000
0000
0000
0000
0000
0000
3000
,
0000
0000
0000
0000
0000
0002
2003
0000
,
0000
0000
3000
0000
,
0000
0000
0000
0000
0000
0001
0100
0001
0000
0000
0000
0000
0000
0000
1000
0000
,
2000
3000
0001
0002
0003
0100
0200
0300
,
0010
0020
0030
0001
1000
0001
0000
0010
,
2000
3000
0100
0002
0003
0010
0200
0300
,
0100
0020
0030
0010
0100
0010
0000
1001
,
0001
0020
0030
1000
0200
0300
0010
0002
,
0003
0100
2000
3001
0100
0001
0000
0100
,
2000
3000
0010
0002
0003
1000
0200
0300
,
0001
0020
0030
1000
0010
1000
0010
2000
,
0000
0000
3000
0001
0000
0100
0000
0001
,
0000
1000
0010
2000
0000
3000
0000
0001
,
0000
0100
1000
0100
1000
0000
0100
0000
,
0200
0300
0200
0300
0200
0300
0000
0000
,
1000
0010
1000
0010
0001
0010
0002
0003
,
1000
0100
1000
0100
0001
0100
0002
0000
,
0003
1000
0100
1000
0010
1000
0010
0001
,
0010
0100
0010
1000
0001
1000
0002
0000
,
1000
2000
3000
0103
0200
0300
0010
0020
,
0030
0001
0002
0000
0000
0000
2003
0000
,
0000
0000
0000
3002
0000
0000
0000
0000
,
0000
0003
0000
0000
0000
0000
0000
0000
;

//---------------dance-single - ----------------
#NOTES:
     dance-single:
     :
     Medium:
     6:
     0.445,0.406,0.162,0.775,0.000:
0000
0000
0000
0000
,
0000
0000
0000
0000
,
0000
0000
0000
0000
0000
0000
0000
0001
,
0000
0010
0000
1000
0000
0100
0000
0010
,
0000
0001
0000
0100
0000
1000
0001
1000
,
0000
0100
0000
0010
0000
0001
0000
0100
,
0000
0010
0000
2000
0000
3000
0000
0002
,
0003
0001
0000
1000
0000
0010
0000
0001
,
0000
0100
0000
0010
0100
0010
0000
1000
,
0000
0100
0000
0010
0000
0001
0000
0020
,
0030
0000
0000
1001
0000
0000
0000
0000
,
0000
2001
0000
0001
0000
3001
0000
1002
,
0000
1000
0000
1000
0000
1003
0000
0100
,
0000
0010
0000
0001
0000
0000
0000
1000
,
0000
0002
0000
2000
0000
3003
0000
1002
,
0000
1000
0000
1000
0000
2000
0000
0000
,
3003
0000
0000
0000
0000
2001
0000
0001
,
0000
0001
0000
0002
0000
0000
3003
0000
,
0200
0000
0020
0000
0000
0330
0000
0120
,
0000
0100
0000
0100
0000
0200
0000
0000
,
0000
0330
0000
0000
0000
0001
0000
1000
,
0001
0000
0220
0000
0000
0000
0000
0330
,
0000
2000
0000
0002
0000
3003
0000
1200
,
0000
1000
0000
1000
0000
2000
0000
0000
,
0000
3300
0000
0000
0000
0021
0000
0001
,
0000
0001
0000
0002
0000
0000
0000
0033
,
0000
0000
0000
0000
0000
0000
0000
0102
,
0000
0100
0000
0100
0000
0200
0000
0000
,
0000
0303
0000
1000
0000
0010
2000
3000
,
0000
0001
0100
0001
0000
1000
0010
1000
,
0000
1000
0000
0001
0000
1000
0000
2002
,
0000
0000
0000
0000
0000
3003
0001
0000
,
1000
0000
0001
0000
1000
0001
1000
0000
,
0002
0000
0003
0000
0000
0200
0000
0320
,
0000
0230
0000
0302
0000
2003
0000
0000
,
0002
3000
0000
0000
0003
0000
1000
0000
,
0100
0001
0010
2000
,
0000
0000
3000
0000
0000
0001
0010
0001
,
0000
0100
0000
0010
0000
0100
0000
0220
,
0000
0000
0000
0000
0000
0330
0001
0000
,
1000
0000
0001
0000
1000
0001
1000
0000
,
0002
0003
0000
2000
,
3020
0032
0203
0300
,
0001
0000
0000
0100
0000
0010
0000
1000
,
0000
0000
0000
0000
0000
0000
0000
1000
,
0000
0100
0000
0010
0000
0110
0000
2002
,
0000
0000
0000
3003
0000
0000
0000
2001
,
0000
0010
0000
0001
0000
0010
0000
0001
,
0000
0010
0000
0002
0000
3003
0000
0102
,
0000
1000
0000
0100
0000
1000
0000
0100
,
0000
1000
0000
0200
0000
0303
0000
0012
,
0000
1000
0000
0010
0000
1000
0000
0010
,
0000
1000
0000
0020
0000
0033
0000
2100
,
0000
0001
0000
0100
0000
0001
0000
0100
,
0000
0002
0000
0203
0000
0302
0000
3003
,
1000
1000
1000
1000
,
1000
1000
1000
0001
,
0002
0000
0000
0000
0000
0000
0000
0003
,
0001
0001
0001
1000
,
2000
0000
0000
0000
0000
0000
0000
3000
,
1000
0000
1000
0000
1000
0000
0002
2003
,
0000
0000
3000
0000
,
0000
0000
1000
0001
1000
0000
0000
0200
,
0000
0300
0020
0000
0030
2000
0000
3000
,
0002
0000
0003
0200
0000
0300
0000
0002
,
0000
0003
0020
0000
0030
0200
0000
0300
,
2000
0000
3000
0020
0000
0000
0030
0000
,
0200
0000
0300
0020
0000
0030
2000
0000
,
3000
0200
0000
0300
0020
0000
0030
0000
,
0002
0000
0003
2000
0000
3000
0200
0000
,
0300
0020
0000
0030
0100
0010
0100
0000
,
0000
0001
0000
0001
0000
0001
0000
0001
,
0000
0100
0000
0100
0000
0100
0000
1000
,
0000
1000
0000
0010
0000
0100
0000
0010
,
0000
0200
0000
0000
0000
0000
0000
0300
,
0001
1000
0000
0001
0000
1000
0000
0001
,
0000
0001
0000
0001
0000
1000
0000
1000
,
0000
1000
0100
1000
0000
0020
0030
0002
,
0003
0020
0030
0002
0003
0020
0000
0000
,
0000
1000
0000
1000
,
0000
1030
2000
0000
,
0000
0000
3000
0002
0000
0000
0000
0000
,
0003
0000
0000
0000
;

//---------------dance-single - ----------------
#NOTES:
     dance-single:
     :
     Easy:
     4:
     0.288,0.295,0.027,0.297,0.000: // measure 1
0000
0000
0000
0000
,  // measure 2
0000
0000
0000
0000
,  // measure 3
0000
0000
0000
0000
0000
0000
0000
0100
,  // measure 4
0000
0000
0000
0100
0000
0000
0000
0100
,  // measure 5
0000
0000
0000
0100
0000
0000
0000
0010
,  // measure 6
0000
0000
0000
0010
0000
0000
0000
0010
,  // measure 7
0000
0000
0000
0010
0000
0000
0000
1001
,  // measure 8
0000
0000
0000
0001
0000
0000
0000
0001
,  // measure 9
0000
0000
0000
0001
0000
0000
0000
1000
,  // measure 10
0000
0000
0000
1000
0000
0000
0000
1000
,  // measure 11
0000
0000
0000
0002
0000
0003
0000
2000
,  // measure 12
0000
3100
0000
0100
0000
0100
0000
0000
,  // measure 13
0010
0000
0010
0000
0010
0000
0000
0001
,  // measure 14
0000
0001
0000
0001
0000
1000
0000
1000
,  // measure 15
0000
1000
0000
0002
0000
0000
0000
0003
,  // measure 16
1000
0000
0100
0000
,  // measure 17
0001
0000
0010
0000
,  // measure 18
0100
0000
0002
0003
,  // measure 19
1000
1000
1000
1000
,  // measure 20
0001
0000
0100
0000
,  // measure 21
0001
0000
0010
0000
,  // measure 22
1000
0000
0000
0000
0010
0000
0000
2000
,  // measure 23
0000
0000
0000
0000
0000
0000
0000
3000
,  // measure 24
0100
0000
0100
0000
,  // measure 25
0100
0000
0100
0000
,  // measure 26
0010
0000
0000
0000
0020
0000
0000
0030
,  // measure 27
0000
0002
0000
0003
2000
0000
3000
0000
,  // measure 28
1000
0000
1000
0000
,  // measure 29
1000
0000
0001
0000
,  // measure 30
0001
0000
0002
0000
,  // measure 31
0003
2000
0000
3000
,  // measure 32
2002
0000
0000
0000
0000
3003
0000
0000
,  // measure 33
0001
0000
0100
0000
,  // measure 34
0001
0000
0100
0000
,  // measure 35
1000
0000
0010
0000
,  // measure 36
1000
0000
0100
0000
,  // measure 37
0001
0000
0100
0000
,  // measure 38
0001
0000
0000
0000
0200
0000
0000
0300
,  // measure 39
0000
0020
0000
0000
0000
0000
0000
0030
,  // measure 40
0220
0000
0000
0330
,  // measure 41
1000
0000
0100
0000
,  // measure 42
1000
0000
0010
0000
,  // measure 43
0001
0000
0010
0000
,  // measure 44
1000
1000
1000
2000
,  // measure 45
3000
0000
0000
0001
,  // measure 46
0001
0001
0001
0002
,  // measure 47
0003
2000
0000
0000
3000
0000
0000
0001
,  // measure 48
0000
0100
0000
0001
0000
0100
0000
0001
,  // measure 49
0000
0100
0000
0002
0000
0003
0000
1000
,  // measure 50
0000
0100
0000
1000
0000
0100
0000
1000
,  // measure 51
0000
0200
0000
0300
0000
0000
0000
0001
,  // measure 52
0000
0010
0000
0001
0000
0010
0000
0001
,  // measure 53
0000
0010
0000
0002
0000
0003
0000
1000
,  // measure 54
0000
0010
0000
1000
0000
0010
0000
1000
,  // measure 55
0000
0010
0000
2000
0000
0000
0000
3000
,  // measure 56
0100
0000
0100
0000
,  // measure 57
0100
0000
0100
0001
,  // measure 58
0002
0000
0000
0000
0000
0000
0000
0003
,  // measure 59
0010
0000
0010
1000
,  // measure 60
2000
0000
0000
0000
0000
0000
0000
3000
,  // measure 61
0001
0000
0001
1000
,  // measure 62
2000
0000
0000
0000
0000
0000
0000
3000
,  // measure 63
0000
0000
0002
0000
0000
0003
0000
0000
,  // measure 64
0100
0000
0000
0100
0000
0000
0100
0000
,  // measure 65
0000
0100
0000
0000
0100
0000
0100
0000
,  // measure 66
0010
0000
0000
0010
0000
0000
0010
0000
,  // measure 67
0000
0010
0000
0000
0010
0000
0010
0000
,  // measure 68
0001
0000
0000
0001
0000
0000
0001
0000
,  // measure 69
0000
0001
0000
0000
0001
0000
0001
0000
,  // measure 70
1000
0000
0000
1000
0000
0000
1000
0000
,  // measure 71
0000
1000
0000
0000
1000
0000
2000
0000
,  // measure 72
3000
0000
0000
0001
0000
0100
0000
0001
,  // measure 73
0000
0100
0000
0002
0000
0000
0000
0003
,  // measure 74
0000
1000
0000
0100
0000
1000
0000
0100
,  // measure 75
0000
2000
0000
3000
2000
0000
3000
0000
,  // measure 76
0000
0010
0000
0001
0000
0010
0000
0001
,  // measure 77
0000
0010
0000
1000
0000
0010
0000
1000
,  // measure 78
0000
0010
0000
0100
0000
0001
0000
0100
,  // measure 79
0000
0001
0000
0100
0000
1000
0000
0100
,  // measure 80
0000
2000
0000
0000
0000
0000
0000
0000
,  // measure 81
0000
0000
0000
0000
0000
0000
3000
0002
,  // measure 82
0000
0000
0000
0000
0000
0000
0000
0003
;
